<?xml version="1.0" standalone="no"?>
<!DOCTYPE svg PUBLIC "-//W3C//DTD SVG 1.1//EN" "http://www.w3.org/Graphics/SVG/1.1/DTD/svg11.dtd">
<svg xmlns="http://www.w3.org/2000/svg">
<defs >
<font id="Muli" horiz-adv-x="554" ><font-face
    font-family="Muli ExtraLight"
    units-per-em="1000"
    panose-1="0 0 3 0 0 0 0 0 0 0"
    ascent="1005"
    descent="-250"
    alphabetic="0" />
<glyph unicode=" " glyph-name="space" horiz-adv-x="250" />
<glyph unicode="!" glyph-name="exclam" horiz-adv-x="214" d="M86 164L115 712H170L113 164H86ZM59 71H127L122 0H54L59 71Z" />
<glyph unicode="&quot;" glyph-name="quotedbl" horiz-adv-x="397" d="M104 444L112 712H165L132 444H104ZM299 444L307 712H360L327 444H299Z" />
<glyph unicode="#" glyph-name="numbersign" horiz-adv-x="606" d="M599 487H485L416 233H559L555 193H405L353 0H310L362 193H172L120 0H77L130 193H23L25 233H140L210 487H67L69 527H221L271 712H313L263 527H453L503 712H546L496 527H601L599 487ZM373 233L442
487H252L183 233H373Z" />
<glyph unicode="$" glyph-name="dollar" horiz-adv-x="600" d="M479 665T366 677L341 360Q403 341 443 323T509 272T536 188Q536 133 508 89T429 20T310 -9L303 -116H262L269 -8Q199 -4 141 21T41 91L65 127Q113 81 161 59T272 34L294 330Q231 349 190 369T120
426T92 517Q92 576 121 622T204 694T326 720L334 828H377L369 718Q496 706 567 624L542 589Q479 665 366 677ZM136 461T177 430T298 373L321 679Q237 679 187 636T136 519Q136 461 177 430ZM492 238T453 265T337 317L315 33Q399 37 445 78T492 187Q492 238 453
265Z" />
<glyph unicode="%" glyph-name="percent" horiz-adv-x="926" d="M168 285T127 333T86 475Q86 590 131 655T258 720Q336 720 376 671T417 527Q417 413 372 349T245 285Q168 285 127 333ZM264 0H213L680 712H729L264 0ZM307 322T339 376T371 533Q371 609 343 645T258
682Q196 682 164 628T132 470Q132 394 160 358T246 322Q307 322 339 376ZM610 -7T569 42T527 183Q527 298 572 363T699 428Q777 428 818 380T859 236Q859 122 813 58T687 -7Q610 -7 569 42ZM749 31T780 85T812 242Q812 317 785 353T699 390Q638 390 606 336T574
178Q574 103 602 67T688 31Q749 31 780 85Z" />
<glyph unicode="&amp;" glyph-name="ampersand" horiz-adv-x="655" d="M574 67T655 21L628 -8Q547 39 494 97Q454 47 400 20T280 -7Q216 -7 168 15T92 78T65 172Q65 233 101 284T226 393L239 401Q186 465 168 500T149 575Q149 641 192 680T307 719Q373 719 412
683T451 586Q451 552 438 524T393 466T299 393L490 164Q543 261 543 408H586Q583 240 517 131L520 128Q574 67 655 21ZM195 541T210 511T273 424Q350 477 378 510T406 582Q406 626 379 652T306 679Q255 679 225 650T195 574Q195 541 210 511ZM339 32T386 56T468
128L265 370L255 363Q172 307 140 265T108 171Q108 107 155 70T281 32Q339 32 386 56Z" />
<glyph unicode="&apos;" glyph-name="quotesingle" horiz-adv-x="202" d="M104 444L112 712H165L132 444H104Z" />
<glyph unicode="(" glyph-name="parenleft" horiz-adv-x="284" d="M106 -8T106 183Q106 224 109 266Q127 497 245 712H287Q169 490 152 266Q149 227 149 186Q149 5 215 -182H178Q106 -8 106 183Z" />
<glyph unicode=")" glyph-name="parenright" horiz-adv-x="284" d="M0 -182Q117 42 135 266Q138 305 138 345Q138 528 73 712H111Q182 537 182 349Q182 308 179 266Q161 35 39 -182H0Z" />
<glyph unicode="*" glyph-name="asterisk" horiz-adv-x="452" d="M140 376L110 399L222 532L66 582L80 619L233 564L243 730H283L266 563L428 619L438 582L274 531L365 399L331 376L248 515L140 376Z" />
<glyph unicode="+" glyph-name="plus" horiz-adv-x="600" d="M551 306L547 266H321L304 40H265L282 266H55L59 306H286L303 533H342L325 306H551Z" />
<glyph unicode="," glyph-name="comma" horiz-adv-x="214" d="M127 71L123 12Q120 -23 109 -49T71 -99L45 -79Q66 -57 74 -39T85 0H54L59 71H127Z" />
<glyph unicode="-" glyph-name="hyphen" horiz-adv-x="420" d="M78 248L81 287H347L344 248H78Z" />
<glyph unicode="." glyph-name="period" horiz-adv-x="214" d="M59 71H127L122 0H54L59 71Z" />
<glyph unicode="/" glyph-name="slash" horiz-adv-x="259" d="M2 -52H-43L274 746H319L2 -52Z" />
<glyph unicode="0" glyph-name="zero" horiz-adv-x="600" d="M183 -8T125 70T67 300Q67 500 134 610T322 720Q435 720 493 642T552 412Q552 212 485 102T295 -8Q183 -8 125 70ZM399 33T452 131T506 421Q506 551 461 615T322 679Q219 679 166 581T112 291Q112 160
157 97T297 33Q399 33 452 131Z" />
<glyph unicode="1" glyph-name="one" horiz-adv-x="600" d="M326 38H485L482 0H123L127 38H284L332 650L177 552L182 600L336 699L337 706L341 702L357 712H379L326 38Z" />
<glyph unicode="2" glyph-name="two" horiz-adv-x="600" d="M137 38H518L515 0H74L76 32L357 319Q426 390 454 441T482 548Q482 608 444 644T343 680Q283 680 231 659T124 591L107 626Q151 670 213 695T339 720Q425 720 475 674T525 549Q525 484 492 423T382 283L137 38Z" />
<glyph unicode="3" glyph-name="three" horiz-adv-x="600" d="M449 348T481 307T513 203Q513 140 485 93T404 19T283 -7Q216 -7 158 17T54 87L77 122Q127 77 177 55T286 33Q371 33 420 77T469 200Q469 270 425 306T293 342H222L225 382H292Q378 382 430 429T482
554Q482 611 443 645T340 680Q283 680 231 659T124 591L107 626Q152 670 214 695T340 720Q425 720 475 674T525 551Q525 488 489 437T390 364Q449 348 481 307Z" />
<glyph unicode="4" glyph-name="four" horiz-adv-x="600" d="M556 207L553 168H438L424 0H383L396 168H80L78 166V168H52L55 201L446 712H482L441 207H556ZM110 207H399L432 625L110 207Z" />
<glyph unicode="5" glyph-name="five" horiz-adv-x="600" d="M185 673L161 361Q190 397 236 418T333 439Q428 439 485 383T542 234Q542 164 512 109T428 24T305 -7Q241 -7 183 17T80 87L103 122Q155 77 205 55T308 33Q394 33 446 88T498 234Q498 308 454 353T337
398Q214 398 152 297H112L144 712H555L552 673H185Z" />
<glyph unicode="6" glyph-name="six" horiz-adv-x="600" d="M252 680T190 594T115 348L111 302Q137 365 192 402T319 439Q386 439 436 413T513 337T541 224Q541 158 512 105T431 22T315 -8Q198 -8 134 70T70 293Q70 422 105 518T205 667T356 720Q416 720 472 696T573
626L549 591Q502 635 453 657T355 680Q252 680 190 594ZM264 398T222 374T155 306T131 207Q131 129 182 81T315 32Q368 32 409 56T474 124T497 225Q497 303 448 350T318 398Q264 398 222 374Z" />
<glyph unicode="7" glyph-name="seven" horiz-adv-x="600" d="M113 712H561L558 681L166 0H120L508 674H110L113 712Z" />
<glyph unicode="8" glyph-name="eight" horiz-adv-x="600" d="M467 347T504 301T541 189Q541 130 511 86T422 18T282 -7Q210 -7 157 16T76 81T48 175Q48 246 90 296T212 366Q156 385 124 427T92 533Q92 620 153 670T331 720Q432 720 492 673T552 545Q552 480 513
432T404 365Q467 347 504 301ZM137 467T182 427T310 379Q400 386 453 431T506 544Q506 609 461 644T333 680Q236 680 187 642T137 532Q137 467 182 427ZM384 33T439 73T495 186Q495 330 307 343Q198 335 146 293T94 181Q94 110 144 72T285 33Q384 33 439 73Z" />
<glyph unicode="9" glyph-name="nine" horiz-adv-x="600" d="M422 720T486 642T550 419Q550 290 515 194T415 45T264 -8Q204 -8 148 16T46 86L70 121Q167 32 265 32Q367 32 429 118T504 364L508 410Q482 347 427 310T300 273Q234 273 184 300T106 375T78 488Q78
554 107 607T188 690T305 720Q422 720 486 642ZM355 314T398 338T465 406T489 505Q489 583 438 631T303 680Q250 680 209 656T146 588T123 487Q123 409 172 362T301 314Q355 314 398 338Z" />
<glyph unicode=":" glyph-name="colon" horiz-adv-x="215" d="M91 489H161L156 418H86L91 489ZM59 71H127L122 0H53L59 71Z" />
<glyph unicode=";" glyph-name="semicolon" horiz-adv-x="214" d="M91 489H161L156 418H86L91 489ZM59 71H127L123 12Q120 -23 109 -49T71 -99L45 -79Q66 -57 74 -39T85 0H54L59 71Z" />
<glyph unicode="&lt;" glyph-name="less" horiz-adv-x="600" d="M570 538L566 495L107 286L533 78L530 33L56 268L59 304L570 538Z" />
<glyph unicode="=" glyph-name="equal" horiz-adv-x="600" d="M560 407L556 367H63L67 407H560ZM543 205L540 165H48L51 205H543Z" />
<glyph unicode="&gt;" glyph-name="greater" horiz-adv-x="600" d="M77 538L551 304L548 268L37 33L40 78L499 287L73 495L77 538Z" />
<glyph unicode="?" glyph-name="question" horiz-adv-x="433" d="M179 175Q182 224 198 263T236 332T293 403Q339 456 361 493T383 580Q383 625 350 652T257 680Q186 680 117 640L121 686Q154 703 189 711T257 720Q337 720 382 683T427 583Q427 542 413 508T379
447T323 380Q288 340 268 314T230 252T206 174L205 164H179V175ZM144 0L149 71H218L213 0H144Z" />
<glyph unicode="@" glyph-name="at" horiz-adv-x="928" d="M353 -149T258 -96T112 55T60 280Q60 409 115 508T265 662T479 717Q607 717 697 662T833 523T879 349Q879 244 848 181T772 91T679 65Q624 65 596 88T566 158H564Q539 115 499 90T408 65Q346 65 306 110T265
238Q265 306 291 367T366 465T479 503Q531 503 568 477T614 412H615L627 489H670L619 196Q616 178 616 163Q616 128 634 115T687 102Q721 102 755 126T812 205T836 349Q836 426 797 501T677 625T479 674Q373 674 287 626T151 488T101 280Q101 163 146 76T277 -58T480
-106Q571 -106 638 -78T743 0H801Q756 -70 673 -109T480 -149Q353 -149 258 -96ZM472 102T513 135T576 222T598 335Q598 398 566 431T481 465Q428 465 388 433T326 350T304 243Q304 174 336 138T416 102Q472 102 513 135Z" />
<glyph unicode="A" glyph-name="A" horiz-adv-x="721" d="M623 0L554 197H161L61 0H15L377 712H417L668 0H623ZM181 237H540L393 657L181 237Z" />
<glyph unicode="B" glyph-name="B" horiz-adv-x="674" d="M539 347T569 307T599 206Q599 108 538 54T364 0H79L134 712H387Q496 712 552 668T609 539Q609 475 576 429T479 363Q539 347 569 307ZM174 673L151 382H378Q466 382 516 423T566 541Q566 606 522 639T390
673H174ZM457 39T505 79T554 198Q554 341 378 341H148L124 39H366Q457 39 505 79Z" />
<glyph unicode="C" glyph-name="C" horiz-adv-x="684" d="M277 -8T212 31T112 146T76 323Q76 444 115 533T229 671T404 720Q569 720 658 624L633 590Q584 638 531 658T401 679Q313 679 250 636T154 513T120 322Q120 183 187 108T377 33Q503 33 596 123L615 88Q564
40 503 16T364 -8Q277 -8 212 31Z" />
<glyph unicode="D" glyph-name="D" horiz-adv-x="734" d="M134 712H347Q507 712 591 629T675 388Q675 268 635 181T515 47T325 0H79L134 712ZM326 38Q475 38 552 130T629 389Q629 674 348 674H174L124 38H326Z" />
<glyph unicode="E" glyph-name="E" horiz-adv-x="583" d="M561 673H174L151 381H517L514 341H148L124 39H510L507 0H79L134 712H563L561 673Z" />
<glyph unicode="F" glyph-name="F" horiz-adv-x="556" d="M550 673H174L151 381H507L504 342H148L121 0H79L134 712H553L550 673Z" />
<glyph unicode="G" glyph-name="G" horiz-adv-x="723" d="M407 359H643L619 39Q577 19 513 6T392 -8Q238 -8 157 76T76 312Q76 436 117 528T236 669T419 719Q567 719 661 624L636 589Q584 637 533 658T419 679Q326 679 259 636T156 511T120 316Q120 180 188 106T388
32Q436 32 487 42T582 69L601 318H404L407 359Z" />
<glyph unicode="H" glyph-name="H" horiz-adv-x="759" d="M627 342H148L121 0H79L134 712H177L151 381H630L627 342ZM656 712H699L643 0H601L656 712Z" />
<glyph unicode="I" glyph-name="I" horiz-adv-x="235" d="M79 0L134 712H176L120 0H79Z" />
<glyph unicode="J" glyph-name="J" horiz-adv-x="300" d="M-39 -137Q-2 -146 28 -146Q80 -146 107 -113T141 -5L198 712H240L183 -7Q175 -101 137 -143T28 -186Q0 -186 -42 -178L-39 -137Z" />
<glyph unicode="K" glyph-name="K" horiz-adv-x="605" d="M613 712L188 364L581 0H524L147 346L120 0H79L134 712H176L150 382L549 712H613Z" />
<glyph unicode="L" glyph-name="L" horiz-adv-x="532" d="M79 0L134 712H176L124 38H502L499 0H79Z" />
<glyph unicode="M" glyph-name="M" horiz-adv-x="848" d="M751 712H788L732 0H691L738 603L424 0H390L168 605L120 0H79L134 712H172L410 49L751 712Z" />
<glyph unicode="N" glyph-name="N" horiz-adv-x="739" d="M639 712H679L623 0H589L170 642L118 0H79L134 712H170L588 73L639 712Z" />
<glyph unicode="O" glyph-name="O" horiz-adv-x="759" d="M285 -8T217 32T113 146T76 323Q76 443 115 533T227 671T396 720Q490 720 558 680T663 566T700 388Q700 268 661 179T549 41T379 -8Q285 -8 217 32ZM464 34T526 76T621 199T654 389Q654 529 588 603T396
678Q311 678 249 636T154 513T121 322Q121 183 188 109T380 34Q464 34 526 76Z" />
<glyph unicode="P" glyph-name="P" horiz-adv-x="639" d="M492 712T549 663T607 532Q607 432 540 379T359 326H146L120 0H79L134 712H386Q492 712 549 663ZM459 367T511 408T563 532Q563 597 519 635T387 673H173L149 367H361Q459 367 511 408Z" />
<glyph unicode="Q" glyph-name="Q" horiz-adv-x="759" d="M700 231T634 129T453 0Q496 -89 569 -154L536 -191Q502 -162 466 -111T403 -7Q395 -8 379 -8Q285 -8 217 32T113 146T76 323Q76 443 115 533T227 671T396 720Q490 720 558 680T663 566T700 388Q700 231
634 129ZM464 34T526 76T621 199T654 389Q654 529 588 603T396 678Q311 678 249 636T154 513T121 322Q121 183 188 109T380 34Q464 34 526 76Z" />
<glyph unicode="R" glyph-name="R" horiz-adv-x="684" d="M493 329T513 304T547 233L614 0H571L500 237Q485 288 450 306T350 324H146L120 0H79L134 712H402Q509 712 566 667T624 534Q624 456 583 405T463 338Q493 329 513 304ZM379 364Q480 364 530 405T580 532Q580
673 404 673H174L149 364H379Z" />
<glyph unicode="S" glyph-name="S" horiz-adv-x="604" d="M219 -8T157 15T39 88L64 123Q119 74 174 53T302 32Q401 32 454 71T507 182Q507 224 482 250T421 291T319 325Q244 346 198 365T119 424T87 527Q87 585 117 628T203 696T334 720Q408 720 470 696T580 624L556
589Q456 680 335 680Q235 680 183 639T130 526Q130 478 157 449T223 403T331 367Q403 347 446 329T520 275T551 182Q551 125 521 82T434 16T303 -8Q219 -8 157 15Z" />
<glyph unicode="T" glyph-name="T" horiz-adv-x="590" d="M254 0L308 674H46L49 712H615L612 674H350L296 0H254Z" />
<glyph unicode="U" glyph-name="U" horiz-adv-x="722" d="M219 -8T156 55T92 235Q92 257 93 269L128 712H170L135 273Q134 261 134 239Q134 33 342 33Q575 33 591 264L625 712H668L633 271Q622 131 549 62T343 -8Q219 -8 156 55Z" />
<glyph unicode="V" glyph-name="V" horiz-adv-x="677" d="M656 712H702L339 0H298L48 712H92L322 52L656 712Z" />
<glyph unicode="W" glyph-name="W" horiz-adv-x="1104" d="M1055 712H1098L796 0H756L583 643L308 0H270L79 712H120L293 60L570 712L606 711L780 61L1055 712Z" />
<glyph unicode="X" glyph-name="X" horiz-adv-x="636" d="M633 712L353 366L593 0H542L326 333L56 0H5L304 367L77 712H127L330 399L582 712H633Z" />
<glyph unicode="Y" glyph-name="Y" horiz-adv-x="587" d="M621 712L318 298L295 0H252L276 296L37 712H85L299 333L572 712H621Z" />
<glyph unicode="Z" glyph-name="Z" horiz-adv-x="585" d="M574 712L571 681L81 39H531L527 0H52L50 -2V0H23L25 31L517 673H77L80 712H546L548 714V712H574Z" />
<glyph unicode="[" glyph-name="bracketleft" horiz-adv-x="284" d="M80 -182L150 712H316L314 675H190L125 -144H249L247 -182H80Z" />
<glyph unicode="\" glyph-name="backslash" horiz-adv-x="259" d="M210 -52L18 746H65L256 -52H210Z" />
<glyph unicode="]" glyph-name="bracketright" horiz-adv-x="284" d="M136 -182H-29L-27 -144H97L163 675H38L40 712H207L136 -182Z" />
<glyph unicode="^" glyph-name="asciicircum" horiz-adv-x="600" d="M543 141H502L327 582L84 141H40L312 634H349L543 141Z" />
<glyph unicode="_" glyph-name="underscore" horiz-adv-x="505" d="M-18 -33L-15 0H482L480 -33H-18Z" />
<glyph unicode="`" glyph-name="grave" horiz-adv-x="300" d="M158 555L48 757H107L194 555H158Z" />
<glyph unicode="a" glyph-name="a" horiz-adv-x="583" d="M515 500L475 0H435L442 90Q418 45 371 19T268 -7Q204 -7 156 23T82 108T55 236Q55 318 84 381T166 478T288 512Q351 512 397 484T466 405L474 500H515ZM358 33T407 98T456 276Q456 371 412 421T283 472Q197
472 148 408T99 230Q99 137 144 85T272 33Q358 33 407 98Z" />
<glyph unicode="b" glyph-name="b" horiz-adv-x="583" d="M378 512T426 482T501 398T528 270Q528 187 499 124T417 27T295 -7Q232 -7 186 21T118 100L110 0H68L127 736H168L142 417Q167 461 214 486T315 512Q378 512 426 482ZM387 33T435 97T484 275Q484 368 439
420T313 472Q226 472 177 407T128 229Q128 134 173 84T303 33Q387 33 435 97Z" />
<glyph unicode="c" glyph-name="c" horiz-adv-x="487" d="M204 -7T156 22T81 106T54 233Q54 316 83 379T167 477T296 512Q347 512 392 495T469 445L447 410Q406 444 370 458T290 473Q199 473 149 409T98 230Q98 138 143 86T274 33Q314 33 348 47T422 95L439 61Q408
30 364 12T269 -7Q204 -7 156 22Z" />
<glyph unicode="d" glyph-name="d" horiz-adv-x="583" d="M532 736L474 0H434L441 90Q417 45 370 19T267 -7Q204 -7 156 23T81 107T54 234Q54 317 83 380T165 477T287 512Q350 512 397 484T466 403L492 736H532ZM357 33T406 98T455 276Q455 371 411 421T282 472Q197
472 148 408T98 233Q98 138 143 86T271 33Q357 33 406 98Z" />
<glyph unicode="e" glyph-name="e" horiz-adv-x="541" d="M101 261Q100 251 100 229Q100 138 145 86T277 33Q324 33 369 48T451 95L470 61Q440 30 386 12T279 -7Q174 -7 114 58T54 233Q54 316 83 379T167 477T296 512Q389 512 442 459T495 304Q495 276 493 261H101ZM221
475T171 430T106 302H454Q458 384 416 429T300 475Q221 475 171 430Z" />
<glyph unicode="f" glyph-name="f" horiz-adv-x="311" d="M168 500H322L318 465H165L129 0H88L124 465H26L29 500H127L135 603Q141 672 177 706T269 740Q294 740 324 732L320 692Q293 700 273 700Q231 700 206 676T175 589L168 500Z" />
<glyph unicode="g" glyph-name="g" horiz-adv-x="587" d="M518 500L477 -8Q460 -223 265 -223Q209 -223 163 -209T73 -166L87 -126Q134 -158 173 -170T265 -183Q422 -183 438 -7L448 119Q424 70 377 43T273 15Q173 15 114 78T55 247Q55 326 84 386T166 479T289
512Q354 512 401 484T470 404L477 500H518ZM360 56T410 117T460 285Q460 374 414 423T285 472Q198 472 149 411T99 243Q99 152 144 104T274 56Q360 56 410 117Z" />
<glyph unicode="h" glyph-name="h" horiz-adv-x="570" d="M401 512T445 470T490 346Q490 329 489 320L464 0H423L449 316Q450 324 450 340Q450 408 418 440T320 473Q238 473 189 425T133 291L110 0H68L126 736H168L142 415Q167 462 212 487T316 512Q401 512 445 470Z" />
<glyph unicode="i" glyph-name="i" horiz-adv-x="218" d="M69 0L109 500H151L111 0H69ZM112 700H176L171 636H107L112 700Z" />
<glyph unicode="j" glyph-name="j" horiz-adv-x="218" d="M-56 -179T-35 -179Q7 -179 32 -155T62 -67L108 500H149L102 -82Q96 -151 60 -184T-32 -218Q-53 -218 -86 -211L-83 -171Q-56 -179 -35 -179ZM112 700H176L171 636H107L112 700Z" />
<glyph unicode="k" glyph-name="k" horiz-adv-x="482" d="M470 500L179 259L461 0H405L129 252L109 0H68L126 736H167L130 265L410 500H470Z" />
<glyph unicode="l" glyph-name="l" horiz-adv-x="218" d="M68 0L127 736H169L110 0H68Z" />
<glyph unicode="m" glyph-name="m" horiz-adv-x="860" d="M701 512T740 472T780 351Q780 331 779 320L754 0H714L739 316Q740 327 740 346Q740 411 712 442T625 473Q550 473 506 426T455 292L432 0H391L416 316Q417 327 417 346Q417 411 389 442T302 473Q228 473
184 426T133 292L110 0H68L97 362Q101 426 101 462Q101 487 100 500H138L139 411Q161 461 202 486T302 512Q424 512 452 416Q476 462 521 487T624 512Q701 512 740 472Z" />
<glyph unicode="n" glyph-name="n" horiz-adv-x="570" d="M401 512T445 470T490 346Q490 329 489 320L464 0H423L449 316Q450 324 450 340Q450 408 418 440T320 473Q238 473 189 425T133 291L110 0H68L97 362Q101 403 101 454Q101 485 100 500H138L139 409Q163
459 210 485T316 512Q401 512 445 470Z" />
<glyph unicode="o" glyph-name="o" horiz-adv-x="553" d="M204 -7T156 22T81 106T54 233Q54 316 82 379T163 477T285 512Q349 512 397 483T472 399T499 271Q499 188 470 125T389 28T269 -7Q204 -7 156 22ZM357 33T406 96T455 274Q455 367 410 419T283 472Q198
472 148 408T98 230Q98 135 143 84T273 33Q357 33 406 96Z" />
<glyph unicode="p" glyph-name="p" horiz-adv-x="583" d="M378 512T426 482T502 398T529 270Q529 187 500 125T418 28T296 -7Q232 -7 185 21T117 102L92 -216H51L97 362Q101 403 101 454Q101 485 100 500H138L139 410Q162 458 210 485T315 512Q378 512 426 482ZM387
33T435 97T484 275Q484 368 439 420T313 472Q227 472 178 407T128 229Q128 134 173 84T303 33Q387 33 435 97Z" />
<glyph unicode="q" glyph-name="q" horiz-adv-x="583" d="M520 500Q506 413 502 362L456 -216H415L439 89Q414 44 367 19T266 -7Q203 -7 155 23T80 108T53 236Q53 318 82 381T164 478T286 512Q351 512 399 482T467 398L482 500H520ZM355 33T404 98T454 276Q454
371 409 421T281 472Q195 472 146 408T96 230Q96 138 142 86T269 33Q355 33 404 98Z" />
<glyph unicode="r" glyph-name="r" horiz-adv-x="336" d="M335 512T348 509L342 472Q326 475 303 475Q248 475 211 449T155 383T134 300L110 0H68L97 362Q101 428 101 462Q101 487 100 500H138L139 416Q163 461 208 486T307 512Q335 512 348 509Z" />
<glyph unicode="s" glyph-name="s" horiz-adv-x="492" d="M174 -7T125 11T43 61L65 95Q106 62 143 48T229 34Q300 34 337 57T375 128Q375 157 358 176T315 205T245 229Q194 244 162 258T108 299T86 369Q85 435 135 473T271 512Q322 512 366 495T438 445L415 409Q351
472 272 472Q204 472 168 446T131 370Q131 341 148 323T191 294T261 271Q314 256 345 243T399 202T421 131Q421 67 368 30T228 -7Q174 -7 125 11Z" />
<glyph unicode="t" glyph-name="t" horiz-adv-x="324" d="M141 145Q140 137 140 123Q140 72 162 53T226 33Q256 33 280 42L278 2Q249 -6 219 -6Q164 -6 131 23T98 113L99 130L125 465H26L28 500H128L138 636L180 654L168 500H321L318 465H166L141 145Z" />
<glyph unicode="u" glyph-name="u" horiz-adv-x="561" d="M493 500L454 0H414L421 92Q396 44 351 19T250 -7Q167 -7 123 35T79 160Q79 177 80 186L105 500H146L121 189Q120 180 120 163Q120 32 247 32Q326 32 374 80T430 215L452 500H493Z" />
<glyph unicode="v" glyph-name="v" horiz-adv-x="520" d="M472 500H516L265 0H216L43 500H85L242 35L472 500Z" />
<glyph unicode="w" glyph-name="w" horiz-adv-x="857" d="M789 500H835L619 0H569L444 450L247 0H197L62 500H105L225 48L421 500H473L597 48L789 500Z" />
<glyph unicode="x" glyph-name="x" horiz-adv-x="522" d="M499 500L288 257L471 0H419L259 226L63 0H10L236 259L60 500H114L262 291L448 500H499Z" />
<glyph unicode="y" glyph-name="y" horiz-adv-x="520" d="M516 500L234 -57Q194 -137 142 -174T15 -227L10 -192Q82 -175 120 -147T191 -59L218 -8L42 500H85L242 35L471 500H516Z" />
<glyph unicode="z" glyph-name="z" horiz-adv-x="512" d="M471 500L470 467L95 35H447L444 0H31L34 27L415 465H83L86 500H471Z" />
<glyph unicode="{" glyph-name="braceleft" horiz-adv-x="321" d="M354 712L352 675H291Q261 675 243 656T221 600L203 365Q200 321 178 297T127 266Q156 259 173 235T188 167L168 -70Q163 -144 226 -144H286L284 -182H227Q173 -182 147 -153T125 -68L143 166Q144
172 144 183Q144 214 128 230T74 253L56 257L58 275L77 278Q120 285 139 305T160 366L178 598Q182 652 215 682T297 712H354Z" />
<glyph unicode="|" glyph-name="bar" horiz-adv-x="247" d="M69 -182L139 712H183L112 -182H69Z" />
<glyph unicode="}" glyph-name="braceright" horiz-adv-x="321" d="M270 275L269 257L248 253Q205 246 187 226T165 166L146 -68Q142 -123 112 -152T27 -182H-29L-27 -144H33Q64 -144 82 -125T103 -70L122 167Q125 210 147 234T199 266Q170 272 152 296T137 365L157
600Q159 637 144 656T98 675H38L40 712H97Q145 712 174 682T199 598L181 366Q178 325 193 305T250 278L270 275Z" />
<glyph unicode="~" glyph-name="asciitilde" horiz-adv-x="600" d="M553 316Q528 270 496 247T419 223Q385 223 356 235T283 272Q250 291 229 300T187 310Q152 310 129 291T89 240L55 256Q78 301 110 324T187 348Q221 348 252 335T324 299Q358 280 379 271T420
262Q455 262 477 280T517 331L553 316Z" />
<glyph unicode="&#xa0;" glyph-name="uni00A0" horiz-adv-x="250" />
<glyph unicode="&#xa1;" glyph-name="exclamdown" horiz-adv-x="214" d="M86 418L91 489H161L156 418H86ZM100 326H126L100 -182H46L100 326Z" />
<glyph unicode="&#xa2;" glyph-name="cent" horiz-adv-x="620" d="M458 440T427 454T359 472L324 33Q364 34 397 48T470 95L488 61Q456 30 413 12T321 -7L312 -119H272L281 -5Q198 7 150 70T101 233Q101 353 160 428T322 511L331 624H371L362 511Q407 508 447
491T517 445L495 410Q458 440 427 454ZM145 150T181 99T284 36L319 472Q236 465 191 401T145 230Q145 150 181 99Z" />
<glyph unicode="&#xa3;" glyph-name="sterling" horiz-adv-x="600" d="M441 720T494 696T589 624L565 589Q527 633 478 656T375 680Q309 680 270 640T226 526L215 377H408L405 336H212L202 207Q197 138 176 100T110 38H542L538 0H29L31 30Q94 58 123 94T158 187L170
336H56L60 377H173L185 530Q193 619 244 669T380 720Q441 720 494 696Z" />
<glyph unicode="&#xa4;" glyph-name="currency" horiz-adv-x="600" d="M544 203T530 163T489 89L542 34L506 -2L453 52Q422 26 383 12T302 -3Q259 -3 220 12T148 54L93 -2L58 34L113 91Q60 160 60 247Q60 334 113 403L58 461L93 497L147 440Q179 468 219 483T302
498Q344 498 383 484T453 443L506 497L542 461L489 406Q544 336 544 247Q544 203 530 163ZM355 36T400 64T472 141T499 247Q499 305 473 353T401 430T301 458Q247 458 202 430T130 353T103 247Q103 190 129 142T201 65T301 36Q355 36 400 64Z" />
<glyph unicode="&#xa5;" glyph-name="yen" horiz-adv-x="600" d="M634 712L362 379H537L533 338H328L320 227H525L521 187H316L302 0H260L275 187H69L73 227H278L287 337V338H81L85 379H259L38 712H89L307 379H311L584 712H634Z" />
<glyph unicode="&#xa6;" glyph-name="brokenbar" horiz-adv-x="247" d="M113 375L139 712H183L157 375H113ZM70 -182L96 156H139L113 -182H70Z" />
<glyph unicode="&#xa7;" glyph-name="section" horiz-adv-x="518" d="M465 146T448 110T401 50Q410 25 410 -6Q410 -89 361 -138T230 -188Q174 -188 128 -173T38 -123L62 -87Q107 -120 144 -132T230 -145Q296 -145 331 -110T367 -11Q367 32 345 63T272 125L197
170Q121 215 89 255T56 346Q56 387 73 425T118 485Q111 507 111 537Q111 620 162 669T295 719Q339 719 384 701T458 652L435 616Q397 648 362 663T285 678Q227 678 191 640T154 540Q154 499 175 469T249 407L323 362Q401 313 433 274T465 182Q465 146 448 110ZM354
123T382 86Q420 127 420 186Q420 220 396 249T311 316L242 359Q167 406 139 444Q100 405 100 346Q100 312 125 283T210 215L278 172Q354 123 382 86Z" />
<glyph unicode="&#xa8;" glyph-name="dieresis" horiz-adv-x="300" d="M75 687H136L132 626H70L75 687ZM236 687H299L295 626H232L236 687Z" />
<glyph unicode="&#xa9;" glyph-name="copyright" horiz-adv-x="823" d="M312 -5T229 43T99 173T51 357Q51 458 98 540T228 669T412 717Q513 717 595 670T725 540T773 357Q773 256 726 174T595 43T412 -5Q312 -5 229 43ZM502 30T576 73T692 191T735 357Q735 448
693 522T576 639T412 682Q322 682 248 639T131 522T88 357Q88 266 130 191T247 73T412 30Q502 30 576 73ZM325 138T272 197T219 357Q219 457 272 515T416 574Q457 574 496 559T565 516L546 484Q511 512 481 524T414 536Q342 536 304 490T265 357Q265 269 303 223T414
176Q450 176 480 188T546 228L565 196Q536 169 497 154T416 138Q325 138 272 197Z" />
<glyph unicode="&#xaa;" glyph-name="ordfeminine" horiz-adv-x="328" d="M250 717T277 691T304 619L303 605L289 419H246L249 463Q235 440 212 427T160 414Q114 414 86 437T58 499Q58 548 99 568T242 588H260L261 608Q267 682 199 682Q147 682 98 648L84 680Q108
698 139 707T201 717Q250 717 277 691ZM201 449T226 474T257 541L258 560H243Q163 560 133 547T103 501Q103 480 120 465T162 449Q201 449 226 474Z" />
<glyph unicode="&#xab;" glyph-name="guillemotleft" horiz-adv-x="398" d="M146 89L31 267L177 447H224L82 268L192 89H146ZM306 89L191 267L337 447H384L242 268L352 89H306Z" />
<glyph unicode="&#xac;" glyph-name="logicalnot" horiz-adv-x="600" d="M560 413L539 160H503L520 374H64L67 413H560Z" />
<glyph unicode="&#xad;" glyph-name="uni00AD" horiz-adv-x="420" d="M78 248L81 287H347L344 248H78Z" />
<glyph unicode="&#xae;" glyph-name="registered" horiz-adv-x="823" d="M522 717T604 670T734 540T782 357Q782 256 735 174T604 43T421 -5Q321 -5 238 43T108 173T60 357Q60 458 107 540T237 669T421 717Q522 717 604 670ZM511 30T585 73T701 191T744 357Q744
447 702 521T585 639T421 682Q331 682 257 639T140 522T97 357Q97 266 139 192T256 74T421 30Q511 30 585 73ZM596 402T563 369T470 329Q498 319 517 284L595 143H548L473 279Q457 305 440 314T391 324H322L308 143H266L299 569H455Q524 569 560 540T596 453Q596
402 563 369ZM499 363T525 386T551 452Q551 496 527 514T448 532H339L325 363H448Q499 363 525 386Z" />
<glyph unicode="&#xaf;" glyph-name="overscore" horiz-adv-x="300" d="M34 635L38 679H332L329 635H34Z" />
<glyph unicode="&#xb0;" glyph-name="degree" horiz-adv-x="368" d="M171 430T139 449T87 501T68 574Q68 614 87 646T138 698T210 717Q249 717 281 698T333 647T352 574Q352 534 333 501T282 449T210 430Q171 430 139 449ZM254 471T281 499T309 574Q309 619 282
648T210 677Q167 677 139 648T111 574Q111 528 138 500T210 471Q254 471 281 499Z" />
<glyph unicode="&#xb1;" glyph-name="plusminus" horiz-adv-x="600" d="M327 343H555L551 304H324L309 114H270L285 304H59L62 343H288L303 533H342L327 343ZM34 0L38 40H531L527 0H34Z" />
<glyph unicode="&#xb2;" glyph-name="uni00B2" horiz-adv-x="380" d="M121 322H335L333 285H61L63 317L227 485Q265 524 281 552T298 610Q298 643 278 661T223 679Q195 679 162 665T99 627L75 658Q142 716 222 716Q278 716 309 688T340 610Q340 574 321 539T261
464L121 322Z" />
<glyph unicode="&#xb3;" glyph-name="uni00B3" horiz-adv-x="380" d="M296 494T314 470T332 407Q332 348 293 315T192 282Q150 282 112 298T45 341L75 371Q132 320 190 320Q234 320 262 341T290 404Q290 484 194 484H147L149 520H190Q240 520 268 543T296 612Q296
644 276 661T222 679Q194 679 161 665T99 627L75 658Q142 716 222 716Q277 716 308 689T340 618Q340 575 319 546T263 503Q296 494 314 470Z" />
<glyph unicode="&#xb4;" glyph-name="acute" horiz-adv-x="300" d="M194 555H158L274 757H339L194 555Z" />
<glyph unicode="&#xb5;" glyph-name="uni00B5" horiz-adv-x="561" d="M493 500L454 0H414L421 92Q396 44 351 19T250 -7Q205 -7 170 6T111 43L90 -216H50L105 500H146L121 189Q120 180 120 163Q120 32 247 32Q326 32 374 80T430 215L452 500H493Z" />
<glyph unicode="&#xb6;" glyph-name="paragraph" horiz-adv-x="560" d="M430 -182H382L448 667H323L257 -182H208L248 338Q170 340 123 387T75 511Q75 600 128 656T279 712H501L430 -182Z" />
<glyph unicode="&#xb7;" glyph-name="middot" horiz-adv-x="215" d="M77 303H147L141 232H72L77 303Z" />
<glyph unicode="&#xb8;" glyph-name="cedilla" horiz-adv-x="300" d="M200 -41T219 -59T239 -109Q239 -147 210 -169T129 -192Q109 -192 86 -188T44 -173L59 -138Q95 -152 132 -152Q164 -152 180 -142T197 -111Q197 -96 188 -88T160 -80Q137 -80 111 -91L93 -77L111
20H154L141 -45Q154 -41 168 -41Q200 -41 219 -59Z" />
<glyph unicode="&#xb9;" glyph-name="uni00B9" horiz-adv-x="380" d="M243 322H315L313 285H124L127 322H201L228 661L155 614L158 663L237 712H274L243 322Z" />
<glyph unicode="&#xba;" glyph-name="ordmasculine" horiz-adv-x="328" d="M120 414T85 452T50 551Q50 625 90 671T198 717Q257 717 292 680T327 580Q327 505 287 460T178 414Q120 414 85 452ZM228 450T255 484T283 580Q283 629 262 655T198 682Q148 682 121 647T94
550Q94 501 116 476T179 450Q228 450 255 484Z" />
<glyph unicode="&#xbb;" glyph-name="guillemotright" horiz-adv-x="398" d="M67 89H21L161 268L46 447H93L211 267L67 89ZM227 89H181L321 268L206 447H253L371 267L227 89Z" />
<glyph unicode="&#xbc;" glyph-name="onequarter" horiz-adv-x="920" d="M243 322H315L313 285H124L127 322H201L228 661L155 614L158 663L237 712H274L243 322ZM246 -22L211 2L691 734L725 710L246 -22ZM881 132L877 95H814L807 0H761L768 95H572L574 128L804
427H840L817 132H881ZM623 132H771L788 348L623 132Z" />
<glyph unicode="&#xbd;" glyph-name="onehalf" horiz-adv-x="920" d="M243 322H315L313 285H124L127 322H201L228 661L155 614L158 663L237 712H274L243 322ZM246 -22L211 2L691 734L725 710L246 -22ZM638 37H852L850 0H578L580 32L744 200Q782 239 798 267T815
325Q815 358 795 376T740 394Q712 394 679 380T616 342L592 373Q659 431 739 431Q795 431 826 403T857 325Q857 289 838 254T778 179L638 37Z" />
<glyph unicode="&#xbe;" glyph-name="threequarters" horiz-adv-x="920" d="M296 494T314 470T332 407Q332 348 293 315T192 282Q150 282 112 298T45 341L75 371Q132 320 190 320Q234 320 262 341T290 404Q290 484 194 484H147L149 520H190Q240 520 268 543T296
612Q296 644 276 661T222 679Q194 679 161 665T99 627L75 658Q142 716 222 716Q277 716 308 689T340 618Q340 575 319 546T263 503Q296 494 314 470ZM246 -22L211 2L691 734L725 710L246 -22ZM881 132L877 95H814L807 0H761L768 95H572L574 128L804 427H840L817
132H881ZM623 132H771L788 348L623 132Z" />
<glyph unicode="&#xbf;" glyph-name="questiondown" horiz-adv-x="433" d="M213 418L218 489H288L283 418H213ZM250 -189T182 -189Q101 -189 55 -150T8 -50Q8 -13 21 17T54 71T108 127Q143 161 163 184T201 241T225 316L227 325H254L253 314Q250 267 234 231T196
169T140 108Q96 64 75 31T53 -47Q53 -94 86 -121T180 -148Q252 -148 317 -109L315 -155Q250 -189 182 -189Z" />
<glyph unicode="&#xc0;" glyph-name="Agrave" horiz-adv-x="721" d="M623 0L554 197H161L61 0H15L377 712H417L668 0H623ZM181 237H540L393 657L181 237ZM384 773L273 923H329L420 773H384Z" />
<glyph unicode="&#xc1;" glyph-name="Aacute" horiz-adv-x="721" d="M623 0L554 197H161L61 0H15L377 712H417L668 0H623ZM181 237H540L393 657L181 237ZM420 773H384L495 923H560L420 773Z" />
<glyph unicode="&#xc2;" glyph-name="Acircumflex" horiz-adv-x="721" d="M623 0L554 197H161L61 0H15L377 712H417L668 0H623ZM181 237H540L393 657L181 237ZM323 773H271L396 923H432L533 773H483L413 887L323 773Z" />
<glyph unicode="&#xc3;" glyph-name="Atilde" horiz-adv-x="721" d="M623 0L554 197H161L61 0H15L377 712H417L668 0H623ZM181 237H540L393 657L181 237ZM250 849T274 874T336 900Q357 900 376 891T421 865Q443 851 455 845T480 839Q504 839 518 855T533 897H568Q566
851 542 825T480 799Q459 799 441 807T396 833Q377 846 363 852T337 859Q313 859 299 844T283 802H248Q250 849 274 874Z" />
<glyph unicode="&#xc4;" glyph-name="Adieresis" horiz-adv-x="721" d="M623 0L554 197H161L61 0H15L377 712H417L668 0H623ZM181 237H540L393 657L181 237ZM299 880H361L356 819H294L299 880ZM460 880H523L518 819H456L460 880Z" />
<glyph unicode="&#xc5;" glyph-name="Aring" horiz-adv-x="721" d="M554 197H161L61 0H15L365 689Q337 699 320 723T302 778Q302 818 330 846T400 874Q440 874 468 846T497 778Q497 745 477 720T426 686L668 0H623L554 197ZM348 755T363 740T400 724Q422 724 436
739T450 778Q450 801 436 816T400 831Q378 831 363 816T348 778Q348 755 363 740ZM181 237H540L393 657L181 237Z" />
<glyph unicode="&#xc6;" glyph-name="AE" horiz-adv-x="996" d="M974 672H570L576 381H930L927 341H576L582 40H924L921 0H545L542 197H176L44 0H-5L476 712H977L974 672ZM541 237L533 672H495L203 237H541Z" />
<glyph unicode="&#xc7;" glyph-name="Ccedilla" horiz-adv-x="684" d="M313 679T250 636T154 513T120 322Q120 183 187 108T377 33Q503 33 596 123L615 88Q566 42 508 18T378 -8L370 -45Q383 -41 397 -41Q429 -41 448 -59T468 -109Q468 -147 439 -169T358 -192Q338
-192 315 -188T273 -173L288 -138Q324 -152 361 -152Q393 -152 409 -142T426 -111Q426 -96 417 -88T389 -80Q366 -80 340 -91L322 -77L335 -7Q256 -1 198 40T108 154T76 323Q76 444 115 533T229 671T404 720Q569 720 658 624L633 590Q584 638 531 658T401 679Q313
679 250 636Z" />
<glyph unicode="&#xc8;" glyph-name="Egrave" horiz-adv-x="583" d="M561 673H174L151 381H517L514 341H148L124 39H510L507 0H79L134 712H563L561 673ZM348 773L237 923H293L384 773H348Z" />
<glyph unicode="&#xc9;" glyph-name="Eacute" horiz-adv-x="583" d="M561 673H174L151 381H517L514 341H148L124 39H510L507 0H79L134 712H563L561 673ZM384 773H348L459 923H524L384 773Z" />
<glyph unicode="&#xca;" glyph-name="Ecircumflex" horiz-adv-x="583" d="M561 673H174L151 381H517L514 341H148L124 39H510L507 0H79L134 712H563L561 673ZM287 773H235L360 923H396L497 773H447L377 887L287 773Z" />
<glyph unicode="&#xcb;" glyph-name="Edieresis" horiz-adv-x="583" d="M561 673H174L151 381H517L514 341H148L124 39H510L507 0H79L134 712H563L561 673ZM263 880H325L320 819H258L263 880ZM424 880H487L482 819H420L424 880Z" />
<glyph unicode="&#xcc;" glyph-name="Igrave" horiz-adv-x="235" d="M79 0L134 712H176L120 0H79ZM143 773L32 923H88L179 773H143Z" />
<glyph unicode="&#xcd;" glyph-name="Iacute" horiz-adv-x="235" d="M79 0L134 712H176L120 0H79ZM179 773H143L254 923H319L179 773Z" />
<glyph unicode="&#xce;" glyph-name="Icircumflex" horiz-adv-x="235" d="M79 0L134 712H176L120 0H79ZM82 773H30L155 923H191L292 773H242L172 887L82 773Z" />
<glyph unicode="&#xcf;" glyph-name="Idieresis" horiz-adv-x="235" d="M79 0L134 712H176L120 0H79ZM58 880H120L115 819H53L58 880ZM219 880H282L277 819H215L219 880Z" />
<glyph unicode="&#xd0;" glyph-name="Eth" horiz-adv-x="737" d="M511 712T594 629T678 388Q678 205 587 103T328 0H82L108 343H11L14 381H111L137 712H351Q511 712 594 629ZM478 38T555 130T632 389Q632 674 353 674H177L154 381H352L349 343H151L127 38H329Q478
38 555 130Z" />
<glyph unicode="&#xd1;" glyph-name="Ntilde" horiz-adv-x="739" d="M639 712H679L623 0H589L170 642L118 0H79L134 712H170L588 73L639 712ZM260 849T284 874T346 900Q367 900 386 891T431 865Q453 851 465 845T490 839Q514 839 528 855T543 897H578Q576 851
552 825T490 799Q469 799 451 807T406 833Q387 846 373 852T347 859Q323 859 309 844T293 802H258Q260 849 284 874Z" />
<glyph unicode="&#xd2;" glyph-name="Ograve" horiz-adv-x="759" d="M285 -8T217 32T113 146T76 323Q76 443 115 533T227 671T396 720Q490 720 558 680T663 566T700 388Q700 268 661 179T549 41T379 -8Q285 -8 217 32ZM464 34T526 76T621 199T654 389Q654 529
588 603T396 678Q311 678 249 636T154 513T121 322Q121 183 188 109T380 34Q464 34 526 76ZM402 773L291 923H347L438 773H402Z" />
<glyph unicode="&#xd3;" glyph-name="Oacute" horiz-adv-x="759" d="M285 -8T217 32T113 146T76 323Q76 443 115 533T227 671T396 720Q490 720 558 680T663 566T700 388Q700 268 661 179T549 41T379 -8Q285 -8 217 32ZM464 34T526 76T621 199T654 389Q654 529
588 603T396 678Q311 678 249 636T154 513T121 322Q121 183 188 109T380 34Q464 34 526 76ZM438 773H402L513 923H578L438 773Z" />
<glyph unicode="&#xd4;" glyph-name="Ocircumflex" horiz-adv-x="759" d="M285 -8T217 32T113 146T76 323Q76 443 115 533T227 671T396 720Q490 720 558 680T663 566T700 388Q700 268 661 179T549 41T379 -8Q285 -8 217 32ZM464 34T526 76T621 199T654 389Q654
529 588 603T396 678Q311 678 249 636T154 513T121 322Q121 183 188 109T380 34Q464 34 526 76ZM341 773H289L414 923H450L551 773H501L431 887L341 773Z" />
<glyph unicode="&#xd5;" glyph-name="Otilde" horiz-adv-x="759" d="M285 -8T217 32T113 146T76 323Q76 443 115 533T227 671T396 720Q490 720 558 680T663 566T700 388Q700 268 661 179T549 41T379 -8Q285 -8 217 32ZM464 34T526 76T621 199T654 389Q654 529
588 603T396 678Q311 678 249 636T154 513T121 322Q121 183 188 109T380 34Q464 34 526 76ZM268 849T292 874T354 900Q375 900 394 891T439 865Q461 851 473 845T498 839Q522 839 536 855T551 897H586Q584 851 560 825T498 799Q477 799 459 807T414 833Q395 846
381 852T355 859Q331 859 317 844T301 802H266Q268 849 292 874Z" />
<glyph unicode="&#xd6;" glyph-name="Odieresis" horiz-adv-x="759" d="M285 -8T217 32T113 146T76 323Q76 443 115 533T227 671T396 720Q490 720 558 680T663 566T700 388Q700 268 661 179T549 41T379 -8Q285 -8 217 32ZM464 34T526 76T621 199T654 389Q654 529
588 603T396 678Q311 678 249 636T154 513T121 322Q121 183 188 109T380 34Q464 34 526 76ZM317 880H379L374 819H312L317 880ZM478 880H541L536 819H474L478 880Z" />
<glyph unicode="&#xd7;" glyph-name="multiply" horiz-adv-x="600" d="M535 495L330 288L523 78L493 51L302 258L97 51L71 78L276 286L83 495L114 523L305 315L510 523L535 495Z" />
<glyph unicode="&#xd8;" glyph-name="Oslash" horiz-adv-x="759" d="M651 603T675 537T700 388Q700 268 661 179T549 41T379 -8Q274 -8 202 41L151 -35L118 -14L171 66Q125 109 101 174T76 323Q76 443 115 533T227 671T396 720Q502 720 575 670L626 747L659 726L605
646Q651 603 675 537ZM121 177T195 101L551 635Q490 678 396 678Q311 678 249 636T154 513T121 322Q121 177 195 101ZM464 34T526 76T621 199T654 389Q654 535 581 610L225 76Q287 34 380 34Q464 34 526 76Z" />
<glyph unicode="&#xd9;" glyph-name="Ugrave" horiz-adv-x="722" d="M219 -8T156 55T92 235Q92 257 93 269L128 712H170L135 273Q134 261 134 239Q134 33 342 33Q575 33 591 264L625 712H668L633 271Q622 131 549 62T343 -8Q219 -8 156 55ZM385 773L274 923H330L421
773H385Z" />
<glyph unicode="&#xda;" glyph-name="Uacute" horiz-adv-x="722" d="M219 -8T156 55T92 235Q92 257 93 269L128 712H170L135 273Q134 261 134 239Q134 33 342 33Q575 33 591 264L625 712H668L633 271Q622 131 549 62T343 -8Q219 -8 156 55ZM421 773H385L496 923H561L421
773Z" />
<glyph unicode="&#xdb;" glyph-name="Ucircumflex" horiz-adv-x="722" d="M219 -8T156 55T92 235Q92 257 93 269L128 712H170L135 273Q134 261 134 239Q134 33 342 33Q575 33 591 264L625 712H668L633 271Q622 131 549 62T343 -8Q219 -8 156 55ZM324 773H272L397
923H433L534 773H484L414 887L324 773Z" />
<glyph unicode="&#xdc;" glyph-name="Udieresis" horiz-adv-x="722" d="M219 -8T156 55T92 235Q92 257 93 269L128 712H170L135 273Q134 261 134 239Q134 33 342 33Q575 33 591 264L625 712H668L633 271Q622 131 549 62T343 -8Q219 -8 156 55ZM300 880H362L357
819H295L300 880ZM461 880H524L519 819H457L461 880Z" />
<glyph unicode="&#xdd;" glyph-name="Yacute" horiz-adv-x="587" d="M621 712L318 298L295 0H252L276 296L37 712H85L299 333L572 712H621ZM352 773H316L427 923H492L352 773Z" />
<glyph unicode="&#xde;" glyph-name="Thorn" horiz-adv-x="638" d="M485 548T540 504T595 373Q595 281 535 229T361 176H135L121 0H79L134 712H177L164 548H383Q485 548 540 504ZM457 216T503 255T550 373Q550 444 508 476T383 509H161L138 216H360Q457 216 503 255Z" />
<glyph unicode="&#xdf;" glyph-name="germandbls" horiz-adv-x="599" d="M437 339T495 286T553 152Q553 106 530 70T466 14T372 -7Q323 -7 274 11T192 61L214 95Q254 62 291 48T375 33Q437 33 472 65T508 153Q508 220 451 265T262 347L265 383Q361 422 409 473T457
589Q457 700 336 700Q248 700 203 655T151 513L110 0H68L109 511Q128 739 334 739Q411 739 454 699T498 586Q498 518 452 463T317 369Q437 339 495 286Z" />
<glyph unicode="&#xe0;" glyph-name="agrave" horiz-adv-x="583" d="M515 500L475 0H435L442 90Q418 45 371 19T268 -7Q204 -7 156 23T82 108T55 236Q55 318 84 381T166 478T288 512Q351 512 397 484T466 405L474 500H515ZM358 33T407 98T456 276Q456 371 412
421T283 472Q197 472 148 408T99 230Q99 137 144 85T272 33Q358 33 407 98ZM301 566L191 768H250L337 566H301Z" />
<glyph unicode="&#xe1;" glyph-name="aacute" horiz-adv-x="583" d="M515 500L475 0H435L442 90Q418 45 371 19T268 -7Q204 -7 156 23T82 108T55 236Q55 318 84 381T166 478T288 512Q351 512 397 484T466 405L474 500H515ZM358 33T407 98T456 276Q456 371 412
421T283 472Q197 472 148 408T99 230Q99 137 144 85T272 33Q358 33 407 98ZM337 566H301L417 768H482L337 566Z" />
<glyph unicode="&#xe2;" glyph-name="acircumflex" horiz-adv-x="583" d="M515 500L475 0H435L442 90Q418 45 371 19T268 -7Q204 -7 156 23T82 108T55 236Q55 318 84 381T166 478T288 512Q351 512 397 484T466 405L474 500H515ZM358 33T407 98T456 276Q456 371
412 421T283 472Q197 472 148 408T99 230Q99 137 144 85T272 33Q358 33 407 98ZM239 566H187L316 768H354L450 566H400L332 725L239 566Z" />
<glyph unicode="&#xe3;" glyph-name="atilde" horiz-adv-x="583" d="M515 500L475 0H435L442 90Q418 45 371 19T268 -7Q204 -7 156 23T82 108T55 236Q55 318 84 381T166 478T288 512Q351 512 397 484T466 405L474 500H515ZM358 33T407 98T456 276Q456 371 412
421T283 472Q197 472 148 408T99 230Q99 137 144 85T272 33Q358 33 407 98ZM169 668T193 693T255 719Q276 719 295 710T340 684Q362 670 374 664T399 658Q423 658 437 674T452 716H485Q484 669 461 644T399 618Q378 618 359 627T315 653Q293 667 281 673T256 679Q232
679 218 663T202 621H167Q169 668 193 693Z" />
<glyph unicode="&#xe4;" glyph-name="adieresis" horiz-adv-x="583" d="M515 500L475 0H435L442 90Q418 45 371 19T268 -7Q204 -7 156 23T82 108T55 236Q55 318 84 381T166 478T288 512Q351 512 397 484T466 405L474 500H515ZM358 33T407 98T456 276Q456 371 412
421T283 472Q197 472 148 408T99 230Q99 137 144 85T272 33Q358 33 407 98ZM218 698H279L275 637H213L218 698ZM379 698H442L438 637H375L379 698Z" />
<glyph unicode="&#xe5;" glyph-name="aring" horiz-adv-x="583" d="M515 500L475 0H435L442 90Q418 45 371 19T268 -7Q204 -7 156 23T82 108T55 236Q55 318 84 381T166 478T288 512Q351 512 397 484T466 405L474 500H515ZM358 33T407 98T456 276Q456 371 412 421T283
472Q197 472 148 408T99 230Q99 137 144 85T272 33Q358 33 407 98ZM286 571T258 599T229 667Q229 707 257 734T327 762Q367 762 395 735T424 667Q424 627 396 599T327 571Q286 571 258 599ZM349 613T363 628T378 667Q378 690 364 705T327 720Q305 720 290 705T275
667Q275 644 290 629T327 613Q349 613 363 628Z" />
<glyph unicode="&#xe6;" glyph-name="ae" horiz-adv-x="890" d="M457 234V229Q457 138 503 86T636 33Q676 33 719 48T800 95L818 61Q789 31 737 12T637 -7Q556 -7 503 32T430 144Q408 74 355 34T230 -7Q157 -7 111 33T64 135Q64 219 134 260T365 302H419L421 326Q422
336 422 353Q422 414 393 443T304 472Q257 472 214 459T126 417L108 453Q144 480 196 496T299 512Q433 512 460 408Q489 458 537 485T650 512Q739 512 791 459T843 306Q843 277 841 261H460L457 234ZM577 475T528 431T464 305V302H803Q808 383 767 429T654 475Q577
475 528 431ZM279 34T318 57T383 121T412 216L416 261H369Q264 261 208 246T131 204T110 135Q110 90 143 62T232 34Q279 34 318 57Z" />
<glyph unicode="&#xe7;" glyph-name="ccedilla" horiz-adv-x="487" d="M199 473T149 409T98 230Q98 138 143 86T274 33Q314 33 348 47T422 95L439 61Q409 30 366 12T273 -7L265 -45Q278 -41 292 -41Q324 -41 343 -59T363 -109Q363 -147 334 -169T253 -192Q233
-192 210 -188T168 -173L183 -138Q219 -152 256 -152Q288 -152 304 -142T321 -111Q321 -96 312 -88T284 -80Q261 -80 235 -91L217 -77L231 -4Q149 9 102 72T54 233Q54 316 83 379T167 477T296 512Q347 512 392 495T469 445L447 410Q406 444 370 458T290 473Q199
473 149 409Z" />
<glyph unicode="&#xe8;" glyph-name="egrave" horiz-adv-x="541" d="M101 261Q100 251 100 229Q100 138 145 86T277 33Q324 33 369 48T451 95L470 61Q440 30 386 12T279 -7Q174 -7 114 58T54 233Q54 316 83 379T167 477T296 512Q389 512 442 459T495 304Q495 276
493 261H101ZM221 475T171 430T106 302H454Q458 384 416 429T300 475Q221 475 171 430ZM292 566L182 768H241L328 566H292Z" />
<glyph unicode="&#xe9;" glyph-name="eacute" horiz-adv-x="541" d="M101 261Q100 251 100 229Q100 138 145 86T277 33Q324 33 369 48T451 95L470 61Q440 30 386 12T279 -7Q174 -7 114 58T54 233Q54 316 83 379T167 477T296 512Q389 512 442 459T495 304Q495 276
493 261H101ZM221 475T171 430T106 302H454Q458 384 416 429T300 475Q221 475 171 430ZM328 566H292L408 768H473L328 566Z" />
<glyph unicode="&#xea;" glyph-name="ecircumflex" horiz-adv-x="541" d="M101 261Q100 251 100 229Q100 138 145 86T277 33Q324 33 369 48T451 95L470 61Q440 30 386 12T279 -7Q174 -7 114 58T54 233Q54 316 83 379T167 477T296 512Q389 512 442 459T495 304Q495
276 493 261H101ZM221 475T171 430T106 302H454Q458 384 416 429T300 475Q221 475 171 430ZM230 566H178L307 768H345L441 566H391L323 725L230 566Z" />
<glyph unicode="&#xeb;" glyph-name="edieresis" horiz-adv-x="541" d="M101 261Q100 251 100 229Q100 138 145 86T277 33Q324 33 369 48T451 95L470 61Q440 30 386 12T279 -7Q174 -7 114 58T54 233Q54 316 83 379T167 477T296 512Q389 512 442 459T495 304Q495
276 493 261H101ZM221 475T171 430T106 302H454Q458 384 416 429T300 475Q221 475 171 430ZM209 698H270L266 637H204L209 698ZM370 698H433L429 637H366L370 698Z" />
<glyph unicode="&#xec;" glyph-name="igrave" horiz-adv-x="218" d="M69 0L109 500H151L111 0H69ZM116 566L6 768H65L152 566H116Z" />
<glyph unicode="&#xed;" glyph-name="iacute" horiz-adv-x="218" d="M69 0L109 500H151L111 0H69ZM152 566H116L232 768H297L152 566Z" />
<glyph unicode="&#xee;" glyph-name="icircumflex" horiz-adv-x="218" d="M69 0L109 500H151L111 0H69ZM54 566H2L131 768H169L265 566H215L147 725L54 566Z" />
<glyph unicode="&#xef;" glyph-name="idieresis" horiz-adv-x="218" d="M69 0L109 500H151L111 0H69ZM33 698H94L90 637H28L33 698ZM194 698H257L253 637H190L194 698Z" />
<glyph unicode="&#xf0;" glyph-name="eth" horiz-adv-x="556" d="M413 620Q508 514 508 334Q508 162 444 78T268 -7Q170 -7 112 53T53 214Q53 290 82 348T163 438T285 470Q354 470 402 439T469 359Q466 509 375 604L213 538L200 574L345 633Q289 680 203 709L219
741Q320 707 384 649L521 705L533 669L413 620ZM356 33T405 91T455 255Q455 337 409 383T282 429Q197 429 147 371T96 211Q96 123 141 78T272 33Q356 33 405 91Z" />
<glyph unicode="&#xf1;" glyph-name="ntilde" horiz-adv-x="570" d="M401 512T445 470T490 346Q490 329 489 320L464 0H423L449 316Q450 324 450 340Q450 408 418 440T320 473Q238 473 189 425T133 291L110 0H68L97 362Q101 403 101 454Q101 485 100 500H138L139
409Q163 459 210 485T316 512Q401 512 445 470ZM161 668T185 693T247 719Q268 719 287 710T332 684Q354 670 366 664T391 658Q415 658 429 674T444 716H477Q476 669 453 644T391 618Q370 618 351 627T307 653Q285 667 273 673T248 679Q224 679 210 663T194 621H159Q161
668 185 693Z" />
<glyph unicode="&#xf2;" glyph-name="ograve" horiz-adv-x="553" d="M204 -7T156 22T81 106T54 233Q54 316 82 379T163 477T285 512Q349 512 397 483T472 399T499 271Q499 188 470 125T389 28T269 -7Q204 -7 156 22ZM357 33T406 96T455 274Q455 367 410 419T283
472Q198 472 148 408T98 230Q98 135 143 84T273 33Q357 33 406 96ZM284 566L174 768H233L320 566H284Z" />
<glyph unicode="&#xf3;" glyph-name="oacute" horiz-adv-x="553" d="M204 -7T156 22T81 106T54 233Q54 316 82 379T163 477T285 512Q349 512 397 483T472 399T499 271Q499 188 470 125T389 28T269 -7Q204 -7 156 22ZM357 33T406 96T455 274Q455 367 410 419T283
472Q198 472 148 408T98 230Q98 135 143 84T273 33Q357 33 406 96ZM320 566H284L400 768H465L320 566Z" />
<glyph unicode="&#xf4;" glyph-name="ocircumflex" horiz-adv-x="553" d="M204 -7T156 22T81 106T54 233Q54 316 82 379T163 477T285 512Q349 512 397 483T472 399T499 271Q499 188 470 125T389 28T269 -7Q204 -7 156 22ZM357 33T406 96T455 274Q455 367 410 419T283
472Q198 472 148 408T98 230Q98 135 143 84T273 33Q357 33 406 96ZM222 566H170L299 768H337L433 566H383L315 725L222 566Z" />
<glyph unicode="&#xf5;" glyph-name="otilde" horiz-adv-x="553" d="M204 -7T156 22T81 106T54 233Q54 316 82 379T163 477T285 512Q349 512 397 483T472 399T499 271Q499 188 470 125T389 28T269 -7Q204 -7 156 22ZM357 33T406 96T455 274Q455 367 410 419T283
472Q198 472 148 408T98 230Q98 135 143 84T273 33Q357 33 406 96ZM152 668T176 693T238 719Q259 719 278 710T323 684Q345 670 357 664T382 658Q406 658 420 674T435 716H468Q467 669 444 644T382 618Q361 618 342 627T298 653Q276 667 264 673T239 679Q215 679
201 663T185 621H150Q152 668 176 693Z" />
<glyph unicode="&#xf6;" glyph-name="odieresis" horiz-adv-x="553" d="M204 -7T156 22T81 106T54 233Q54 316 82 379T163 477T285 512Q349 512 397 483T472 399T499 271Q499 188 470 125T389 28T269 -7Q204 -7 156 22ZM357 33T406 96T455 274Q455 367 410 419T283
472Q198 472 148 408T98 230Q98 135 143 84T273 33Q357 33 406 96ZM201 698H262L258 637H196L201 698ZM362 698H425L421 637H358L362 698Z" />
<glyph unicode="&#xf7;" glyph-name="divide" horiz-adv-x="600" d="M270 449L277 532H358L351 449H270ZM551 306L547 266H55L59 306H551ZM237 41L244 124H325L318 41H237Z" />
<glyph unicode="&#xf8;" glyph-name="oslash" horiz-adv-x="553" d="M465 422T482 376T499 271Q499 188 470 125T389 28T269 -7Q201 -7 152 25L111 -37L75 -16L119 51Q88 83 71 129T54 233Q54 316 82 379T163 477T285 512Q351 512 403 479L444 541L478 522L434
454Q465 422 482 376ZM99 137T142 85L380 445Q341 472 283 472Q198 472 149 408T99 230Q99 137 142 85ZM357 33T405 97T454 274Q454 365 410 418L174 58Q215 33 273 33Q357 33 405 97Z" />
<glyph unicode="&#xf9;" glyph-name="ugrave" horiz-adv-x="561" d="M493 500L454 0H414L421 92Q396 44 351 19T250 -7Q167 -7 123 35T79 160Q79 177 80 186L105 500H146L121 189Q120 180 120 163Q120 32 247 32Q326 32 374 80T430 215L452 500H493ZM289 566L179
768H238L325 566H289Z" />
<glyph unicode="&#xfa;" glyph-name="uacute" horiz-adv-x="561" d="M493 500L454 0H414L421 92Q396 44 351 19T250 -7Q167 -7 123 35T79 160Q79 177 80 186L105 500H146L121 189Q120 180 120 163Q120 32 247 32Q326 32 374 80T430 215L452 500H493ZM325 566H289L405
768H470L325 566Z" />
<glyph unicode="&#xfb;" glyph-name="ucircumflex" horiz-adv-x="561" d="M493 500L454 0H414L421 92Q396 44 351 19T250 -7Q167 -7 123 35T79 160Q79 177 80 186L105 500H146L121 189Q120 180 120 163Q120 32 247 32Q326 32 374 80T430 215L452 500H493ZM227
566H175L304 768H342L438 566H388L320 725L227 566Z" />
<glyph unicode="&#xfc;" glyph-name="udieresis" horiz-adv-x="561" d="M493 500L454 0H414L421 92Q396 44 351 19T250 -7Q167 -7 123 35T79 160Q79 177 80 186L105 500H146L121 189Q120 180 120 163Q120 32 247 32Q326 32 374 80T430 215L452 500H493ZM206 698H267L263
637H201L206 698ZM367 698H430L426 637H363L367 698Z" />
<glyph unicode="&#xfd;" glyph-name="yacute" horiz-adv-x="520" d="M516 500L234 -57Q194 -137 142 -174T15 -227L10 -192Q82 -175 120 -147T191 -59L218 -8L42 500H85L242 35L471 500H516ZM303 566H267L383 768H448L303 566Z" />
<glyph unicode="&#xfe;" glyph-name="thorn" horiz-adv-x="583" d="M378 512T426 482T501 398T528 270Q528 187 499 124T417 27T295 -7Q232 -7 186 21T118 100L93 -216H52L127 728H168L143 418Q168 462 214 487T315 512Q378 512 426 482ZM387 33T435 97T484 275Q484
368 439 420T313 472Q226 472 177 407T128 229Q128 134 173 84T303 33Q387 33 435 97Z" />
<glyph unicode="&#xff;" glyph-name="ydieresis" horiz-adv-x="520" d="M516 500L234 -57Q194 -137 142 -174T15 -227L10 -192Q82 -175 120 -147T191 -59L218 -8L42 500H85L242 35L471 500H516ZM184 698H245L241 637H179L184 698ZM345 698H408L404 637H341L345 698Z" />
<glyph unicode="&#x2013;" glyph-name="endash" horiz-adv-x="505" d="M0 251L3 285H508L505 251H0Z" />
<glyph unicode="&#x2014;" glyph-name="emdash" horiz-adv-x="1010" d="M0 251L3 285H1013L1010 251H0Z" />
<glyph unicode="&#x2018;" glyph-name="quoteleft" horiz-adv-x="214" d="M158 676T150 657T139 618H172L165 547H95L100 602Q103 637 115 665T154 717L179 697Q158 676 150 657Z" />
<glyph unicode="&#x2019;" glyph-name="quoteright" horiz-adv-x="214" d="M178 712L175 656Q172 622 160 594T120 542L96 562Q117 583 125 601T135 641H103L108 712H178Z" />
<glyph unicode="&#x201a;" glyph-name="quotesinglbase" horiz-adv-x="214" d="M127 71L123 12Q120 -23 109 -49T71 -99L45 -79Q66 -57 74 -39T85 0H54L59 71H127Z" />
<glyph unicode="&#x201c;" glyph-name="quotedblleft" horiz-adv-x="359" d="M158 676T150 657T139 618H172L165 547H95L100 602Q103 637 115 665T154 717L179 697Q158 676 150 657ZM303 676T295 657T284 618H317L310 547H240L245 602Q248 637 260 665T299 717L324
697Q303 676 295 657Z" />
<glyph unicode="&#x201d;" glyph-name="quotedblright" horiz-adv-x="359" d="M178 712L175 656Q172 622 160 594T120 542L96 562Q117 583 125 601T135 641H103L108 712H178ZM323 712L320 656Q317 622 305 594T265 542L241 562Q262 583 270 601T280 641H248L253 712H323Z" />
<glyph unicode="&#x201e;" glyph-name="quotedblbase" horiz-adv-x="359" d="M127 71L123 12Q120 -23 109 -49T71 -99L45 -79Q66 -57 74 -39T85 0H54L59 71H127ZM272 71L268 12Q265 -23 254 -49T216 -99L190 -79Q211 -57 219 -39T230 0H199L204 71H272Z" />
<glyph unicode="&#x2022;" glyph-name="bullet" horiz-adv-x="529" d="M217 89T175 112T108 177T83 268Q83 314 107 355T173 422T266 447Q314 447 356 424T423 359T448 268Q448 219 424 178T357 113T266 89Q217 89 175 112Z" />
<glyph unicode="&#x2039;" glyph-name="guilsinglleft" horiz-adv-x="238" d="M146 89L31 267L177 447H224L82 268L192 89H146Z" />
<glyph unicode="&#x203a;" glyph-name="guilsinglright" horiz-adv-x="238" d="M67 89H21L161 268L46 447H93L211 267L67 89Z" />
</font>
</defs>
</svg>
