<?xml version="1.0" standalone="no"?>
<!DOCTYPE svg PUBLIC "-//W3C//DTD SVG 1.1//EN" "http://www.w3.org/Graphics/SVG/1.1/DTD/svg11.dtd">
<svg xmlns="http://www.w3.org/2000/svg">
<defs >
<font id="Muli" horiz-adv-x="566" ><font-face
    font-family="Muli"
    units-per-em="1000"
    panose-1="0 0 5 0 0 0 0 0 0 0"
    ascent="1005"
    descent="-250"
    alphabetic="0" />
<glyph unicode=" " glyph-name="space" horiz-adv-x="261" />
<glyph unicode="!" glyph-name="exclam" horiz-adv-x="231" d="M85 187L101 712H203L135 187H85ZM53 103H155L148 0H45L53 103Z" />
<glyph unicode="&quot;" glyph-name="quotedbl" horiz-adv-x="424" d="M100 432V712H196L154 432H100ZM302 432V712H398L356 432H302Z" />
<glyph unicode="#" glyph-name="numbersign" horiz-adv-x="606" d="M590 477H489L425 243H550L545 184H409L359 0H295L345 184H184L134 0H70L120 184H30L34 243H137L201 477H75L79 536H217L265 712H328L280 536H442L490 712H553L505 536H594L590 477ZM362 243L426
477H264L200 243H362Z" />
<glyph unicode="$" glyph-name="dollar" horiz-adv-x="600" d="M415 358T455 339T523 285T550 197Q550 140 523 96T444 24T325 -8L316 -116H247L255 -7Q115 3 31 84L68 147Q112 107 159 87T263 63L283 318Q220 338 178 359T108 417T80 511Q80 569 109 615T191
689T312 720L321 828H391L383 717Q443 710 492 688T576 630L539 567Q472 635 374 647L353 377Q415 358 455 339ZM164 472T196 445T289 397L309 650Q241 645 203 610T164 517Q164 472 196 445ZM395 71T430 104T466 191Q466 231 436 255T347 298L328 64Q395 71 430
104Z" />
<glyph unicode="%" glyph-name="percent" horiz-adv-x="939" d="M162 286T119 335T76 479Q76 592 123 656T254 721Q335 721 378 671T421 527Q421 413 374 350T242 286Q162 286 119 335ZM284 0H205L673 712H751L284 0ZM294 344T320 393T347 536Q347 601 324 632T254
663Q202 663 176 614T149 471Q149 406 172 375T243 344Q294 344 320 393ZM623 -7T580 43T536 186Q536 299 583 363T714 428Q796 428 839 379T882 234Q882 120 835 57T704 -7Q623 -7 580 43ZM755 51T781 100T808 243Q808 308 786 339T715 370Q663 370 637 321T611
178Q611 113 633 82T704 51Q755 51 781 100Z" />
<glyph unicode="&amp;" glyph-name="ampersand" horiz-adv-x="670" d="M595 84T677 47L630 -9Q548 29 494 85Q451 40 397 17T280 -7Q212 -7 161 16T81 81T52 178Q52 245 92 296T221 399Q176 452 158 488T140 563Q140 633 188 676T314 719Q388 719 431 681T475
577Q475 523 442 481T326 387L492 197Q540 287 546 418H618Q609 254 539 143Q595 84 677 47ZM272 657T245 631T218 563Q218 535 231 508T284 435Q352 476 377 506T403 572Q403 610 380 633T316 657Q272 657 245 631ZM382 59T450 135L264 350Q193 307 163 269T132
181Q132 125 173 92T284 59Q382 59 450 135Z" />
<glyph unicode="&apos;" glyph-name="quotesingle" horiz-adv-x="222" d="M100 432V712H196L154 432H100Z" />
<glyph unicode="(" glyph-name="parenleft" horiz-adv-x="317" d="M143 -86T123 4T103 189Q103 227 106 266Q115 381 151 490T254 712H324Q260 587 229 480T190 266Q187 224 187 183Q187 13 251 -182H185Q143 -86 123 4Z" />
<glyph unicode=")" glyph-name="parenright" horiz-adv-x="318" d="M-3 -182Q60 -55 91 52T131 266Q134 307 134 348Q134 524 69 712H137Q218 530 218 343Q218 305 215 266Q206 150 170 42T65 -182H-3Z" />
<glyph unicode="*" glyph-name="asterisk" horiz-adv-x="455" d="M148 362L100 398L207 522L59 567L83 626L226 573L233 729H296L278 572L430 626L445 567L290 522L378 398L324 362L247 493L148 362Z" />
<glyph unicode="+" glyph-name="plus" horiz-adv-x="600" d="M552 319L546 256H332L315 41H253L270 256H55L60 319H275L292 534H354L337 319H552Z" />
<glyph unicode="," glyph-name="comma" horiz-adv-x="231" d="M155 103L150 29Q146 -14 130 -48T78 -115L42 -86Q85 -41 93 0H45L53 103H155Z" />
<glyph unicode="-" glyph-name="hyphen" horiz-adv-x="429" d="M73 235L78 302H360L355 235H73Z" />
<glyph unicode="." glyph-name="period" horiz-adv-x="231" d="M53 103H155L148 0H45L53 103Z" />
<glyph unicode="/" glyph-name="slash" horiz-adv-x="285" d="M28 -55H-45L274 749H348L28 -55Z" />
<glyph unicode="0" glyph-name="zero" horiz-adv-x="600" d="M178 -8T118 71T58 303Q58 502 127 611T323 720Q440 720 500 641T561 409Q561 210 491 101T294 -8Q178 -8 118 71ZM385 61T431 153T477 422Q477 539 439 595T322 651Q233 651 187 559T141 290Q141 173
179 117T297 61Q385 61 431 153Z" />
<glyph unicode="1" glyph-name="one" horiz-adv-x="600" d="M354 69H511L505 0H109L115 69H271L314 609L160 517L167 596L358 712H405L354 69Z" />
<glyph unicode="2" glyph-name="two" horiz-adv-x="600" d="M177 69H527L522 0H64L68 62L341 336Q401 397 427 443T453 538Q453 591 420 621T329 651Q274 651 224 631T120 569L95 632Q141 674 203 697T334 720Q426 720 480 672T535 539Q535 476 504 419T396 285L177 69Z" />
<glyph unicode="3" glyph-name="three" horiz-adv-x="600" d="M461 347T492 307T524 206Q524 142 494 94T409 20T280 -7Q210 -7 149 15T41 81L77 144Q126 102 176 82T282 62Q358 62 400 99T443 204Q443 327 287 327H206L212 396H285Q363 396 408 435T453 541Q453
591 419 621T327 651Q220 651 120 569L95 632Q140 674 203 697T334 720Q425 720 480 673T535 547Q535 484 500 435T404 364Q461 347 492 307Z" />
<glyph unicode="4" glyph-name="four" horiz-adv-x="600" d="M566 223L560 155H451L439 0H358L370 155H42L46 217L427 712H496L457 223H566ZM135 223H375L403 571L135 223Z" />
<glyph unicode="5" glyph-name="five" horiz-adv-x="600" d="M211 644L191 393Q220 419 258 433T339 447Q402 447 450 421T525 348T552 240Q552 166 521 110T432 24T301 -7Q233 -7 173 15T65 81L101 144Q150 102 199 82T302 62Q378 62 424 109T470 234Q470 299
430 338T324 378Q218 378 158 295H101L133 712H561L555 644H211Z" />
<glyph unicode="6" glyph-name="six" horiz-adv-x="600" d="M397 447T446 420T523 344T550 230Q550 162 520 108T436 23T316 -8Q194 -8 127 71T60 298Q60 426 96 521T199 668T356 720Q419 720 477 698T582 632L546 569Q501 609 453 630T358 651Q266 651 211 575T144
355L142 331Q168 385 218 416T332 447Q397 447 446 420ZM383 61T426 107T469 228Q469 296 427 337T317 378Q247 378 203 332T158 212Q158 144 201 103T314 61Q383 61 426 107Z" />
<glyph unicode="7" glyph-name="seven" horiz-adv-x="600" d="M102 712H572L567 651L188 0H100L475 643H97L102 712Z" />
<glyph unicode="8" glyph-name="eight" horiz-adv-x="600" d="M479 347T515 302T551 193Q551 132 518 87T425 17T285 -7Q170 -7 104 43T38 179Q38 249 81 298T201 366Q146 385 115 428T83 530Q83 619 149 669T333 720Q436 720 499 673T562 544Q562 480 523 433T416
365Q479 347 515 302ZM164 466T203 432T311 389Q390 398 434 437T479 535Q479 591 440 621T330 652Q249 652 207 619T164 522Q164 466 203 432ZM372 61T421 96T470 196Q470 255 429 290T306 332Q212 323 167 287T121 189Q121 127 164 95T286 61Q372 61 421 96Z"
/>
<glyph unicode="9" glyph-name="nine" horiz-adv-x="600" d="M426 720T493 641T560 414Q560 286 524 191T420 44T263 -8Q201 -8 142 14T36 80L73 143Q166 61 261 61Q352 61 408 137T474 357L476 381Q450 328 400 297T287 265Q222 265 173 292T96 369T69 482Q69
550 99 604T182 689T302 720Q426 720 493 641ZM347 334T383 355T440 414T461 500Q461 567 418 609T306 651Q236 651 193 605T150 484Q150 416 191 375T301 334Q347 334 383 355Z" />
<glyph unicode=":" glyph-name="colon" horiz-adv-x="232" d="M84 492H187L179 388H76L84 492ZM53 103H156L148 0H45L53 103Z" />
<glyph unicode=";" glyph-name="semicolon" horiz-adv-x="231" d="M84 492H187L179 388H76L84 492ZM53 103H155L150 29Q146 -14 130 -48T78 -115L42 -86Q85 -41 93 0H45L53 103Z" />
<glyph unicode="&lt;" glyph-name="less" horiz-adv-x="600" d="M570 541L565 473L134 287L535 102L530 32L55 255L60 319L570 541Z" />
<glyph unicode="=" glyph-name="equal" horiz-adv-x="600" d="M560 420L555 357H62L68 420H560ZM543 218L539 155H47L52 218H543Z" />
<glyph unicode="&gt;" glyph-name="greater" horiz-adv-x="600" d="M77 541L552 319L547 255L37 32L42 102L473 287L72 473L77 541Z" />
<glyph unicode="?" glyph-name="question" horiz-adv-x="447" d="M182 211Q185 255 200 291T234 353T285 415Q326 461 345 492T364 565Q364 605 336 628T257 651Q188 651 116 610L122 685Q155 702 193 711T266 720Q350 720 399 680T449 574Q449 534 435 501T399
442T342 379Q293 328 267 291T232 204L229 186H180L182 211ZM139 0L146 103H249L242 0H139Z" />
<glyph unicode="@" glyph-name="at" horiz-adv-x="935" d="M353 -153T256 -100T107 51T55 276Q55 409 111 509T264 663T483 718Q612 718 704 665T844 527T891 347Q891 248 862 185T786 94T688 65Q634 65 603 88T569 155H567Q542 113 504 89T414 65Q348 65 307
111T266 241Q266 310 292 370T367 467T479 504Q527 504 562 481T608 422H609L621 492H687L639 218Q635 190 635 182Q635 148 651 134T700 119Q729 119 758 141T807 215T827 347Q827 427 789 498T673 613T483 657Q380 657 298 611T168 478T120 276Q120 164 163 81T289
-47T483 -93Q568 -93 630 -69T726 0H814Q771 -71 685 -112T483 -153Q353 -153 256 -100ZM479 119T516 149T572 228T591 331Q591 388 563 418T487 448Q439 448 404 419T349 342T330 244Q330 185 358 152T428 119Q479 119 516 149Z" />
<glyph unicode="A" glyph-name="A" horiz-adv-x="734" d="M614 0L550 183H178L86 0H-1L368 712H439L697 0H614ZM213 251H526L397 617L213 251Z" />
<glyph unicode="B" glyph-name="B" horiz-adv-x="682" d="M558 348T588 307T619 205Q619 108 555 54T375 0H70L125 712H401Q513 712 571 667T629 537Q629 474 597 430T499 364Q558 348 588 307ZM202 644L183 396H382Q462 396 504 430T547 530Q547 644 394 644H202ZM538
68T538 204Q538 327 384 327H177L157 68H372Q538 68 538 204Z" />
<glyph unicode="C" glyph-name="C" horiz-adv-x="684" d="M282 -8T214 32T108 147T70 326Q70 446 111 535T230 672T413 720Q491 720 555 698T665 630L628 568Q581 611 531 630T414 649Q291 649 223 563T155 325Q155 199 215 131T386 63Q497 63 595 145L621 82Q526
-8 375 -8Q282 -8 214 32Z" />
<glyph unicode="D" glyph-name="D" horiz-adv-x="747" d="M124 712H360Q521 712 607 627T694 385Q694 203 599 102T331 0H69L124 712ZM326 70Q466 70 537 151T609 386Q609 642 353 642H203L157 70H326Z" />
<glyph unicode="E" glyph-name="E" horiz-adv-x="589" d="M571 644H202L182 396H531L525 327H177L156 68H525L520 0H69L125 712H576L571 644Z" />
<glyph unicode="F" glyph-name="F" horiz-adv-x="564" d="M560 643H203L183 396H520L515 327H177L151 0H69L125 712H566L560 643Z" />
<glyph unicode="G" glyph-name="G" horiz-adv-x="731" d="M410 371H662L636 42Q591 20 525 6T395 -8Q239 -8 155 78T70 319Q70 441 113 531T237 671T425 720Q577 720 673 630L636 567Q585 611 536 630T426 650Q298 649 227 562T155 322Q155 196 216 129T400 61Q481
61 565 89L581 306H404L410 371Z" />
<glyph unicode="H" glyph-name="H" horiz-adv-x="766" d="M633 712H715L659 0H577L603 327H177L151 0H69L125 712H207L182 396H608L633 712Z" />
<glyph unicode="I" glyph-name="I" horiz-adv-x="258" d="M69 0L124 712H208L152 0H69Z" />
<glyph unicode="J" glyph-name="J" horiz-adv-x="329" d="M-33 -107Q7 -115 34 -115Q84 -115 108 -86T139 11L195 712H278L222 10Q214 -92 171 -139T42 -186Q9 -186 -39 -178L-33 -107Z" />
<glyph unicode="K" glyph-name="K" horiz-adv-x="634" d="M662 712L262 365L626 0H524L179 340L152 0H70L125 712H208L182 387L552 712H662Z" />
<glyph unicode="L" glyph-name="L" horiz-adv-x="545" d="M69 0L125 712H208L157 70H514L509 0H69Z" />
<glyph unicode="M" glyph-name="M" horiz-adv-x="849" d="M729 712H797L742 0H666L708 526L436 0H378L187 526L146 0H70L125 712H194L414 97L729 712Z" />
<glyph unicode="N" glyph-name="N" horiz-adv-x="746" d="M617 712H695L639 0H576L193 571L147 0H69L125 712H189L572 141L617 712Z" />
<glyph unicode="O" glyph-name="O" horiz-adv-x="772" d="M289 -9T218 31T108 147T70 326Q70 445 111 534T227 672T402 721Q500 721 571 681T681 565T719 385Q719 266 678 177T562 40T387 -9Q289 -9 218 31ZM463 62T518 101T604 213T634 386Q634 513 574 581T402
650Q325 650 270 611T184 499T154 325Q154 198 214 130T387 62Q463 62 518 101Z" />
<glyph unicode="P" glyph-name="P" horiz-adv-x="652" d="M508 712T567 661T627 526Q627 423 560 368T375 313H176L152 0H69L125 712H399Q508 712 567 661ZM456 381T501 416T546 522Q546 579 508 611T393 644H202L182 381H371Q456 381 501 416Z" />
<glyph unicode="Q" glyph-name="Q" horiz-adv-x="772" d="M719 239T658 139T490 6Q530 -72 605 -139L544 -191Q504 -160 467 -111T403 -9H387Q289 -9 218 31T108 147T70 326Q70 445 111 534T227 672T402 721Q500 721 571 681T681 565T719 385Q719 239 658 139ZM463
62T518 101T604 213T634 386Q634 513 574 581T402 650Q325 650 270 611T184 499T154 325Q154 198 214 130T387 62Q463 62 518 101Z" />
<glyph unicode="R" glyph-name="R" horiz-adv-x="693" d="M508 317T527 293T560 225L628 0H542L470 237Q457 280 427 295T343 311H176L151 0H70L125 712H415Q523 712 582 664T641 527Q641 447 600 395T478 325Q508 317 527 293ZM388 379Q561 379 561 522Q561 644
410 644H202L181 379H388Z" />
<glyph unicode="S" glyph-name="S" horiz-adv-x="623" d="M223 -8T157 14T35 82L72 145Q126 101 182 81T308 61Q395 61 441 93T488 185Q488 221 465 244T408 281T315 312Q240 334 194 354T115 413T82 518Q82 579 114 624T206 695T346 720Q421 720 486 697T597
630L560 567Q462 651 345 651Q258 651 212 617T165 522Q165 482 189 456T250 416T349 383Q421 362 466 343T542 287T573 191Q573 99 502 46T307 -8Q223 -8 157 14Z" />
<glyph unicode="T" glyph-name="T" horiz-adv-x="603" d="M241 0L292 642H43L49 712H628L623 642H375L324 0H241Z" />
<glyph unicode="U" glyph-name="U" horiz-adv-x="731" d="M219 -8T152 56T84 244Q84 268 85 281L119 712H201L167 282Q166 271 166 250Q166 62 354 62Q453 62 507 113T568 270L603 712H685L650 278Q639 135 564 64T352 -8Q219 -8 152 56Z" />
<glyph unicode="V" glyph-name="V" horiz-adv-x="697" d="M646 712H732L365 0H294L38 712H125L338 103L646 712Z" />
<glyph unicode="W" glyph-name="W" horiz-adv-x="1112" d="M1033 712H1114L810 0H739L582 582L333 0H263L70 712H153L309 117L562 712L625 711L782 115L1033 712Z" />
<glyph unicode="X" glyph-name="X" horiz-adv-x="652" d="M668 712L383 363L625 0H528L332 301L88 0H-11L289 366L58 712H154L340 428L569 712H668Z" />
<glyph unicode="Y" glyph-name="Y" horiz-adv-x="607" d="M660 712L348 288L325 0H242L265 289L18 712H112L310 357L564 712H660Z" />
<glyph unicode="Z" glyph-name="Z" horiz-adv-x="596" d="M585 712L580 652L130 69H545L539 0H26L30 61L480 643H77L83 712H585Z" />
<glyph unicode="[" glyph-name="bracketleft" horiz-adv-x="317" d="M77 -182L147 712H345L341 648H223L162 -117H280L276 -182H77Z" />
<glyph unicode="\" glyph-name="backslash" horiz-adv-x="285" d="M210 -55L17 749H91L284 -55H210Z" />
<glyph unicode="]" glyph-name="bracketright" horiz-adv-x="317" d="M172 -182H-25L-21 -117H97L158 648H39L44 712H242L172 -182Z" />
<glyph unicode="^" glyph-name="asciicircum" horiz-adv-x="600" d="M546 142H479L326 556L107 142H37L299 635H363L546 142Z" />
<glyph unicode="_" glyph-name="underscore" horiz-adv-x="505" d="M-15 -53L-11 0H478L474 -53H-15Z" />
<glyph unicode="`" glyph-name="grave" horiz-adv-x="300" d="M148 557L29 761H117L204 557H148Z" />
<glyph unicode="a" glyph-name="a" horiz-adv-x="600" d="M541 503L501 0H422L429 81Q405 39 360 16T262 -7Q198 -7 150 22T75 107T48 236Q48 319 77 382T160 480T284 515Q344 515 388 489T455 414L462 503H541ZM357 59T400 116T443 272Q443 358 404 403T292 448Q216
448 173 392T130 235Q130 152 170 106T283 59Q357 59 400 116Z" />
<glyph unicode="b" glyph-name="b" horiz-adv-x="600" d="M402 515T450 485T526 400T553 272Q553 189 524 126T440 28T317 -7Q257 -7 213 18T146 91L139 0H59L117 736H198L172 427Q197 468 242 491T339 515Q402 515 450 485ZM385 59T428 115T471 272Q471 356 431
402T319 448Q244 448 201 391T158 235Q158 150 197 105T311 59Q385 59 428 115Z" />
<glyph unicode="c" glyph-name="c" horiz-adv-x="495" d="M210 -7T158 23T77 108T48 236Q48 320 79 383T167 480T303 515Q358 515 404 498T485 449L453 390Q415 420 379 434T303 448Q221 448 176 391T131 234Q131 152 172 106T287 60Q327 60 361 74T432 118L455
58Q422 28 376 11T280 -7Q210 -7 158 23Z" />
<glyph unicode="d" glyph-name="d" horiz-adv-x="600" d="M559 736L501 0H422L428 82Q404 40 359 17T261 -7Q198 -7 150 22T75 107T48 235Q48 318 77 381T160 480T284 515Q344 515 388 489T454 416L479 736H559ZM357 59T400 116T443 272Q443 358 404 403T291 448Q216
448 173 392T130 237Q130 152 170 106T282 59Q357 59 400 116Z" />
<glyph unicode="e" glyph-name="e" horiz-adv-x="544" d="M129 254V234Q129 151 170 105T289 59Q383 59 454 117L478 58Q446 28 393 11T286 -7Q213 -7 160 23T77 108T48 236Q48 318 78 381T165 480T295 515Q391 515 447 460T503 300Q503 278 500 254H129ZM233
453T191 416T135 307H432Q433 377 398 415T299 453Q233 453 191 416Z" />
<glyph unicode="f" glyph-name="f" horiz-adv-x="337" d="M264 671T240 649T211 570L206 503H350L344 439H200L165 0H85L120 439H22L28 503H125L131 581Q138 659 180 700T291 741Q324 741 357 732L351 664Q323 671 303 671Q264 671 240 649Z" />
<glyph unicode="g" glyph-name="g" horiz-adv-x="604" d="M545 503L505 5Q487 -223 268 -223Q152 -223 67 -170L88 -104Q134 -133 175 -145T269 -157Q412 -157 426 0L434 103Q410 61 365 38T267 15Q167 15 108 78T49 247Q49 326 78 387T161 481T286 515Q347 515
391 489T459 416L465 503H545ZM361 82T404 135T448 282Q448 362 408 405T294 448Q218 448 175 395T131 247Q131 167 170 125T285 82Q361 82 404 135Z" />
<glyph unicode="h" glyph-name="h" horiz-adv-x="585" d="M426 515T470 471T515 341Q515 323 514 314L489 0H409L434 309Q435 316 435 330Q435 447 323 447Q252 447 210 405T162 288L139 0H58L116 736H197L172 428Q198 470 242 492T342 515Q426 515 470 471Z" />
<glyph unicode="i" glyph-name="i" horiz-adv-x="238" d="M59 0L99 503H180L140 0H59ZM106 716H205L198 624H98L106 716Z" />
<glyph unicode="j" glyph-name="j" horiz-adv-x="238" d="M-59 -151T-38 -151Q46 -151 54 -50L99 503H179L134 -60Q127 -139 85 -179T-26 -220Q-59 -220 -92 -211L-86 -143Q-59 -151 -38 -151ZM106 716H205L198 624H98L106 716Z" />
<glyph unicode="k" glyph-name="k" horiz-adv-x="515" d="M518 502L248 260L503 0H401L158 245L139 0H59L117 736H197L160 272L413 502H518Z" />
<glyph unicode="l" glyph-name="l" horiz-adv-x="238" d="M58 0L117 736H198L139 0H58Z" />
<glyph unicode="m" glyph-name="m" horiz-adv-x="879" d="M728 515T768 472T808 346Q808 325 807 314L783 0H703L727 310Q728 319 728 337Q728 393 704 420T629 447Q565 447 527 406T484 286L461 0H381L405 310Q406 319 406 337Q406 393 382 420T307 447Q243 447
206 406T162 286L139 0H58L87 362Q91 402 91 456Q91 487 90 503H166L168 422Q218 515 329 515Q448 515 478 420Q504 465 548 490T650 515Q728 515 768 472Z" />
<glyph unicode="n" glyph-name="n" horiz-adv-x="585" d="M426 515T470 471T515 341Q515 323 514 314L489 0H409L434 309Q435 316 435 330Q435 447 323 447Q252 447 210 405T162 288L139 0H58L87 362Q91 403 91 456Q91 487 90 503H166L168 420Q193 466 238 490T342
515Q426 515 470 471Z" />
<glyph unicode="o" glyph-name="o" horiz-adv-x="572" d="M210 -7T158 23T77 108T48 236Q48 320 78 383T164 480T292 515Q362 515 414 485T495 400T524 271Q524 187 494 124T408 27T280 -7Q210 -7 158 23ZM358 59T400 117T442 274Q442 357 403 402T292 448Q216
448 173 390T130 233Q130 148 169 104T282 59Q358 59 400 117Z" />
<glyph unicode="p" glyph-name="p" horiz-adv-x="600" d="M402 515T450 486T526 401T553 272Q553 189 523 126T440 28T316 -7Q257 -7 212 19T146 92L122 -216H41L87 362Q91 403 91 456Q91 487 90 503H166L168 419Q191 464 237 489T338 515Q402 515 450 486ZM385
59T427 115T470 272Q470 356 430 402T319 448Q243 448 200 391T157 235Q157 150 196 105T310 59Q385 59 427 115Z" />
<glyph unicode="q" glyph-name="q" horiz-adv-x="600" d="M548 503Q534 421 529 362L483 -216H403L426 78Q401 38 357 16T261 -7Q197 -7 149 22T74 107T47 236Q47 319 76 382T160 480T283 515Q345 515 390 487T457 408L472 503H548ZM356 59T399 116T442 272Q442
358 403 403T291 448Q215 448 172 392T128 235Q128 152 168 106T281 59Q356 59 399 116Z" />
<glyph unicode="r" glyph-name="r" horiz-adv-x="362" d="M358 515T377 509L370 436Q344 444 318 444Q245 444 206 399T163 287L139 0H58L87 362Q91 430 91 464Q91 490 90 503H166L167 422Q191 466 235 490T332 515Q358 515 377 509Z" />
<glyph unicode="s" glyph-name="s" horiz-adv-x="496" d="M176 -7T124 9T32 58L64 118Q105 86 146 72T235 57Q358 57 358 134Q358 168 329 185T238 220Q185 236 153 250T97 292T74 365Q74 433 128 474T272 515Q326 515 374 498T452 449L420 390Q351 450 272 450Q214
450 183 429T151 369Q151 335 180 318T271 283Q325 267 357 253T413 211T436 138Q436 70 381 32T234 -7Q176 -7 124 9Z" />
<glyph unicode="t" glyph-name="t" horiz-adv-x="350" d="M179 164L178 147Q178 100 199 81T259 62Q288 62 312 71L307 3Q277 -7 238 -7Q171 -7 134 28T97 133Q97 146 98 153L120 439H22L27 503H125L135 632L218 661L206 503H350L344 439H201L179 164Z" />
<glyph unicode="u" glyph-name="u" horiz-adv-x="577" d="M519 503L480 0H401L407 82Q382 39 338 16T240 -7Q158 -7 114 36T70 164Q70 183 71 193L95 503H176L151 198Q150 191 150 177Q150 60 260 60Q328 60 369 102T416 219L439 503H519Z" />
<glyph unicode="v" glyph-name="v" horiz-adv-x="531" d="M457 502H540L284 0H207L31 502H113L252 87L457 502Z" />
<glyph unicode="w" glyph-name="w" horiz-adv-x="869" d="M779 503H862L636 0H558L444 393L271 0H193L47 503H129L240 96L418 503H489L602 94L779 503Z" />
<glyph unicode="x" glyph-name="x" horiz-adv-x="535" d="M531 503L316 258L503 0H406L264 201L90 0H-9L221 260L43 503H140L271 318L433 503H531Z" />
<glyph unicode="y" glyph-name="y" horiz-adv-x="531" d="M540 503L259 -46Q215 -132 158 -172T17 -227L4 -163Q76 -147 114 -121T181 -40L205 5L31 503H113L253 86L457 503H540Z" />
<glyph unicode="z" glyph-name="z" horiz-adv-x="518" d="M483 503L480 445L138 63H460L455 0H30L35 55L379 439H76L81 503H483Z" />
<glyph unicode="{" glyph-name="braceleft" horiz-adv-x="354" d="M383 712L378 648H326Q296 648 277 627T253 567L238 371Q234 326 211 300T156 266Q186 258 205 231T222 160L206 -37Q203 -76 219 -96T266 -117H318L313 -182H254Q186 -182 153 -147T124 -46L139
146Q140 153 140 166Q140 200 126 216T76 240L50 247L53 284L81 291Q121 299 138 320T159 385L174 576Q179 642 219 677T324 712H383Z" />
<glyph unicode="|" glyph-name="bar" horiz-adv-x="263" d="M59 -182L129 712H208L137 -182H59Z" />
<glyph unicode="}" glyph-name="braceright" horiz-adv-x="354" d="M308 284L306 247L277 240Q237 232 220 211T199 146L184 -46Q179 -112 141 -147T33 -182H-25L-21 -117H30Q61 -117 80 -97T104 -37L119 160Q122 204 146 231T202 266Q172 273 153 299T136 371L152
567Q155 606 138 627T91 648H39L44 712H103Q167 712 202 677T233 576L218 385Q217 378 217 366Q217 332 231 316T281 291L308 284Z" />
<glyph unicode="~" glyph-name="asciitilde" horiz-adv-x="600" d="M553 316Q529 268 494 243T414 217Q381 217 353 228T284 263Q250 281 231 289T193 298Q162 298 141 281T103 231L55 259Q77 306 112 331T193 357Q226 357 255 345T324 311Q356 293 375 285T414
277Q446 277 467 294T504 343L553 316Z" />
<glyph unicode="&#xa0;" glyph-name="uni00A0" horiz-adv-x="261" />
<glyph unicode="&#xa1;" glyph-name="exclamdown" horiz-adv-x="231" d="M76 388L83 492H186L178 388H76ZM95 304H145L132 -182H31L95 304Z" />
<glyph unicode="&#xa2;" glyph-name="cent" horiz-adv-x="620" d="M502 58Q473 31 434 15T350 -6L341 -119H273L282 -4Q195 10 145 74T94 236Q94 356 155 430T323 514L332 626H400L391 512Q475 502 532 449L500 390Q441 435 386 445L355 61Q388 64 417 78T479
118L502 58ZM178 166T206 122T288 65L318 446Q250 435 214 380T178 234Q178 166 206 122Z" />
<glyph unicode="&#xa3;" glyph-name="sterling" horiz-adv-x="600" d="M320 651T287 618T248 520L238 386H420L416 327H234L226 223Q221 162 203 126T145 69H549L544 0H26L30 57Q86 82 111 115T141 202L151 327H52L57 386H155L166 526Q174 616 230 668T379 720Q443
720 499 697T598 630L561 567Q520 608 473 629T378 651Q320 651 287 618Z" />
<glyph unicode="&#xa4;" glyph-name="currency" horiz-adv-x="600" d="M544 204T531 165T492 93L546 37L503 -5L450 49Q418 24 380 11T301 -3Q216 -3 151 51L96 -5L54 37L109 94Q58 161 58 247Q58 333 109 400L54 457L97 501L151 444Q216 498 301 498Q384 498
449 446L502 501L546 457L493 402Q544 333 544 247Q544 204 531 165ZM347 64T386 88T449 155T472 247Q472 297 449 339T387 405T300 430Q253 430 214 406T152 339T129 247Q129 197 152 155T214 89T300 64Q347 64 386 88Z" />
<glyph unicode="&#xa5;" glyph-name="yen" horiz-adv-x="600" d="M644 712L388 389H541L536 329H348L341 236H529L524 177H336L322 0H240L254 177H65L70 236H258L265 329H77L82 389H235L28 712H121L311 408L552 712H644Z" />
<glyph unicode="&#xa6;" glyph-name="brokenbar" horiz-adv-x="263" d="M103 375L129 712H208L182 375H103ZM60 -182L86 156H164L138 -182H60Z" />
<glyph unicode="&#xa7;" glyph-name="section" horiz-adv-x="542" d="M497 160T479 123T428 60Q440 32 440 -3Q440 -89 385 -138T237 -188Q118 -188 34 -124L68 -64Q110 -95 149 -108T235 -121Q295 -121 327 -92T359 -10Q359 25 340 51T278 103L184 156Q112 198
81 238T49 330Q49 373 67 411T116 474Q105 502 105 534Q105 618 161 668T308 719Q358 719 406 702T487 655L455 596Q386 653 307 653Q251 653 219 622T186 540Q186 506 205 481T268 429L360 375Q433 332 465 292T497 199Q497 160 479 123ZM365 140T391 112Q418
147 418 189Q418 221 396 248T322 307L232 361Q180 392 154 420Q126 386 126 342Q126 311 148 284T223 224L313 171Q365 140 391 112Z" />
<glyph unicode="&#xa8;" glyph-name="dieresis" horiz-adv-x="300" d="M56 702H146L139 616H50L56 702ZM229 702H319L312 616H222L229 702Z" />
<glyph unicode="&#xa9;" glyph-name="copyright" horiz-adv-x="823" d="M312 -5T229 43T99 173T51 357Q51 458 98 540T228 669T412 717Q513 717 595 670T725 540T773 357Q773 256 726 174T595 43T412 -5Q312 -5 229 43ZM500 40T571 81T684 195T725 357Q725 445
684 517T572 630T412 672Q324 672 252 631T139 517T98 357Q98 268 139 196T252 82T412 40Q500 40 571 81ZM326 138T271 197T215 357Q215 456 270 515T420 574Q463 574 503 560T571 519L547 465Q489 512 426 512Q362 512 328 472T293 357Q293 281 327 241T426 200Q489
200 547 247L571 193Q542 167 502 153T420 138Q326 138 271 197Z" />
<glyph unicode="&#xaa;" glyph-name="ordfeminine" horiz-adv-x="333" d="M261 717T290 690T319 610Q319 598 318 592L305 416H236L240 462Q226 437 203 424T150 411Q107 411 79 436T50 499Q50 547 91 567T227 588H249L250 605Q252 634 239 648T195 662Q143 662
95 632L81 684Q106 700 139 708T204 717Q261 717 290 690ZM199 462T220 482T245 535L246 550H224Q166 550 143 540T120 504Q120 486 133 474T168 462Q199 462 220 482Z" />
<glyph unicode="&#xab;" glyph-name="guillemotleft" horiz-adv-x="445" d="M145 88L28 267L176 448H251L108 268L220 88H145ZM328 88L211 267L359 448H434L291 268L403 88H328Z" />
<glyph unicode="&#xac;" glyph-name="logicalnot" horiz-adv-x="600" d="M561 423L539 151H477L494 361H63L68 423H561Z" />
<glyph unicode="&#xad;" glyph-name="uni00AD" horiz-adv-x="429" d="M73 235L78 302H360L355 235H73Z" />
<glyph unicode="&#xae;" glyph-name="registered" horiz-adv-x="823" d="M522 717T604 670T734 540T782 357Q782 256 735 174T604 43T421 -5Q321 -5 238 43T108 173T60 357Q60 458 107 540T237 669T421 717Q522 717 604 670ZM509 40T580 81T693 195T734 357Q734
445 693 517T581 630T421 672Q333 672 261 631T148 517T107 357Q107 268 148 196T261 82T421 40Q509 40 580 81ZM518 311T537 274L605 143H522L453 280Q442 299 429 306T393 314H341L327 143H253L286 570H455Q527 570 565 539T603 449Q603 397 572 363T485 321Q518
311 537 274ZM445 372Q529 372 529 446Q529 480 509 495T444 510H356L344 372H445Z" />
<glyph unicode="&#xaf;" glyph-name="overscore" horiz-adv-x="300" d="M30 628L35 690H337L332 628H30Z" />
<glyph unicode="&#xb0;" glyph-name="degree" horiz-adv-x="369" d="M169 424T136 443T83 496T64 571Q64 612 83 645T135 698T210 717Q251 717 284 698T337 646T357 571Q357 530 338 496T285 443T210 424Q169 424 136 443ZM250 478T275 504T300 571Q300 612 275
638T210 664Q172 664 147 638T121 571Q121 530 146 504T210 478Q250 478 275 504Z" />
<glyph unicode="&#xb1;" glyph-name="plusminus" horiz-adv-x="600" d="M340 360H556L550 298H335L321 124H259L273 298H58L63 360H278L292 534H354L340 360ZM34 0L39 63H532L527 0H34Z" />
<glyph unicode="&#xb2;" glyph-name="uni00B2" horiz-adv-x="380" d="M150 345H345L340 285H56L60 339L217 497Q248 529 262 553T276 601Q276 628 259 642T210 657Q183 657 151 645T92 611L71 665Q101 688 139 702T219 716Q280 716 315 687T350 606Q350 569 331
534T267 458L150 345Z" />
<glyph unicode="&#xb3;" glyph-name="uni00B3" horiz-adv-x="380" d="M308 494T326 470T344 409Q344 349 302 315T193 281Q150 281 110 295T40 333L69 386Q130 340 189 340Q227 340 250 357T274 409Q274 472 195 472H138L142 530H190Q232 530 255 548T279 602Q279
629 261 643T213 657Q184 657 152 645T92 611L71 665Q101 688 139 702T219 716Q280 716 315 687T350 612Q350 572 330 544T274 504Q308 494 326 470Z" />
<glyph unicode="&#xb4;" glyph-name="acute" horiz-adv-x="300" d="M204 557H148L262 761H359L204 557Z" />
<glyph unicode="&#xb5;" glyph-name="uni00B5" horiz-adv-x="577" d="M519 503L480 0H401L407 82Q382 39 338 16T240 -7Q176 -7 138 23L119 -216H40L95 503H176L151 198Q150 191 150 177Q150 60 260 60Q328 60 369 102T416 219L439 503H519Z" />
<glyph unicode="&#xb6;" glyph-name="paragraph" horiz-adv-x="586" d="M466 -182H399L464 651H345L280 -182H212L251 313Q168 315 117 365T66 498Q66 593 123 652T284 712H537L466 -182Z" />
<glyph unicode="&#xb7;" glyph-name="middot" horiz-adv-x="232" d="M71 320H173L165 217H62L71 320Z" />
<glyph unicode="&#xb8;" glyph-name="cedilla" horiz-adv-x="300" d="M200 -41T220 -59T241 -109Q241 -147 210 -171T123 -195Q101 -195 76 -190T32 -176L47 -132Q86 -146 123 -146Q150 -146 165 -137T181 -111Q181 -98 172 -91T146 -84Q124 -84 101 -93L83 -77L102
20H159L146 -43Q153 -41 166 -41Q200 -41 220 -59Z" />
<glyph unicode="&#xb9;" glyph-name="uni00B9" horiz-adv-x="380" d="M260 345H337L332 285H107L111 345H188L211 629L135 585L141 659L234 712H290L260 345Z" />
<glyph unicode="&#xba;" glyph-name="ordmasculine" horiz-adv-x="345" d="M124 411T85 449T46 550Q46 625 90 671T207 717Q272 717 310 679T349 577Q349 502 305 457T188 411Q124 411 85 449ZM231 469T254 497T277 576Q277 616 258 638T205 660Q164 660 142 631T119
552Q119 512 137 491T190 469Q231 469 254 497Z" />
<glyph unicode="&#xbb;" glyph-name="guillemotright" horiz-adv-x="444" d="M92 88H18L158 268L43 448H119L237 267L92 88ZM275 88H201L341 268L226 448H302L420 267L275 88Z" />
<glyph unicode="&#xbc;" glyph-name="onequarter" horiz-adv-x="935" d="M260 345H337L332 285H107L111 345H188L211 629L135 585L141 659L234 712H290L260 345ZM266 -25L211 12L687 737L741 700L266 -25ZM906 141L901 84H838L832 0H762L768 84H575L579 137L806
427H865L843 141H906ZM648 141H773L786 319L648 141Z" />
<glyph unicode="&#xbd;" glyph-name="onehalf" horiz-adv-x="935" d="M260 345H337L332 285H107L111 345H188L211 629L135 585L141 659L234 712H290L260 345ZM266 -25L211 12L687 737L741 700L266 -25ZM682 60H877L872 0H588L592 54L749 212Q780 244 794 268T808
316Q808 343 791 357T742 372Q715 372 683 360T624 326L603 380Q633 403 671 417T751 431Q812 431 847 402T882 321Q882 284 863 249T799 173L682 60Z" />
<glyph unicode="&#xbe;" glyph-name="threequarters" horiz-adv-x="935" d="M308 494T326 470T344 409Q344 349 302 315T193 281Q150 281 110 295T40 333L69 386Q130 340 189 340Q227 340 250 357T274 409Q274 472 195 472H138L142 530H190Q232 530 255 548T279
602Q279 629 261 643T213 657Q184 657 152 645T92 611L71 665Q101 688 139 702T219 716Q280 716 315 687T350 612Q350 572 330 544T274 504Q308 494 326 470ZM266 -25L211 12L687 737L741 700L266 -25ZM906 141L901 84H838L832 0H762L768 84H575L579 137L806 427H865L843
141H906ZM648 141H773L786 319L648 141Z" />
<glyph unicode="&#xbf;" glyph-name="questiondown" horiz-adv-x="447" d="M197 388L205 492H308L300 388H197ZM263 -189T189 -189Q103 -189 52 -149T1 -43Q1 -5 15 25T49 78T105 132Q153 174 179 207T214 288L218 306H267L265 281Q262 238 247 205T213 149T162
96Q123 60 104 32T85 -34Q85 -74 114 -96T194 -119Q263 -119 333 -79L328 -155Q263 -189 189 -189Z" />
<glyph unicode="&#xc0;" glyph-name="Agrave" horiz-adv-x="734" d="M614 0L550 183H178L86 0H-1L368 712H439L697 0H614ZM213 251H526L397 617L213 251ZM380 773L260 926H344L436 773H380Z" />
<glyph unicode="&#xc1;" glyph-name="Aacute" horiz-adv-x="734" d="M614 0L550 183H178L86 0H-1L368 712H439L697 0H614ZM213 251H526L397 617L213 251ZM436 773H380L491 926H586L436 773Z" />
<glyph unicode="&#xc2;" glyph-name="Acircumflex" horiz-adv-x="734" d="M614 0L550 183H178L86 0H-1L368 712H439L697 0H614ZM213 251H526L397 617L213 251ZM335 773H261L393 926H447L555 773H483L419 877L335 773Z" />
<glyph unicode="&#xc3;" glyph-name="Atilde" horiz-adv-x="734" d="M614 0L550 183H178L86 0H-1L368 712H439L697 0H614ZM213 251H526L397 617L213 251ZM250 852T277 881T346 910Q367 910 384 902T428 877Q447 865 460 859T485 852Q507 852 520 866T536 907H582Q579
850 552 821T482 791Q461 791 443 799T401 824Q379 838 368 843T344 849Q322 849 308 835T292 794H247Q250 852 277 881Z" />
<glyph unicode="&#xc4;" glyph-name="Adieresis" horiz-adv-x="734" d="M614 0L550 183H178L86 0H-1L368 712H439L697 0H614ZM213 251H526L397 617L213 251ZM286 893H377L369 807H280L286 893ZM459 893H549L543 807H452L459 893Z" />
<glyph unicode="&#xc5;" glyph-name="Aring" horiz-adv-x="734" d="M550 183H178L86 0H-1L358 693Q334 706 320 729T305 781Q305 823 335 852T408 881Q450 881 480 852T510 781Q510 749 493 725T447 689L697 0H614L550 183ZM387 831T373 817T359 781Q359 759 373
745T408 730Q428 730 442 744T456 781Q456 802 442 816T408 831Q387 831 373 817ZM213 251H526L397 617L213 251Z" />
<glyph unicode="&#xc6;" glyph-name="AE" horiz-adv-x="1001" d="M983 643H608L611 396H943L937 327H612L615 69H938L932 0H539L538 183H195L72 0H-22L467 712H988L983 643ZM537 251L534 643H503L240 251H537Z" />
<glyph unicode="&#xc7;" glyph-name="Ccedilla" horiz-adv-x="684" d="M291 649T223 563T155 325Q155 199 215 131T386 63Q497 63 595 145L621 82Q531 -3 388 -8L381 -43Q388 -41 401 -41Q435 -41 455 -59T476 -109Q476 -147 445 -171T358 -195Q336 -195 311 -190T267
-176L282 -132Q321 -146 358 -146Q385 -146 400 -137T416 -111Q416 -98 407 -91T381 -84Q359 -84 336 -93L318 -77L332 -6Q210 8 140 96T70 326Q70 446 111 535T230 672T413 720Q491 720 555 698T665 630L628 568Q581 611 531 630T414 649Q291 649 223 563Z" />
<glyph unicode="&#xc8;" glyph-name="Egrave" horiz-adv-x="589" d="M571 644H202L182 396H531L525 327H177L156 68H525L520 0H69L125 712H576L571 644ZM341 773L221 926H305L397 773H341Z" />
<glyph unicode="&#xc9;" glyph-name="Eacute" horiz-adv-x="589" d="M571 644H202L182 396H531L525 327H177L156 68H525L520 0H69L125 712H576L571 644ZM397 773H341L452 926H547L397 773Z" />
<glyph unicode="&#xca;" glyph-name="Ecircumflex" horiz-adv-x="589" d="M571 644H202L182 396H531L525 327H177L156 68H525L520 0H69L125 712H576L571 644ZM296 773H222L354 926H408L516 773H444L380 877L296 773Z" />
<glyph unicode="&#xcb;" glyph-name="Edieresis" horiz-adv-x="589" d="M571 644H202L182 396H531L525 327H177L156 68H525L520 0H69L125 712H576L571 644ZM247 893H338L330 807H241L247 893ZM420 893H510L504 807H413L420 893Z" />
<glyph unicode="&#xcc;" glyph-name="Igrave" horiz-adv-x="258" d="M69 0L124 712H208L152 0H69ZM144 773L24 926H108L200 773H144Z" />
<glyph unicode="&#xcd;" glyph-name="Iacute" horiz-adv-x="258" d="M69 0L124 712H208L152 0H69ZM200 773H144L255 926H350L200 773Z" />
<glyph unicode="&#xce;" glyph-name="Icircumflex" horiz-adv-x="258" d="M69 0L124 712H208L152 0H69ZM99 773H25L157 926H211L319 773H247L183 877L99 773Z" />
<glyph unicode="&#xcf;" glyph-name="Idieresis" horiz-adv-x="258" d="M69 0L124 712H208L152 0H69ZM50 893H141L133 807H44L50 893ZM223 893H313L307 807H216L223 893Z" />
<glyph unicode="&#xd0;" glyph-name="Eth" horiz-adv-x="760" d="M533 712T620 627T707 385Q707 203 612 102T343 0H82L107 328H14L19 394H112L137 712H373Q533 712 620 627ZM479 70T550 151T622 386Q622 513 558 577T367 642H215L195 394H390L385 328H190L170
70H339Q479 70 550 151Z" />
<glyph unicode="&#xd1;" glyph-name="Ntilde" horiz-adv-x="746" d="M617 712H695L639 0H576L193 571L147 0H69L125 712H189L572 141L617 712ZM257 852T284 881T353 910Q374 910 391 902T435 877Q454 865 467 859T492 852Q514 852 527 866T543 907H589Q586 850
559 821T489 791Q468 791 450 799T408 824Q386 838 375 843T351 849Q329 849 315 835T299 794H254Q257 852 284 881Z" />
<glyph unicode="&#xd2;" glyph-name="Ograve" horiz-adv-x="772" d="M289 -9T218 31T108 147T70 326Q70 445 111 534T227 672T402 721Q500 721 571 681T681 565T719 385Q719 266 678 177T562 40T387 -9Q289 -9 218 31ZM463 62T518 101T604 213T634 386Q634 513
574 581T402 650Q325 650 270 611T184 499T154 325Q154 198 214 130T387 62Q463 62 518 101ZM398 773L278 926H362L454 773H398Z" />
<glyph unicode="&#xd3;" glyph-name="Oacute" horiz-adv-x="772" d="M289 -9T218 31T108 147T70 326Q70 445 111 534T227 672T402 721Q500 721 571 681T681 565T719 385Q719 266 678 177T562 40T387 -9Q289 -9 218 31ZM463 62T518 101T604 213T634 386Q634 513
574 581T402 650Q325 650 270 611T184 499T154 325Q154 198 214 130T387 62Q463 62 518 101ZM454 773H398L509 926H604L454 773Z" />
<glyph unicode="&#xd4;" glyph-name="Ocircumflex" horiz-adv-x="772" d="M289 -9T218 31T108 147T70 326Q70 445 111 534T227 672T402 721Q500 721 571 681T681 565T719 385Q719 266 678 177T562 40T387 -9Q289 -9 218 31ZM463 62T518 101T604 213T634 386Q634
513 574 581T402 650Q325 650 270 611T184 499T154 325Q154 198 214 130T387 62Q463 62 518 101ZM353 773H279L411 926H465L573 773H501L437 877L353 773Z" />
<glyph unicode="&#xd5;" glyph-name="Otilde" horiz-adv-x="772" d="M289 -9T218 31T108 147T70 326Q70 445 111 534T227 672T402 721Q500 721 571 681T681 565T719 385Q719 266 678 177T562 40T387 -9Q289 -9 218 31ZM463 62T518 101T604 213T634 386Q634 513
574 581T402 650Q325 650 270 611T184 499T154 325Q154 198 214 130T387 62Q463 62 518 101ZM268 852T295 881T364 910Q385 910 402 902T446 877Q465 865 478 859T503 852Q525 852 538 866T554 907H600Q597 850 570 821T500 791Q479 791 461 799T419 824Q397 838
386 843T362 849Q340 849 326 835T310 794H265Q268 852 295 881Z" />
<glyph unicode="&#xd6;" glyph-name="Odieresis" horiz-adv-x="772" d="M289 -9T218 31T108 147T70 326Q70 445 111 534T227 672T402 721Q500 721 571 681T681 565T719 385Q719 266 678 177T562 40T387 -9Q289 -9 218 31ZM463 62T518 101T604 213T634 386Q634
513 574 581T402 650Q325 650 270 611T184 499T154 325Q154 198 214 130T387 62Q463 62 518 101ZM304 893H395L387 807H298L304 893ZM477 893H567L561 807H470L477 893Z" />
<glyph unicode="&#xd7;" glyph-name="multiply" horiz-adv-x="600" d="M534 480L346 289L524 95L477 52L301 243L113 52L72 95L260 287L82 480L130 524L306 333L494 524L534 480Z" />
<glyph unicode="&#xd8;" glyph-name="Oslash" horiz-adv-x="772" d="M670 598T694 533T719 385Q719 266 678 177T562 40T387 -9Q290 -9 218 31L166 -47L111 -12L165 70Q119 114 95 179T70 326Q70 445 111 534T227 672T402 721Q499 721 571 681L623 759L679 724L624
642Q670 598 694 533ZM154 205T209 136L530 619Q476 650 402 650Q325 650 270 611T184 499T154 325Q154 205 209 136ZM463 62T518 101T604 213T634 386Q634 506 580 575L259 93Q313 62 387 62Q463 62 518 101Z" />
<glyph unicode="&#xd9;" glyph-name="Ugrave" horiz-adv-x="731" d="M219 -8T152 56T84 244Q84 268 85 281L119 712H201L167 282Q166 271 166 250Q166 62 354 62Q453 62 507 113T568 270L603 712H685L650 278Q639 135 564 64T352 -8Q219 -8 152 56ZM379 773L259
926H343L435 773H379Z" />
<glyph unicode="&#xda;" glyph-name="Uacute" horiz-adv-x="731" d="M219 -8T152 56T84 244Q84 268 85 281L119 712H201L167 282Q166 271 166 250Q166 62 354 62Q453 62 507 113T568 270L603 712H685L650 278Q639 135 564 64T352 -8Q219 -8 152 56ZM435 773H379L490
926H585L435 773Z" />
<glyph unicode="&#xdb;" glyph-name="Ucircumflex" horiz-adv-x="731" d="M219 -8T152 56T84 244Q84 268 85 281L119 712H201L167 282Q166 271 166 250Q166 62 354 62Q453 62 507 113T568 270L603 712H685L650 278Q639 135 564 64T352 -8Q219 -8 152 56ZM334 773H260L392
926H446L554 773H482L418 877L334 773Z" />
<glyph unicode="&#xdc;" glyph-name="Udieresis" horiz-adv-x="731" d="M219 -8T152 56T84 244Q84 268 85 281L119 712H201L167 282Q166 271 166 250Q166 62 354 62Q453 62 507 113T568 270L603 712H685L650 278Q639 135 564 64T352 -8Q219 -8 152 56ZM285 893H376L368
807H279L285 893ZM458 893H548L542 807H451L458 893Z" />
<glyph unicode="&#xdd;" glyph-name="Yacute" horiz-adv-x="607" d="M660 712L348 288L325 0H242L265 289L18 712H112L310 357L564 712H660ZM372 773H316L427 926H522L372 773Z" />
<glyph unicode="&#xde;" glyph-name="Thorn" horiz-adv-x="651" d="M503 555T559 509T615 374Q615 276 555 223T378 169H164L151 0H69L125 712H207L195 555H400Q503 555 559 509ZM534 236T534 370Q534 430 499 458T393 487H189L170 236H373Q534 236 534 370Z" />
<glyph unicode="&#xdf;" glyph-name="germandbls" horiz-adv-x="635" d="M485 342T540 291T595 161Q595 113 570 75T500 15T398 -7Q347 -7 297 10T211 58L243 118Q283 87 321 73T402 58Q455 58 486 85T517 159Q517 219 462 259T281 334L285 396Q376 430 419 473T463
576Q463 677 349 677Q269 677 228 635T180 503L140 0H59L98 494Q119 741 349 741Q438 741 489 699T540 579Q540 443 370 370Q485 342 540 291Z" />
<glyph unicode="&#xe0;" glyph-name="agrave" horiz-adv-x="600" d="M541 503L501 0H422L429 81Q405 39 360 16T262 -7Q198 -7 150 22T75 107T48 236Q48 319 77 382T160 480T284 515Q344 515 388 489T455 414L462 503H541ZM357 59T400 116T443 272Q443 358 404
403T292 448Q216 448 173 392T130 235Q130 152 170 106T283 59Q357 59 400 116ZM298 568L179 772H267L354 568H298Z" />
<glyph unicode="&#xe1;" glyph-name="aacute" horiz-adv-x="600" d="M541 503L501 0H422L429 81Q405 39 360 16T262 -7Q198 -7 150 22T75 107T48 236Q48 319 77 382T160 480T284 515Q344 515 388 489T455 414L462 503H541ZM357 59T400 116T443 272Q443 358 404
403T292 448Q216 448 173 392T130 235Q130 152 170 106T283 59Q357 59 400 116ZM354 568H298L412 772H509L354 568Z" />
<glyph unicode="&#xe2;" glyph-name="acircumflex" horiz-adv-x="600" d="M541 503L501 0H422L429 81Q405 39 360 16T262 -7Q198 -7 150 22T75 107T48 236Q48 319 77 382T160 480T284 515Q344 515 388 489T455 414L462 503H541ZM357 59T400 116T443 272Q443 358
404 403T292 448Q216 448 173 392T130 235Q130 152 170 106T283 59Q357 59 400 116ZM255 568H178L314 772H371L474 568H400L338 712L255 568Z" />
<glyph unicode="&#xe3;" glyph-name="atilde" horiz-adv-x="600" d="M541 503L501 0H422L429 81Q405 39 360 16T262 -7Q198 -7 150 22T75 107T48 236Q48 319 77 382T160 480T284 515Q344 515 388 489T455 414L462 503H541ZM357 59T400 116T443 272Q443 358 404
403T292 448Q216 448 173 392T130 235Q130 152 170 106T283 59Q357 59 400 116ZM170 672T197 701T265 730Q286 730 304 722T348 697Q369 684 381 678T406 672Q428 672 441 686T456 727H501Q498 670 472 641T404 612Q383 612 365 620T321 645Q299 659 288 664T264
670Q242 670 228 655T212 615H167Q170 672 197 701Z" />
<glyph unicode="&#xe4;" glyph-name="adieresis" horiz-adv-x="600" d="M541 503L501 0H422L429 81Q405 39 360 16T262 -7Q198 -7 150 22T75 107T48 236Q48 319 77 382T160 480T284 515Q344 515 388 489T455 414L462 503H541ZM357 59T400 116T443 272Q443 358
404 403T292 448Q216 448 173 392T130 235Q130 152 170 106T283 59Q357 59 400 116ZM206 713H296L289 627H200L206 713ZM379 713H469L462 627H372L379 713Z" />
<glyph unicode="&#xe5;" glyph-name="aring" horiz-adv-x="600" d="M541 503L501 0H422L429 81Q405 39 360 16T262 -7Q198 -7 150 22T75 107T48 236Q48 319 77 382T160 480T284 515Q344 515 388 489T455 414L462 503H541ZM357 59T400 116T443 272Q443 358 404
403T292 448Q216 448 173 392T130 235Q130 152 170 106T283 59Q357 59 400 116ZM291 570T262 598T232 670Q232 712 261 741T334 770Q376 770 406 741T436 670Q436 628 406 599T334 570Q291 570 262 598ZM355 619T368 633T382 670Q382 691 369 705T334 720Q313 720
299 706T285 670Q285 648 299 634T334 619Q355 619 368 633Z" />
<glyph unicode="&#xe6;" glyph-name="ae" horiz-adv-x="881" d="M473 254V234Q473 151 514 105T634 59Q674 59 714 73T791 117L814 58Q784 29 732 11T631 -7Q554 -7 501 26T424 122Q398 61 346 27T227 -7Q150 -7 102 33T53 139Q53 225 122 266T348 307H400L401
322Q402 329 402 343Q402 397 376 422T294 448Q205 448 120 395L97 454Q135 482 191 498T301 515Q424 515 461 430Q491 471 536 493T640 515Q731 515 785 459T840 300Q840 278 837 254H473ZM576 453T535 416T479 307H769Q770 377 736 415T642 453Q576 453 535 416ZM300
56T343 100T392 213L395 255H352Q266 255 219 243T153 207T135 145Q135 105 163 81T238 56Q300 56 343 100Z" />
<glyph unicode="&#xe7;" glyph-name="ccedilla" horiz-adv-x="495" d="M423 28T378 11T283 -7L276 -43Q283 -41 296 -41Q330 -41 350 -59T371 -109Q371 -147 340 -171T253 -195Q231 -195 206 -190T162 -176L177 -132Q216 -146 253 -146Q280 -146 295 -137T311
-111Q311 -98 302 -91T276 -84Q254 -84 231 -93L213 -77L228 -2Q144 14 96 77T48 236Q48 320 79 383T167 480T303 515Q358 515 404 498T485 449L453 390Q415 420 379 434T303 448Q221 448 176 391T131 234Q131 152 172 106T287 60Q327 60 361 74T432 118L455 58Q423
28 378 11Z" />
<glyph unicode="&#xe8;" glyph-name="egrave" horiz-adv-x="544" d="M129 254V234Q129 151 170 105T289 59Q383 59 454 117L478 58Q446 28 393 11T286 -7Q213 -7 160 23T77 108T48 236Q48 318 78 381T165 480T295 515Q391 515 447 460T503 300Q503 278 500 254H129ZM233
453T191 416T135 307H432Q433 377 398 415T299 453Q233 453 191 416ZM282 568L163 772H251L338 568H282Z" />
<glyph unicode="&#xe9;" glyph-name="eacute" horiz-adv-x="544" d="M129 254V234Q129 151 170 105T289 59Q383 59 454 117L478 58Q446 28 393 11T286 -7Q213 -7 160 23T77 108T48 236Q48 318 78 381T165 480T295 515Q391 515 447 460T503 300Q503 278 500 254H129ZM233
453T191 416T135 307H432Q433 377 398 415T299 453Q233 453 191 416ZM338 568H282L396 772H493L338 568Z" />
<glyph unicode="&#xea;" glyph-name="ecircumflex" horiz-adv-x="544" d="M129 254V234Q129 151 170 105T289 59Q383 59 454 117L478 58Q446 28 393 11T286 -7Q213 -7 160 23T77 108T48 236Q48 318 78 381T165 480T295 515Q391 515 447 460T503 300Q503 278 500
254H129ZM233 453T191 416T135 307H432Q433 377 398 415T299 453Q233 453 191 416ZM239 568H162L298 772H355L458 568H384L322 712L239 568Z" />
<glyph unicode="&#xeb;" glyph-name="edieresis" horiz-adv-x="544" d="M129 254V234Q129 151 170 105T289 59Q383 59 454 117L478 58Q446 28 393 11T286 -7Q213 -7 160 23T77 108T48 236Q48 318 78 381T165 480T295 515Q391 515 447 460T503 300Q503 278 500
254H129ZM233 453T191 416T135 307H432Q433 377 398 415T299 453Q233 453 191 416ZM190 713H280L273 627H184L190 713ZM363 713H453L446 627H356L363 713Z" />
<glyph unicode="&#xec;" glyph-name="igrave" horiz-adv-x="238" d="M59 0L99 503H180L140 0H59ZM116 568L-3 772H85L172 568H116Z" />
<glyph unicode="&#xed;" glyph-name="iacute" horiz-adv-x="238" d="M59 0L99 503H180L140 0H59ZM172 568H116L230 772H327L172 568Z" />
<glyph unicode="&#xee;" glyph-name="icircumflex" horiz-adv-x="238" d="M59 0L99 503H180L140 0H59ZM73 568H-4L132 772H189L292 568H218L156 712L73 568Z" />
<glyph unicode="&#xef;" glyph-name="idieresis" horiz-adv-x="238" d="M59 0L99 503H180L140 0H59ZM24 713H114L107 627H18L24 713ZM197 713H287L280 627H190L197 713Z" />
<glyph unicode="&#xf0;" glyph-name="eth" horiz-adv-x="576" d="M446 607Q534 499 534 332Q534 159 466 76T279 -7Q172 -7 109 54T46 217Q46 292 76 349T161 438T287 470Q346 470 390 448T458 385Q447 503 374 582L206 522L192 573L330 621Q274 664 196 686L221
744Q336 713 407 648L543 696L556 646L446 607ZM357 59T399 110T442 252Q442 322 402 362T291 403Q214 403 171 353T128 215Q128 140 167 100T281 59Q357 59 399 110Z" />
<glyph unicode="&#xf1;" glyph-name="ntilde" horiz-adv-x="585" d="M426 515T470 471T515 341Q515 323 514 314L489 0H409L434 309Q435 316 435 330Q435 447 323 447Q252 447 210 405T162 288L139 0H58L87 362Q91 403 91 456Q91 487 90 503H166L168 420Q193 466
238 490T342 515Q426 515 470 471ZM163 672T190 701T258 730Q279 730 297 722T341 697Q362 684 374 678T399 672Q421 672 434 686T449 727H494Q491 670 465 641T397 612Q376 612 358 620T314 645Q292 659 281 664T257 670Q235 670 221 655T205 615H160Q163 672
190 701Z" />
<glyph unicode="&#xf2;" glyph-name="ograve" horiz-adv-x="572" d="M210 -7T158 23T77 108T48 236Q48 320 78 383T164 480T292 515Q362 515 414 485T495 400T524 271Q524 187 494 124T408 27T280 -7Q210 -7 158 23ZM358 59T400 117T442 274Q442 357 403 402T292
448Q216 448 173 390T130 233Q130 148 169 104T282 59Q358 59 400 117ZM283 568L164 772H252L339 568H283Z" />
<glyph unicode="&#xf3;" glyph-name="oacute" horiz-adv-x="572" d="M210 -7T158 23T77 108T48 236Q48 320 78 383T164 480T292 515Q362 515 414 485T495 400T524 271Q524 187 494 124T408 27T280 -7Q210 -7 158 23ZM358 59T400 117T442 274Q442 357 403 402T292
448Q216 448 173 390T130 233Q130 148 169 104T282 59Q358 59 400 117ZM339 568H283L397 772H494L339 568Z" />
<glyph unicode="&#xf4;" glyph-name="ocircumflex" horiz-adv-x="572" d="M210 -7T158 23T77 108T48 236Q48 320 78 383T164 480T292 515Q362 515 414 485T495 400T524 271Q524 187 494 124T408 27T280 -7Q210 -7 158 23ZM358 59T400 117T442 274Q442 357 403
402T292 448Q216 448 173 390T130 233Q130 148 169 104T282 59Q358 59 400 117ZM240 568H163L299 772H356L459 568H385L323 712L240 568Z" />
<glyph unicode="&#xf5;" glyph-name="otilde" horiz-adv-x="572" d="M210 -7T158 23T77 108T48 236Q48 320 78 383T164 480T292 515Q362 515 414 485T495 400T524 271Q524 187 494 124T408 27T280 -7Q210 -7 158 23ZM358 59T400 117T442 274Q442 357 403 402T292
448Q216 448 173 390T130 233Q130 148 169 104T282 59Q358 59 400 117ZM155 672T182 701T250 730Q271 730 289 722T333 697Q354 684 366 678T391 672Q413 672 426 686T441 727H486Q483 670 457 641T389 612Q368 612 350 620T306 645Q284 659 273 664T249 670Q227
670 213 655T197 615H152Q155 672 182 701Z" />
<glyph unicode="&#xf6;" glyph-name="odieresis" horiz-adv-x="572" d="M210 -7T158 23T77 108T48 236Q48 320 78 383T164 480T292 515Q362 515 414 485T495 400T524 271Q524 187 494 124T408 27T280 -7Q210 -7 158 23ZM358 59T400 117T442 274Q442 357 403 402T292
448Q216 448 173 390T130 233Q130 148 169 104T282 59Q358 59 400 117ZM191 713H281L274 627H185L191 713ZM364 713H454L447 627H357L364 713Z" />
<glyph unicode="&#xf7;" glyph-name="divide" horiz-adv-x="600" d="M262 439L270 535H365L357 439H262ZM552 319L546 256H55L60 319H552ZM230 38L238 134H332L324 38H230Z" />
<glyph unicode="&#xf8;" glyph-name="oslash" horiz-adv-x="572" d="M487 424T505 377T524 271Q524 187 494 124T408 27T280 -7Q214 -7 164 19L121 -47L74 -18L119 51Q85 83 67 130T48 236Q48 320 78 383T164 480T292 515Q359 515 409 488L452 553L498 526L453
457Q487 424 505 377ZM129 158T160 113L370 430Q339 448 292 448Q215 448 172 390T129 233Q129 158 160 113ZM359 59T401 116T443 274Q443 350 411 394L202 76Q236 59 282 59Q359 59 401 116Z" />
<glyph unicode="&#xf9;" glyph-name="ugrave" horiz-adv-x="577" d="M519 503L480 0H401L407 82Q382 39 338 16T240 -7Q158 -7 114 36T70 164Q70 183 71 193L95 503H176L151 198Q150 191 150 177Q150 60 260 60Q328 60 369 102T416 219L439 503H519ZM286 568L167
772H255L342 568H286Z" />
<glyph unicode="&#xfa;" glyph-name="uacute" horiz-adv-x="577" d="M519 503L480 0H401L407 82Q382 39 338 16T240 -7Q158 -7 114 36T70 164Q70 183 71 193L95 503H176L151 198Q150 191 150 177Q150 60 260 60Q328 60 369 102T416 219L439 503H519ZM342 568H286L400
772H497L342 568Z" />
<glyph unicode="&#xfb;" glyph-name="ucircumflex" horiz-adv-x="577" d="M519 503L480 0H401L407 82Q382 39 338 16T240 -7Q158 -7 114 36T70 164Q70 183 71 193L95 503H176L151 198Q150 191 150 177Q150 60 260 60Q328 60 369 102T416 219L439 503H519ZM243
568H166L302 772H359L462 568H388L326 712L243 568Z" />
<glyph unicode="&#xfc;" glyph-name="udieresis" horiz-adv-x="577" d="M519 503L480 0H401L407 82Q382 39 338 16T240 -7Q158 -7 114 36T70 164Q70 183 71 193L95 503H176L151 198Q150 191 150 177Q150 60 260 60Q328 60 369 102T416 219L439 503H519ZM194 713H284L277
627H188L194 713ZM367 713H457L450 627H360L367 713Z" />
<glyph unicode="&#xfd;" glyph-name="yacute" horiz-adv-x="531" d="M540 503L259 -46Q215 -132 158 -172T17 -227L4 -163Q76 -147 114 -121T181 -40L205 5L31 503H113L253 86L457 503H540ZM319 568H263L377 772H474L319 568Z" />
<glyph unicode="&#xfe;" glyph-name="thorn" horiz-adv-x="600" d="M402 515T450 485T526 400T553 272Q553 189 524 126T440 28T317 -7Q258 -7 214 18T147 90L122 -216H42L117 728H197L173 428Q198 469 242 492T339 515Q402 515 450 485ZM385 59T428 115T471 272Q471
356 431 402T319 448Q244 448 201 391T158 235Q158 150 197 105T311 59Q385 59 428 115Z" />
<glyph unicode="&#xff;" glyph-name="ydieresis" horiz-adv-x="531" d="M540 503L259 -46Q215 -132 158 -172T17 -227L4 -163Q76 -147 114 -121T181 -40L205 5L31 503H113L253 86L457 503H540ZM171 713H261L254 627H165L171 713ZM344 713H434L427 627H337L344 713Z" />
<glyph unicode="&#x2013;" glyph-name="endash" horiz-adv-x="505" d="M-1 242L4 295H509L504 242H-1Z" />
<glyph unicode="&#x2014;" glyph-name="emdash" horiz-adv-x="1010" d="M-1 242L4 295H1014L1009 242H-1Z" />
<glyph unicode="&#x2018;" glyph-name="quoteleft" horiz-adv-x="231" d="M155 646T147 603H196L187 499H84L90 572Q93 614 110 649T163 718L198 688Q155 646 147 603Z" />
<glyph unicode="&#x2019;" glyph-name="quoteright" horiz-adv-x="231" d="M204 712L198 639Q195 597 178 562T125 493L90 523Q114 547 125 567T141 609H93L100 712H204Z" />
<glyph unicode="&#x201a;" glyph-name="quotesinglbase" horiz-adv-x="231" d="M155 103L150 29Q146 -14 130 -48T78 -115L42 -86Q85 -41 93 0H45L53 103H155Z" />
<glyph unicode="&#x201c;" glyph-name="quotedblleft" horiz-adv-x="399" d="M155 646T147 603H196L187 499H84L90 572Q93 614 110 649T163 718L198 688Q155 646 147 603ZM323 646T315 603H364L355 499H252L258 572Q261 614 278 649T331 718L366 688Q323 646 315 603Z" />
<glyph unicode="&#x201d;" glyph-name="quotedblright" horiz-adv-x="399" d="M204 712L198 639Q195 597 178 562T125 493L90 523Q114 547 125 567T141 609H93L100 712H204ZM372 712L366 639Q363 597 346 562T293 493L258 523Q282 547 293 567T309 609H261L268 712H372Z" />
<glyph unicode="&#x201e;" glyph-name="quotedblbase" horiz-adv-x="399" d="M155 103L150 29Q146 -14 130 -48T78 -115L42 -86Q85 -41 93 0H45L53 103H155ZM323 103L318 29Q314 -14 298 -48T246 -115L210 -86Q253 -41 261 0H213L221 103H323Z" />
<glyph unicode="&#x2022;" glyph-name="bullet" horiz-adv-x="529" d="M217 89T175 112T108 177T83 268Q83 314 107 355T173 422T266 447Q314 447 356 424T423 359T448 268Q448 219 424 178T357 113T266 89Q217 89 175 112Z" />
<glyph unicode="&#x2039;" glyph-name="guilsinglleft" horiz-adv-x="262" d="M145 88L28 267L176 448H251L108 268L220 88H145Z" />
<glyph unicode="&#x203a;" glyph-name="guilsinglright" horiz-adv-x="261" d="M92 88H18L158 268L43 448H119L237 267L92 88Z" />
</font>
</defs>
</svg>
