<?xml version="1.0" standalone="no"?>
<!DOCTYPE svg PUBLIC "-//W3C//DTD SVG 1.1//EN" "http://www.w3.org/Graphics/SVG/1.1/DTD/svg11.dtd">
<svg xmlns="http://www.w3.org/2000/svg">
<defs >
<font id="Muli" horiz-adv-x="588" ><font-face
    font-family="Muli ExtraBold"
    units-per-em="1000"
    panose-1="0 0 9 0 0 0 0 0 0 0"
    ascent="1005"
    descent="-250"
    alphabetic="0" />
<glyph unicode=" " glyph-name="space" horiz-adv-x="281" />
<glyph unicode="!" glyph-name="exclam" horiz-adv-x="262" d="M84 229L75 713L261 712L176 229H84ZM43 161H206L193 0H30L43 161Z" />
<glyph unicode="&quot;" glyph-name="quotedbl" horiz-adv-x="473" d="M92 411L78 712H252L193 411H92ZM308 411L294 712H468L409 411H308Z" />
<glyph unicode="#" glyph-name="numbersign" horiz-adv-x="606" d="M574 460H496L441 261H535L528 167H415L369 0H268L314 167H205L159 0H58L104 167H43L51 261H130L185 460H89L96 553H211L255 712H356L312 553H421L465 712H566L522 553H581L574 460ZM340 261L395
460H286L231 261H340Z" />
<glyph unicode="$" glyph-name="dollar" horiz-adv-x="600" d="M435 387T477 366T547 308T575 212Q575 124 515 65T351 -6L341 -116H220L229 -6Q160 0 108 19T14 71L74 183Q150 124 248 115L263 298Q201 318 159 339T87 400T58 499Q58 557 87 604T168 682T287
719L296 828H417L408 716Q531 698 593 641L533 529Q466 581 389 594L374 406Q435 387 477 366ZM214 467T275 441L287 594Q253 587 234 566T214 513Q214 467 275 441ZM418 137T418 199Q418 220 404 235T363 263L352 120Q418 137 418 199Z" />
<glyph unicode="%" glyph-name="percent" horiz-adv-x="964" d="M151 289T105 340T58 486Q58 597 108 660T246 724Q333 724 380 673T427 526Q427 413 378 351T238 289Q151 289 105 340ZM321 0H191L660 712H790L321 0ZM304 384T304 540Q304 586 291 607T247 629Q181
629 181 473Q181 427 194 406T237 384Q304 384 304 540ZM647 -7T600 44T553 191Q553 301 603 364T742 428Q829 428 876 377T923 230Q923 117 874 55T734 -7Q647 -7 600 44ZM767 88T783 128T800 244Q800 290 787 311T743 333Q677 333 677 177Q677 131 690 110T733
88Q767 88 783 128Z" />
<glyph unicode="&amp;" glyph-name="ampersand" horiz-adv-x="698" d="M634 -10Q547 17 493 66Q397 -8 281 -8Q206 -8 149 17T60 87T28 189Q28 261 68 312T184 401Q125 472 125 542Q125 594 151 634T223 696T328 718Q415 718 466 676T518 562Q518 503 485 457T379
374L496 251Q540 332 551 435H676Q659 276 582 163Q633 116 715 94L634 -10ZM301 617T281 597T260 543Q260 524 270 504T305 454Q356 478 376 501T397 555Q397 584 380 600T333 617Q301 617 281 597ZM175 157T205 132T288 107Q355 107 413 151L258 320Q175 274
175 199Q175 157 205 132Z" />
<glyph unicode="&apos;" glyph-name="quotesingle" horiz-adv-x="257" d="M92 411L78 712H252L193 411H92Z" />
<glyph unicode="(" glyph-name="parenleft" horiz-adv-x="378" d="M146 -78T123 11T99 195Q99 230 102 266Q111 383 150 490T269 712H390Q323 575 295 474T258 266Q254 226 254 176Q254 98 268 13T316 -182H199Q146 -78 123 11Z" />
<glyph unicode=")" glyph-name="parenright" horiz-adv-x="379" d="M-9 -182Q57 -43 85 58T123 266Q127 326 127 355Q127 435 113 519T63 712H182Q234 613 258 522T282 335Q282 301 279 266Q270 150 232 46T112 -182H-9Z" />
<glyph unicode="*" glyph-name="asterisk" horiz-adv-x="459" d="M162 336L83 397L179 505L46 540L87 639L212 588L216 727H319L299 589L434 639L459 540L319 505L400 397L312 336L246 453L162 336Z" />
<glyph unicode="+" glyph-name="plus" horiz-adv-x="600" d="M554 341L545 238H351L335 43H232L248 238H54L62 341H256L272 536H375L359 341H554Z" />
<glyph unicode="," glyph-name="comma" horiz-adv-x="262" d="M206 161L198 61Q193 1 169 -47T92 -144L36 -98Q90 -46 105 0H30L43 161H206Z" />
<glyph unicode="-" glyph-name="hyphen" horiz-adv-x="444" d="M64 211L73 330H385L375 211H64Z" />
<glyph unicode="." glyph-name="period" horiz-adv-x="262" d="M43 161H206L193 0H30L43 161Z" />
<glyph unicode="/" glyph-name="slash" horiz-adv-x="333" d="M75 -61H-49L275 755H399L75 -61Z" />
<glyph unicode="0" glyph-name="zero" horiz-adv-x="600" d="M170 -8T106 73T41 309Q41 438 74 530T171 671T324 720Q447 720 512 639T577 403Q577 274 544 182T446 41T293 -8Q170 -8 106 73ZM359 112T391 191T424 424Q424 515 399 557T321 600Q259 600 227 520T194
288Q194 197 219 155T297 112Q359 112 391 191Z" />
<glyph unicode="1" glyph-name="one" horiz-adv-x="600" d="M403 125H558L547 0H84L94 125H246L280 537L130 453L140 590L359 712H450L403 125Z" />
<glyph unicode="2" glyph-name="two" horiz-adv-x="600" d="M251 125H544L534 0H45L54 115L312 366Q400 453 400 520Q400 558 376 578T303 598Q211 598 114 529L73 641Q171 721 322 721Q429 721 491 668T553 521Q553 463 524 411T422 289L251 125Z" />
<glyph unicode="3" glyph-name="three" horiz-adv-x="600" d="M481 346T512 307T544 211Q544 147 512 98T420 20T274 -8Q198 -8 132 13T18 72L77 184Q170 115 276 115Q335 115 366 140T397 211Q397 257 368 278T278 299H178L188 421H273Q336 421 368 446T401 518Q401
557 376 577T302 598Q206 598 114 529L73 641Q117 679 182 700T321 721Q389 721 441 699T523 635T553 540Q553 477 520 432T426 364Q481 346 512 307Z" />
<glyph unicode="4" glyph-name="four" horiz-adv-x="600" d="M583 251L573 130H476L466 0H313L323 130H23L31 246L394 712H521L485 251H583ZM180 251H332L349 471L180 251Z" />
<glyph unicode="5" glyph-name="five" horiz-adv-x="600" d="M415 461T464 435T541 360T569 250Q569 170 535 112T439 23T293 -8Q218 -8 153 13T38 72L97 184Q185 115 291 115Q352 115 386 146T420 233Q420 283 389 311T302 340Q264 340 230 328T170 291H81L114
712H571L561 592H257L244 437Q292 461 351 461Q415 461 464 435Z" />
<glyph unicode="6" glyph-name="six" horiz-adv-x="600" d="M416 461T464 433T539 356T566 242Q566 170 535 113T447 24T319 -9Q186 -9 114 73T41 307Q41 433 79 526T189 670T357 721Q423 721 486 700T599 641L540 529Q497 563 452 580T364 598Q294 598 252 544T198
381Q223 418 265 439T355 461Q416 461 464 433ZM360 113T389 146T418 234Q418 283 390 311T315 340Q267 340 237 307T206 221Q206 173 236 143T313 113Q360 113 389 146Z" />
<glyph unicode="7" glyph-name="seven" horiz-adv-x="600" d="M82 712H592L584 596L228 0H63L414 587H72L82 712Z" />
<glyph unicode="8" glyph-name="eight" horiz-adv-x="600" d="M500 348T535 304T570 199Q570 134 534 87T433 16T289 -8Q163 -8 92 43T21 187Q21 253 64 301T183 367Q128 387 97 429T66 524Q66 586 101 630T198 698T337 721Q407 721 462 700T548 637T579 542Q579
479 541 433T437 367Q500 348 535 304ZM212 467T239 442T313 408Q430 430 430 519Q430 559 402 580T325 601Q273 601 243 578T212 508Q212 467 239 442ZM352 112T388 138T425 213Q425 253 393 278T305 312Q169 291 169 203Q169 158 201 135T293 112Q352 112 388
138Z" />
<glyph unicode="9" glyph-name="nine" horiz-adv-x="600" d="M432 721T504 639T577 405Q577 279 539 186T429 42T261 -9Q194 -9 131 12T19 71L78 183Q120 149 165 132T254 114Q324 114 366 169T419 332Q394 295 353 273T263 251Q202 251 154 279T79 356T52 470Q52
542 83 599T171 688T298 721Q432 721 504 639ZM350 372T380 404T411 491Q411 539 383 569T310 599Q260 599 230 566T199 478Q199 429 227 401T302 372Q350 372 380 404Z" />
<glyph unicode=":" glyph-name="colon" horiz-adv-x="263" d="M70 496H232L220 335H58L70 496ZM44 161H207L194 0H31L44 161Z" />
<glyph unicode=";" glyph-name="semicolon" horiz-adv-x="262" d="M70 496H232L220 335H58L70 496ZM43 161H206L198 61Q193 1 169 -47T92 -144L36 -98Q90 -46 105 0H30L43 161Z" />
<glyph unicode="&lt;" glyph-name="less" horiz-adv-x="600" d="M571 547L562 434L190 289L539 144L529 31L53 233L62 347L571 547Z" />
<glyph unicode="=" glyph-name="equal" horiz-adv-x="600" d="M561 442L553 339H61L69 442H561ZM544 240L537 137H45L54 240H544Z" />
<glyph unicode="&gt;" glyph-name="greater" horiz-adv-x="600" d="M78 547L555 347L545 233L36 31L46 144L418 289L69 434L78 547Z" />
<glyph unicode="?" glyph-name="question" horiz-adv-x="473" d="M187 275Q191 327 213 362T274 437Q304 468 318 489T332 538Q332 567 312 582T256 598Q186 598 113 555L123 684Q158 701 200 711T283 721Q343 721 389 701T462 644T488 559Q488 519 473 488T434
433T374 378Q331 341 309 316T279 258L271 225H183L187 275ZM130 0L142 161H305L293 0H130Z" />
<glyph unicode="@" glyph-name="at" horiz-adv-x="948" d="M354 -160T254 -106T100 45T46 268Q46 407 103 509T262 665T491 719Q623 719 718 670T862 536T912 343Q912 255 885 192T811 97T703 64Q650 64 617 87T575 149H573Q546 109 512 87T426 64Q351 64 310
113T268 246Q268 318 295 377T370 470T480 505Q521 505 552 488T597 439H600L610 496H718L676 258Q671 228 671 210Q671 180 683 165T722 150Q742 150 762 169T796 232T810 343Q810 428 774 492T666 591T491 627Q394 627 318 585T198 461T155 268Q155 167 195 91T310
-26T489 -68Q564 -68 617 -50T696 0H836Q797 -72 707 -116T489 -160Q354 -160 254 -106ZM491 150T520 175T563 240T578 325Q578 371 557 394T499 418Q461 418 434 393T392 328T378 246Q378 203 397 177T450 150Q491 150 520 175Z" />
<glyph unicode="A" glyph-name="A" horiz-adv-x="759" d="M598 0L542 158H210L130 0H-30L352 712H479L750 0H598ZM270 277H500L406 545L270 277Z" />
<glyph unicode="B" glyph-name="B" horiz-adv-x="696" d="M594 351T625 307T656 203Q656 106 586 53T395 0H53L108 712H426Q542 712 603 663T664 533Q664 414 538 367Q594 351 625 307ZM453 422T483 443T513 511Q513 551 486 571T400 592H253L239 422H388Q453
422 483 443ZM449 120T479 141T509 213Q509 258 482 280T395 302H230L215 120H383Q449 120 479 141Z" />
<glyph unicode="C" glyph-name="C" horiz-adv-x="685" d="M291 -9T216 32T100 151T59 332Q59 449 105 537T234 673T430 721Q503 721 566 700T678 639L619 527Q574 563 531 579T436 596Q332 596 275 526T218 331Q218 227 265 172T401 116Q489 116 592 185L633 73Q594
35 530 13T394 -9Q291 -9 216 32Z" />
<glyph unicode="D" glyph-name="D" horiz-adv-x="770" d="M107 712H382Q489 712 567 672T687 557T729 380Q729 260 683 175T550 45T340 0H52L107 712ZM327 126Q451 126 512 189T573 381Q573 481 519 533T362 586H255L218 126H327Z" />
<glyph unicode="E" glyph-name="E" horiz-adv-x="599" d="M589 591H252L238 423H556L545 301H229L214 121H552L542 0H52L108 712H599L589 591Z" />
<glyph unicode="F" glyph-name="F" horiz-adv-x="578" d="M578 589H254L241 424H545L535 300H230L206 0H52L108 712H588L578 589Z" />
<glyph unicode="G" glyph-name="G" horiz-adv-x="745" d="M414 393H694L667 46Q617 20 547 6T401 -9Q295 -9 218 32T100 150T59 331Q59 449 105 537T236 673T436 721Q597 721 694 639L635 527Q589 563 545 580T443 597Q335 597 276 527T217 331Q217 225 267 169T421
112Q478 112 533 128L545 284H405L414 393Z" />
<glyph unicode="H" glyph-name="H" horiz-adv-x="779" d="M591 712H744L688 0H534L558 299H229L205 0H52L108 712H262L239 424H568L591 712Z" />
<glyph unicode="I" glyph-name="I" horiz-adv-x="299" d="M52 0L107 712H264L208 0H52Z" />
<glyph unicode="J" glyph-name="J" horiz-adv-x="381" d="M-24 -53Q15 -59 43 -59Q90 -59 110 -37T135 40L189 712H345L293 42Q283 -76 230 -132T65 -188Q21 -188 -33 -179L-24 -53Z" />
<glyph unicode="K" glyph-name="K" horiz-adv-x="685" d="M749 712L393 365L707 0H524L235 327L209 0H53L108 712H265L240 398L558 712H749Z" />
<glyph unicode="L" glyph-name="L" horiz-adv-x="569" d="M52 0L108 712H265L218 127H536L526 0H52Z" />
<glyph unicode="M" glyph-name="M" horiz-adv-x="851" d="M691 712H814L759 0H621L651 386L457 0H356L221 383L191 0H54L109 712H233L421 184L691 712Z" />
<glyph unicode="N" glyph-name="N" horiz-adv-x="760" d="M578 712H724L668 0H551L233 450L198 0H52L108 712H223L543 262L578 712Z" />
<glyph unicode="O" glyph-name="O" horiz-adv-x="795" d="M297 -10T220 31T101 150T59 332Q59 449 102 537T225 674T411 722Q515 722 592 681T711 562T753 380Q753 263 710 175T587 38T401 -10Q297 -10 220 31ZM491 113T544 184T597 380Q597 485 549 542T413 599Q320
599 268 528T215 331Q215 226 263 170T400 113Q491 113 544 184Z" />
<glyph unicode="P" glyph-name="P" horiz-adv-x="675" d="M499 712T553 687T635 617T663 514Q663 407 596 348T403 288H231L208 0H52L108 712H424Q499 712 553 687ZM451 407T483 432T516 505Q516 592 404 592H255L240 407H388Q451 407 483 432Z" />
<glyph unicode="Q" glyph-name="Q" horiz-adv-x="795" d="M589 -41T669 -111L558 -191Q509 -155 470 -109T404 -10H401Q297 -10 220 31T101 150T59 332Q59 449 102 537T225 674T411 722Q515 722 592 681T711 562T753 380Q753 251 701 158T554 21Q589 -41 669 -111ZM491
113T544 184T597 380Q597 485 549 542T413 599Q320 599 268 528T215 331Q215 226 263 170T400 113Q491 113 544 184Z" />
<glyph unicode="R" glyph-name="R" horiz-adv-x="708" d="M536 294T554 272T585 211L653 0H489L416 237Q407 265 386 276T329 287H229L207 0H53L108 712H439Q549 712 611 658T673 513Q673 430 632 377T508 303Q536 294 554 272ZM405 406Q465 406 495 431T526 505Q526
549 500 570T419 592H253L239 406H405Z" />
<glyph unicode="S" glyph-name="S" horiz-adv-x="657" d="M231 -9T157 12T27 73L86 185Q140 148 197 131T320 113Q387 113 421 133T456 191Q456 228 420 248T309 290Q234 312 188 333T107 394T73 501Q73 567 109 617T212 694T368 721Q445 721 514 699T626 639L568
527Q523 562 470 580T364 599Q300 599 264 577T228 515Q228 488 247 470T297 440T380 412Q453 391 499 371T579 311T612 208Q612 105 534 48T314 -9Q231 -9 157 12Z" />
<glyph unicode="T" glyph-name="T" horiz-adv-x="628" d="M216 0L263 585H38L48 712H652L642 585H419L374 0H216Z" />
<glyph unicode="U" glyph-name="U" horiz-adv-x="746" d="M220 -9T145 59T69 262Q69 275 71 303L103 712H257L224 299Q223 288 223 269Q223 190 260 152T375 113Q443 113 481 151T527 279L562 712H715L682 290Q671 141 592 66T368 -9Q220 -9 145 59Z" />
<glyph unicode="V" glyph-name="V" horiz-adv-x="735" d="M628 712H787L411 0H286L21 712H183L365 195L628 712Z" />
<glyph unicode="W" glyph-name="W" horiz-adv-x="1126" d="M994 712H1143L835 0H710L580 472L377 0H251L55 712H212L337 220L548 712H658L786 213L994 712Z" />
<glyph unicode="X" glyph-name="X" horiz-adv-x="681" d="M730 712L436 359L681 0H502L341 243L145 0H-39L262 363L24 712H203L357 479L545 712H730Z" />
<glyph unicode="Y" glyph-name="Y" horiz-adv-x="642" d="M730 712L402 276L380 0H224L246 279L-14 712H160L331 402L550 712H730Z" />
<glyph unicode="Z" glyph-name="Z" horiz-adv-x="615" d="M605 712L597 599L219 123H571L561 0H31L39 114L416 589H77L87 712H605Z" />
<glyph unicode="[" glyph-name="bracketleft" horiz-adv-x="375" d="M72 -182L142 712H398L389 599H282L228 -69H336L328 -182H72Z" />
<glyph unicode="\" glyph-name="backslash" horiz-adv-x="332" d="M211 -61L14 755H137L334 -61H211Z" />
<glyph unicode="]" glyph-name="bracketright" horiz-adv-x="375" d="M236 -182H-19L-10 -69H98L149 599H42L51 712H306L236 -182Z" />
<glyph unicode="^" glyph-name="asciicircum" horiz-adv-x="600" d="M550 144H438L322 503L149 144H33L275 637H388L550 144Z" />
<glyph unicode="_" glyph-name="underscore" horiz-adv-x="505" d="M-11 -88L-5 0H472L465 -88H-11Z" />
<glyph unicode="`" glyph-name="grave" horiz-adv-x="300" d="M130 561L-3 767H136L223 561H130Z" />
<glyph unicode="a" glyph-name="a" horiz-adv-x="630" d="M589 507L549 0H400L405 65Q380 30 340 11T252 -8Q188 -8 139 21T63 106T36 236Q36 319 66 383T152 484T278 520Q331 520 371 500T435 440L440 507H589ZM357 106T389 149T421 264Q421 334 392 369T308
405Q251 405 219 362T186 244Q186 177 216 142T302 106Q357 106 389 149Z" />
<glyph unicode="b" glyph-name="b" horiz-adv-x="631" d="M445 520T494 491T570 406T597 276Q597 193 567 129T481 28T355 -8Q302 -8 263 12T198 72L192 0H42L100 736H251L228 447Q253 481 293 500T381 520Q445 520 494 491ZM382 106T414 148T446 266Q446 333
416 369T331 405Q276 405 244 362T211 246Q211 177 240 142T325 106Q382 106 414 148Z" />
<glyph unicode="c" glyph-name="c" horiz-adv-x="509" d="M220 -8T160 23T68 110T36 240Q36 326 70 389T168 486T317 520Q438 520 514 457L465 352Q396 404 325 404Q261 404 226 362T191 242Q191 177 223 143T311 108Q384 108 450 159L483 54Q449 24 401 8T300
-8Q220 -8 160 23Z" />
<glyph unicode="d" glyph-name="d" horiz-adv-x="630" d="M608 736L549 0H400L405 64Q380 30 340 11T252 -8Q188 -8 139 21T63 106T36 236Q36 319 66 383T152 484T278 520Q330 520 369 500T433 442L456 736H608ZM357 106T389 149T421 264Q421 334 392 369T308
405Q251 405 219 362T186 245Q186 178 216 142T302 106Q357 106 389 149Z" />
<glyph unicode="e" glyph-name="e" horiz-adv-x="550" d="M394 520T455 460T516 291Q516 267 513 241H181Q182 174 214 140T310 105Q391 105 460 156L492 54Q458 25 407 9T300 -8Q221 -8 161 22T69 109T36 241Q36 322 69 385T160 484T292 520Q394 520 455 460ZM208
414T188 316H391Q391 363 366 388T298 414Q208 414 188 316Z" />
<glyph unicode="f" glyph-name="f" horiz-adv-x="385" d="M324 620T302 600T275 538L272 507H401L392 394H263L231 0H80L112 394H16L25 507H121L124 542Q132 638 185 691T331 744Q382 744 416 731L407 613Q379 620 358 620Q324 620 302 600Z" />
<glyph unicode="g" glyph-name="g" horiz-adv-x="634" d="M593 507L555 29Q545 -102 474 -163T272 -224Q147 -224 56 -177L89 -64Q134 -89 179 -100T276 -111Q335 -111 367 -82T405 12L410 81Q385 49 345 32T255 14Q190 14 141 43T65 125T37 248Q37 325 67 387T153
484T280 520Q388 520 439 441L444 507H593ZM361 129T394 169T427 276Q427 339 397 372T310 405Q253 405 220 365T187 254Q187 195 218 162T304 129Q361 129 394 169Z" />
<glyph unicode="h" glyph-name="h" horiz-adv-x="613" d="M472 520T515 473T559 336Q559 314 558 303L534 0H383L407 296Q408 302 408 314Q408 357 388 379T327 402Q276 402 248 371T215 284L192 0H41L99 736H250L227 450Q254 483 296 501T388 520Q472 520 515 473Z" />
<glyph unicode="i" glyph-name="i" horiz-adv-x="274" d="M42 0L82 507H233L193 0H42ZM94 745H256L245 603H83L94 745Z" />
<glyph unicode="j" glyph-name="j" horiz-adv-x="274" d="M-64 -100T-44 -100Q-9 -100 13 -81T40 -18L82 507H233L191 -22Q183 -118 130 -171T-16 -224Q-69 -224 -101 -211L-92 -93Q-64 -100 -44 -100ZM94 745H256L245 603H83L94 745Z" />
<glyph unicode="k" glyph-name="k" horiz-adv-x="573" d="M605 506L371 261L578 0H395L211 228L193 0H42L100 736H251L216 289L419 506H605Z" />
<glyph unicode="l" glyph-name="l" horiz-adv-x="274" d="M41 0L100 736H251L192 0H41Z" />
<glyph unicode="m" glyph-name="m" horiz-adv-x="911" d="M775 520T817 473T859 334Q859 314 858 304L834 0H683L706 300Q707 307 707 320Q707 402 637 402Q545 402 535 277L514 0H362L386 298L387 316Q387 402 316 402Q224 402 215 277L192 0H41L70 362Q74 405
74 459Q74 491 73 507H216L218 441Q247 481 286 500T378 520Q431 520 468 498T524 432Q554 475 597 497T695 520Q775 520 817 473Z" />
<glyph unicode="n" glyph-name="n" horiz-adv-x="613" d="M472 520T515 473T559 336Q559 314 558 303L534 0H383L407 296Q408 302 408 314Q408 357 388 379T327 402Q276 402 248 371T215 284L192 0H41L70 362Q74 405 74 459Q74 491 73 507H216L218 437Q243 476
287 498T388 520Q472 520 515 473Z" />
<glyph unicode="o" glyph-name="o" horiz-adv-x="604" d="M219 -8T160 23T68 110T36 242Q36 327 69 390T164 486T306 520Q386 520 445 489T537 402T569 270Q569 184 536 122T442 26T300 -8Q219 -8 160 23ZM360 106T389 152T419 274Q419 339 391 372T308 405Q246
405 216 359T186 239Q186 106 299 106Q360 106 389 152Z" />
<glyph unicode="p" glyph-name="p" horiz-adv-x="631" d="M444 520T493 491T569 406T596 276Q596 193 566 129T480 28T354 -8Q302 -8 262 12T198 71L175 -216H24L70 362Q74 405 74 459Q74 491 73 507H216L218 434Q242 474 284 497T380 520Q444 520 493 491ZM381
106T413 148T445 266Q445 333 415 369T330 405Q275 405 243 362T210 246Q210 177 239 142T324 106Q381 106 413 148Z" />
<glyph unicode="q" glyph-name="q" horiz-adv-x="630" d="M598 507Q585 444 578 362L532 -216H381L403 62Q378 29 339 11T252 -8Q188 -8 139 21T63 106T36 236Q36 319 66 383T151 484T277 520Q387 520 441 430L455 507H598ZM356 106T388 149T421 264Q421 334 392
369T308 405Q251 405 219 362T186 244Q186 177 216 142T302 106Q356 106 388 149Z" />
<glyph unicode="r" glyph-name="r" horiz-adv-x="410" d="M408 519T430 509L420 372Q384 388 346 388Q286 388 252 357T214 265L192 0H41L70 362Q74 432 74 467Q74 494 73 507H216L218 432Q240 473 283 496T376 519Q408 519 430 509Z" />
<glyph unicode="s" glyph-name="s" horiz-adv-x="503" d="M114 -8T12 54L61 159Q103 130 151 115T247 99Q289 99 309 111T329 143Q329 164 306 176T229 204Q174 219 139 234T79 278T53 355Q53 404 80 441T158 499T274 520Q331 520 385 503T477 457L429 356Q392
383 351 397T271 411Q230 411 209 399T188 366Q188 344 213 331T289 304Q344 288 378 273T438 229T464 152Q464 77 405 35T244 -8Q114 -8 12 54Z" />
<glyph unicode="t" glyph-name="t" horiz-adv-x="396" d="M247 197Q244 155 264 135T319 115Q342 115 370 123L360 6Q326 -8 272 -8Q186 -8 141 38T95 168Q95 185 96 194L112 394H16L25 507H121L130 626L285 675L272 507H401L392 394H263L247 197Z" />
<glyph unicode="u" glyph-name="u" horiz-adv-x="606" d="M565 507L525 0H378L383 65Q357 30 315 11T223 -8Q140 -8 97 38T53 172Q53 182 55 206L78 507H230L206 215Q198 110 285 110Q332 110 359 141T391 226L414 507H565Z" />
<glyph unicode="v" glyph-name="v" horiz-adv-x="550" d="M430 506H582L318 0H190L10 506H163L272 179L430 506Z" />
<glyph unicode="w" glyph-name="w" horiz-adv-x="891" d="M760 507H910L665 0H538L445 293L313 0H185L20 507H171L268 181L413 507H517L612 177L760 507Z" />
<glyph unicode="x" glyph-name="x" horiz-adv-x="557" d="M587 507L367 260L559 0H383L273 157L139 0H-41L193 262L11 507H186L286 366L406 507H587Z" />
<glyph unicode="y" glyph-name="y" horiz-adv-x="550" d="M583 507L304 -27Q253 -125 185 -170T21 -228L-5 -112Q66 -97 103 -74T164 -7L182 27L11 507H164L273 179L431 507H583Z" />
<glyph unicode="z" glyph-name="z" horiz-adv-x="530" d="M505 507L497 405L218 113H485L475 0H28L37 106L312 394H63L72 507H505Z" />
<glyph unicode="{" glyph-name="braceleft" horiz-adv-x="413" d="M435 712L426 599H390Q360 599 338 575T311 506L302 383Q298 337 270 305T208 265Q241 257 264 225T283 146L273 24Q269 -20 288 -44T337 -69H374L366 -182H302Q215 -182 169 -143T122 -28Q122
-15 123 -8L132 109Q133 119 133 136Q133 173 121 190T80 216L39 230L44 300L87 313Q122 324 137 346T157 420L167 538Q173 623 226 667T372 712H435Z" />
<glyph unicode="|" glyph-name="bar" horiz-adv-x="292" d="M42 -182L112 712H253L182 -182H42Z" />
<glyph unicode="}" glyph-name="braceright" horiz-adv-x="413" d="M377 300L372 230L330 216Q295 205 280 183T260 109L251 -8Q244 -93 191 -137T44 -182H-19L-10 -69H26Q56 -69 78 -45T105 24L114 146Q118 192 146 224T208 265Q175 272 152 304T133 383L143
506Q147 551 128 575T79 599H42L51 712H114Q202 712 248 673T295 558Q295 545 294 538L284 420Q283 410 283 394Q283 357 295 340T337 313L377 300Z" />
<glyph unicode="~" glyph-name="asciitilde" horiz-adv-x="600" d="M553 315Q532 265 492 236T405 206Q375 206 348 216T283 247Q251 263 235 269T204 276Q179 276 161 261T129 214L56 265Q76 315 116 344T202 374Q232 374 260 364T325 334Q355 319 371 312T403
305Q428 305 446 319T479 365L553 315Z" />
<glyph unicode="&#xa0;" glyph-name="uni00A0" horiz-adv-x="281" />
<glyph unicode="&#xa1;" glyph-name="exclamdown" horiz-adv-x="262" d="M57 335L69 496H231L219 335H57ZM86 266H177L190 -181L3 -182L86 266Z" />
<glyph unicode="&#xa2;" glyph-name="cent" horiz-adv-x="620" d="M528 54Q503 33 471 19T403 -2L394 -119H274L283 -3Q189 13 135 78T81 240Q81 360 146 433T324 518L333 630H453L444 511Q510 496 559 457L509 352Q472 380 434 393L413 116Q453 127 496 159L528
54ZM236 198T251 168T293 122L314 394Q276 378 256 339T236 242Q236 198 251 168Z" />
<glyph unicode="&#xa3;" glyph-name="sterling" horiz-adv-x="600" d="M264 204T252 175T212 125H563L553 0H20L27 105Q72 126 89 153T112 230L118 310H44L51 403H125L134 520Q142 611 207 666T376 721Q446 721 508 701T613 641L555 529Q462 598 384 598Q340 598
316 576T289 509L280 403H442L435 310H273L268 251Q264 204 252 175Z" />
<glyph unicode="&#xa4;" glyph-name="currency" horiz-adv-x="600" d="M543 166T497 101L552 43L497 -11L442 45Q378 -3 299 -3Q219 -3 156 44L102 -11L47 43L101 99Q54 165 54 247Q54 288 66 326T101 395L47 451L103 507L157 452Q220 498 299 498Q376 498 439
453L494 509L554 449L499 392Q543 328 543 247Q543 166 497 101ZM332 115T360 133T406 181T423 247Q423 283 406 313T360 362T297 380Q264 380 236 362T191 313T174 247Q174 192 210 154T299 115Q332 115 360 133Z" />
<glyph unicode="&#xa5;" glyph-name="yen" horiz-adv-x="600" d="M662 712L431 406H549L542 314H384L379 252H537L530 160H372L359 0H202L215 160H57L64 252H222L227 314H69L76 406H193L11 712H179L314 467L494 712H662Z" />
<glyph unicode="&#xa6;" glyph-name="brokenbar" horiz-adv-x="292" d="M86 375L112 712H253L226 375H86ZM43 -182L69 156H209L183 -182H43Z" />
<glyph unicode="&#xa7;" glyph-name="section" horiz-adv-x="585" d="M553 183T533 144T474 76Q493 42 493 3Q493 -88 427 -138T249 -189Q184 -189 127 -173T28 -127L77 -23Q116 -50 159 -64T244 -78Q292 -78 318 -59T345 -7Q345 15 332 31T287 65L161 131Q96
166 66 206T35 301Q35 348 55 387T115 455Q95 490 95 528Q95 618 163 668T339 719Q455 719 540 660L493 559Q462 583 423 596T345 609Q295 609 269 591T242 539Q242 498 300 467L426 400Q490 366 521 325T553 229Q553 183 533 144ZM375 170L402 154Q414 176 414
195Q414 224 397 247T341 292L214 365Q196 375 188 381Q172 357 172 336Q172 281 245 240L375 170Z" />
<glyph unicode="&#xa8;" glyph-name="dieresis" horiz-adv-x="300" d="M24 729H163L153 597H13L24 729ZM216 729H356L344 597H205L216 729Z" />
<glyph unicode="&#xa9;" glyph-name="copyright" horiz-adv-x="823" d="M311 -5T229 43T99 173T51 357Q51 458 98 540T228 669T412 717Q513 717 595 670T725 540T773 357Q773 256 726 174T595 43T412 -5Q311 -5 229 43ZM496 57T563 96T669 203T707 357Q707 441
669 509T564 616T412 655Q327 655 260 616T154 509T116 357Q116 272 154 204T259 96T412 57Q496 57 563 96ZM325 138T266 197T207 357Q207 456 266 515T426 574Q473 574 513 562T583 525L549 433Q529 447 501 458T447 469Q398 469 371 440T344 357Q344 302 371
273T447 243Q473 243 501 254T549 279L583 187Q522 138 426 138Q325 138 266 197Z" />
<glyph unicode="&#xaa;" glyph-name="ordfeminine" horiz-adv-x="342" d="M281 717T314 686T347 591Q347 575 346 567L334 410H217L221 462Q197 405 133 405Q92 405 64 432T36 498Q36 546 75 567T199 588H229L230 599Q231 614 221 620T188 627Q164 627 138 621T90
604L75 690Q102 703 137 710T210 717Q281 717 314 686ZM197 485T210 496T224 526L225 533H192Q149 533 149 508Q149 497 157 491T179 485Q197 485 210 496Z" />
<glyph unicode="&#xab;" glyph-name="guillemotleft" horiz-adv-x="529" d="M144 85L23 267L173 451H299L154 268L270 85H144ZM368 85L247 267L397 451H523L378 268L494 85H368Z" />
<glyph unicode="&#xac;" glyph-name="logicalnot" horiz-adv-x="600" d="M563 442L538 136H432L447 339H61L70 442H563Z" />
<glyph unicode="&#xad;" glyph-name="uni00AD" horiz-adv-x="444" d="M64 211L73 330H385L375 211H64Z" />
<glyph unicode="&#xae;" glyph-name="registered" horiz-adv-x="823" d="M522 717T604 670T734 540T782 357Q782 256 735 174T604 43T421 -5Q321 -5 238 43T108 173T60 357Q60 458 107 540T237 669T421 717Q522 717 604 670ZM505 57T572 96T677 203T716 357Q716
441 678 509T573 616T421 655Q337 655 270 617T164 510T125 357Q125 272 163 204T270 96T421 57Q505 57 572 96ZM556 298T574 256L623 143H474L417 281Q410 297 397 297H373L361 143H228L262 571H456Q534 571 575 537T617 442Q617 390 588 354T508 306Q556 298
574 256ZM439 389Q465 389 477 400T489 434Q489 453 477 461T437 470H385L379 389H439Z" />
<glyph unicode="&#xaf;" glyph-name="overscore" horiz-adv-x="300" d="M23 615L30 709H346L338 615H23Z" />
<glyph unicode="&#xb0;" glyph-name="degree" horiz-adv-x="372" d="M168 413T133 433T77 487T57 565Q57 608 77 642T132 697T211 717Q254 717 289 697T345 643T366 565Q366 522 346 488T290 433T211 413Q168 413 133 433ZM241 490T262 511T283 565Q283 598 262
619T211 640Q181 640 160 619T138 565Q138 533 159 512T211 490Q241 490 262 511Z" />
<glyph unicode="&#xb1;" glyph-name="plusminus" horiz-adv-x="600" d="M363 392H559L549 288H355L343 143H240L252 288H57L66 392H260L272 536H375L363 392ZM34 0L42 104H535L527 0H34Z" />
<glyph unicode="&#xb2;" glyph-name="uni00B2" horiz-adv-x="380" d="M203 386H362L354 285H47L54 380L199 518Q220 539 229 554T238 585Q238 602 226 610T188 618Q162 618 133 609T78 583L65 677Q94 694 135 705T215 716Q284 716 326 684T369 598Q369 559 350
525T277 448L203 386Z" />
<glyph unicode="&#xb3;" glyph-name="uni00B3" horiz-adv-x="380" d="M329 493T347 470T366 413Q366 352 319 316T194 280Q150 280 106 291T31 319L58 413Q122 378 186 378Q246 378 246 418Q246 451 197 451H122L130 549H190Q247 549 247 585Q247 618 196 618Q134
618 78 583L65 677Q94 695 134 705T215 716Q285 716 327 685T369 602Q369 567 350 542T296 504Q329 493 347 470Z" />
<glyph unicode="&#xb4;" glyph-name="acute" horiz-adv-x="300" d="M223 561H130L241 767H397L223 561Z" />
<glyph unicode="&#xb5;" glyph-name="uni00B5" horiz-adv-x="606" d="M565 507L525 0H378L383 65Q357 30 315 11T223 -8Q204 -8 189 -5L172 -216H22L78 507H230L206 215Q198 110 285 110Q332 110 359 141T391 226L414 507H565Z" />
<glyph unicode="&#xb6;" glyph-name="paragraph" horiz-adv-x="634" d="M530 -182H428L493 622H386L321 -182H220L257 269Q164 271 107 325T50 473Q50 544 79 598T163 682T293 712H601L530 -182Z" />
<glyph unicode="&#xb7;" glyph-name="middot" horiz-adv-x="262" d="M59 351H221L208 190H45L59 351Z" />
<glyph unicode="&#xb8;" glyph-name="cedilla" horiz-adv-x="300" d="M199 -40T222 -58T245 -109Q245 -148 210 -173T111 -199Q85 -199 57 -195T10 -181L26 -122Q71 -136 107 -136Q152 -136 152 -110Q152 -101 144 -96T121 -90Q110 -90 84 -97L66 -76L86 20H168L155
-40H162Q199 -40 222 -58Z" />
<glyph unicode="&#xb9;" glyph-name="uni00B9" horiz-adv-x="380" d="M293 386H375L366 285H76L83 386H163L179 575L100 534L109 651L228 712H319L293 386Z" />
<glyph unicode="&#xba;" glyph-name="ordmasculine" horiz-adv-x="377" d="M129 405T85 444T40 548Q40 626 90 671T223 717Q299 717 343 678T388 573Q388 496 338 451T205 405Q129 405 85 444ZM236 502T251 520T266 569Q266 593 253 606T218 620Q192 620 178 604T164
556Q164 531 176 517T210 502Q236 502 251 520Z" />
<glyph unicode="&#xbb;" glyph-name="guillemotright" horiz-adv-x="527" d="M136 85H12L154 268L38 451H165L284 267L136 85ZM360 85H236L378 268L262 451H389L508 267L360 85Z" />
<glyph unicode="&#xbc;" glyph-name="onequarter" horiz-adv-x="962" d="M293 386H375L366 285H76L83 386H163L179 575L100 534L109 651L228 712H319L293 386ZM301 -30L210 31L679 742L769 681L301 -30ZM950 158L943 65H882L877 0H763L768 65H580L587 154L809
427H910L889 158H950ZM692 158H776L784 271L692 158Z" />
<glyph unicode="&#xbd;" glyph-name="onehalf" horiz-adv-x="962" d="M293 386H375L366 285H76L83 386H163L179 575L100 534L109 651L228 712H319L293 386ZM301 -30L210 31L679 742L769 681L301 -30ZM762 101H921L913 0H606L613 95L758 233Q779 254 788 269T797
300Q797 317 785 325T747 333Q721 333 692 324T637 298L624 392Q653 409 694 420T774 431Q843 431 885 399T928 313Q928 274 909 240T836 163L762 101Z" />
<glyph unicode="&#xbe;" glyph-name="threequarters" horiz-adv-x="962" d="M329 493T347 470T366 413Q366 352 319 316T194 280Q150 280 106 291T31 319L58 413Q122 378 186 378Q246 378 246 418Q246 451 197 451H122L130 549H190Q247 549 247 585Q247 618 196
618Q134 618 78 583L65 677Q94 695 134 705T215 716Q285 716 327 685T369 602Q369 567 350 542T296 504Q329 493 347 470ZM301 -30L210 31L679 742L769 681L301 -30ZM950 158L943 65H882L877 0H763L768 65H580L587 154L809 427H910L889 158H950ZM692 158H776L784
271L692 158Z" />
<glyph unicode="&#xbf;" glyph-name="questiondown" horiz-adv-x="472" d="M168 335L181 496H343L330 335H168ZM283 -190T203 -190Q139 -190 90 -170T15 -113T-12 -30Q-12 10 4 40T44 92T105 140Q145 168 166 189T194 237L202 271H291L287 220Q283 170 261 140T199
74Q170 51 156 33T142 -9Q142 -36 163 -51T220 -67Q287 -67 362 -25L352 -154Q283 -190 203 -190Z" />
<glyph unicode="&#xc0;" glyph-name="Agrave" horiz-adv-x="759" d="M598 0L542 158H210L130 0H-30L352 712H479L750 0H598ZM270 277H500L406 545L270 277ZM373 773L239 930H371L466 773H373Z" />
<glyph unicode="&#xc1;" glyph-name="Aacute" horiz-adv-x="759" d="M598 0L542 158H210L130 0H-30L352 712H479L750 0H598ZM270 277H500L406 545L270 277ZM466 773H373L486 930H633L466 773Z" />
<glyph unicode="&#xc2;" glyph-name="Acircumflex" horiz-adv-x="759" d="M598 0L542 158H210L130 0H-30L352 712H479L750 0H598ZM270 277H500L406 545L270 277ZM357 773H244L389 930H475L596 773H483L430 859L357 773Z" />
<glyph unicode="&#xc3;" glyph-name="Atilde" horiz-adv-x="759" d="M598 0L542 158H210L130 0H-30L352 712H479L750 0H598ZM270 277H500L406 545L270 277ZM249 856T282 891T365 927Q384 927 401 920T441 897Q459 886 471 880T496 874Q538 874 542 924H608Q604
848 570 813T487 777Q468 777 451 785T412 807Q394 818 382 824T357 830Q316 830 310 780H245Q249 856 282 891Z" />
<glyph unicode="&#xc4;" glyph-name="Adieresis" horiz-adv-x="759" d="M598 0L542 158H210L130 0H-30L352 712H479L750 0H598ZM270 277H500L406 545L270 277ZM266 918H406L395 786H255L266 918ZM458 918H598L587 786H447L458 918Z" />
<glyph unicode="&#xc5;" glyph-name="Aring" horiz-adv-x="759" d="M542 158H210L130 0H-30L348 704Q330 719 321 740T311 786Q311 831 343 862T422 894Q468 894 500 863T532 786Q532 758 520 735T485 696L750 0H598L542 158ZM403 831T391 818T378 786Q378 766
390 753T422 739Q441 739 453 752T466 786Q466 805 454 818T422 831Q403 831 391 818ZM270 277H500L406 545L270 277Z" />
<glyph unicode="&#xc6;" glyph-name="AE" horiz-adv-x="1010" d="M1000 590H676L675 423H966L955 301H674L673 122H963L952 0H527L529 158H228L122 0H-51L452 712H1008L1000 590ZM530 277L534 590H516L307 277H530Z" />
<glyph unicode="&#xc7;" glyph-name="Ccedilla" horiz-adv-x="685" d="M596 37T536 15T409 -9L402 -40H409Q446 -40 469 -58T492 -109Q492 -148 457 -173T358 -199Q332 -199 304 -195T257 -181L273 -122Q318 -136 354 -136Q399 -136 399 -110Q399 -101 391 -96T368
-90Q357 -90 331 -97L313 -76L328 -4Q202 15 131 103T59 332Q59 449 105 537T234 673T430 721Q503 721 566 700T678 639L619 527Q574 563 531 579T436 596Q332 596 275 526T218 331Q218 227 265 172T401 116Q489 116 592 185L633 73Q596 37 536 15Z" />
<glyph unicode="&#xc8;" glyph-name="Egrave" horiz-adv-x="599" d="M589 591H252L238 423H556L545 301H229L214 121H552L542 0H52L108 712H599L589 591ZM328 773L194 930H326L421 773H328Z" />
<glyph unicode="&#xc9;" glyph-name="Eacute" horiz-adv-x="599" d="M589 591H252L238 423H556L545 301H229L214 121H552L542 0H52L108 712H599L589 591ZM421 773H328L441 930H588L421 773Z" />
<glyph unicode="&#xca;" glyph-name="Ecircumflex" horiz-adv-x="599" d="M589 591H252L238 423H556L545 301H229L214 121H552L542 0H52L108 712H599L589 591ZM312 773H199L344 930H430L551 773H438L385 859L312 773Z" />
<glyph unicode="&#xcb;" glyph-name="Edieresis" horiz-adv-x="599" d="M589 591H252L238 423H556L545 301H229L214 121H552L542 0H52L108 712H599L589 591ZM221 918H361L350 786H210L221 918ZM413 918H553L542 786H402L413 918Z" />
<glyph unicode="&#xcc;" glyph-name="Igrave" horiz-adv-x="299" d="M52 0L107 712H264L208 0H52ZM144 773L10 930H142L237 773H144Z" />
<glyph unicode="&#xcd;" glyph-name="Iacute" horiz-adv-x="299" d="M52 0L107 712H264L208 0H52ZM237 773H144L257 930H404L237 773Z" />
<glyph unicode="&#xce;" glyph-name="Icircumflex" horiz-adv-x="299" d="M52 0L107 712H264L208 0H52ZM128 773H15L160 930H246L367 773H254L201 859L128 773Z" />
<glyph unicode="&#xcf;" glyph-name="Idieresis" horiz-adv-x="299" d="M52 0L107 712H264L208 0H52ZM37 918H177L166 786H26L37 918ZM229 918H369L358 786H218L229 918Z" />
<glyph unicode="&#xd0;" glyph-name="Eth" horiz-adv-x="801" d="M519 712T597 672T718 557T760 380Q760 260 714 175T581 45T371 0H82L105 300H19L28 419H114L137 712H412Q519 712 597 672ZM481 126T542 189T603 381Q603 481 549 533T392 586H284L271 419H459L449
300H262L248 126H357Q481 126 542 189Z" />
<glyph unicode="&#xd1;" glyph-name="Ntilde" horiz-adv-x="760" d="M578 712H724L668 0H551L233 450L198 0H52L108 712H223L543 262L578 712ZM250 856T283 891T366 927Q385 927 402 920T442 897Q460 886 472 880T497 874Q539 874 543 924H609Q605 848 571 813T488
777Q469 777 452 785T413 807Q395 818 383 824T358 830Q317 830 311 780H246Q250 856 283 891Z" />
<glyph unicode="&#xd2;" glyph-name="Ograve" horiz-adv-x="795" d="M297 -10T220 31T101 150T59 332Q59 449 102 537T225 674T411 722Q515 722 592 681T711 562T753 380Q753 263 710 175T587 38T401 -10Q297 -10 220 31ZM491 113T544 184T597 380Q597 485 549
542T413 599Q320 599 268 528T215 331Q215 226 263 170T400 113Q491 113 544 184ZM391 773L257 930H389L484 773H391Z" />
<glyph unicode="&#xd3;" glyph-name="Oacute" horiz-adv-x="795" d="M297 -10T220 31T101 150T59 332Q59 449 102 537T225 674T411 722Q515 722 592 681T711 562T753 380Q753 263 710 175T587 38T401 -10Q297 -10 220 31ZM491 113T544 184T597 380Q597 485 549
542T413 599Q320 599 268 528T215 331Q215 226 263 170T400 113Q491 113 544 184ZM484 773H391L504 930H651L484 773Z" />
<glyph unicode="&#xd4;" glyph-name="Ocircumflex" horiz-adv-x="795" d="M297 -10T220 31T101 150T59 332Q59 449 102 537T225 674T411 722Q515 722 592 681T711 562T753 380Q753 263 710 175T587 38T401 -10Q297 -10 220 31ZM491 113T544 184T597 380Q597 485
549 542T413 599Q320 599 268 528T215 331Q215 226 263 170T400 113Q491 113 544 184ZM375 773H262L407 930H493L614 773H501L448 859L375 773Z" />
<glyph unicode="&#xd5;" glyph-name="Otilde" horiz-adv-x="795" d="M297 -10T220 31T101 150T59 332Q59 449 102 537T225 674T411 722Q515 722 592 681T711 562T753 380Q753 263 710 175T587 38T401 -10Q297 -10 220 31ZM491 113T544 184T597 380Q597 485 549
542T413 599Q320 599 268 528T215 331Q215 226 263 170T400 113Q491 113 544 184ZM267 856T300 891T383 927Q402 927 419 920T459 897Q477 886 489 880T514 874Q556 874 560 924H626Q622 848 588 813T505 777Q486 777 469 785T430 807Q412 818 400 824T375 830Q334
830 328 780H263Q267 856 300 891Z" />
<glyph unicode="&#xd6;" glyph-name="Odieresis" horiz-adv-x="795" d="M297 -10T220 31T101 150T59 332Q59 449 102 537T225 674T411 722Q515 722 592 681T711 562T753 380Q753 263 710 175T587 38T401 -10Q297 -10 220 31ZM491 113T544 184T597 380Q597 485
549 542T413 599Q320 599 268 528T215 331Q215 226 263 170T400 113Q491 113 544 184ZM284 918H424L413 786H273L284 918ZM476 918H616L605 786H465L476 918Z" />
<glyph unicode="&#xd7;" glyph-name="multiply" horiz-adv-x="600" d="M532 452L375 292L527 126L448 54L299 215L142 54L75 126L232 287L80 452L159 526L308 365L465 526L532 452Z" />
<glyph unicode="&#xd8;" glyph-name="Oslash" horiz-adv-x="795" d="M704 589T728 525T753 380Q753 263 710 175T587 38T401 -10Q316 -10 250 17L194 -68L98 -8L155 78Q108 123 84 187T59 332Q59 449 102 537T225 674T411 722Q496 722 563 695L619 780L714 720L657
634Q704 589 728 525ZM215 256T239 206L490 585Q454 599 413 599Q320 599 268 528T215 331Q215 256 239 206ZM491 113T544 184T597 380Q597 453 572 505L322 127Q358 113 400 113Q491 113 544 184Z" />
<glyph unicode="&#xd9;" glyph-name="Ugrave" horiz-adv-x="746" d="M220 -9T145 59T69 262Q69 275 71 303L103 712H257L224 299Q223 288 223 269Q223 190 260 152T375 113Q443 113 481 151T527 279L562 712H715L682 290Q671 141 592 66T368 -9Q220 -9 145 59ZM367
773L233 930H365L460 773H367Z" />
<glyph unicode="&#xda;" glyph-name="Uacute" horiz-adv-x="746" d="M220 -9T145 59T69 262Q69 275 71 303L103 712H257L224 299Q223 288 223 269Q223 190 260 152T375 113Q443 113 481 151T527 279L562 712H715L682 290Q671 141 592 66T368 -9Q220 -9 145 59ZM460
773H367L480 930H627L460 773Z" />
<glyph unicode="&#xdb;" glyph-name="Ucircumflex" horiz-adv-x="746" d="M220 -9T145 59T69 262Q69 275 71 303L103 712H257L224 299Q223 288 223 269Q223 190 260 152T375 113Q443 113 481 151T527 279L562 712H715L682 290Q671 141 592 66T368 -9Q220 -9 145
59ZM351 773H238L383 930H469L590 773H477L424 859L351 773Z" />
<glyph unicode="&#xdc;" glyph-name="Udieresis" horiz-adv-x="746" d="M220 -9T145 59T69 262Q69 275 71 303L103 712H257L224 299Q223 288 223 269Q223 190 260 152T375 113Q443 113 481 151T527 279L562 712H715L682 290Q671 141 592 66T368 -9Q220 -9 145
59ZM260 918H400L389 786H249L260 918ZM452 918H592L581 786H441L452 918Z" />
<glyph unicode="&#xdd;" glyph-name="Yacute" horiz-adv-x="642" d="M730 712L402 276L380 0H224L246 279L-14 712H160L331 402L550 712H730ZM408 773H315L428 930H575L408 773Z" />
<glyph unicode="&#xde;" glyph-name="Thorn" horiz-adv-x="676" d="M534 569T593 518T652 375Q652 269 590 212T410 155H217L205 0H52L108 712H262L251 569H429Q534 569 593 518ZM506 274T506 366Q506 409 483 428T411 448H241L227 274H398Q506 274 506 366Z" />
<glyph unicode="&#xdf;" glyph-name="germandbls" horiz-adv-x="699" d="M572 349T621 301T671 177Q671 124 643 82T563 16T446 -8Q391 -8 338 8T244 54L294 159Q334 132 375 117T451 102Q489 102 510 120T532 171Q532 216 481 248T313 310L322 421Q404 442 438
473T472 553Q472 593 446 614T373 636Q307 636 273 600T233 484L193 0H42L79 462Q102 745 377 745Q486 745 550 699T614 567Q614 502 579 454T466 373Q572 349 621 301Z" />
<glyph unicode="&#xe0;" glyph-name="agrave" horiz-adv-x="630" d="M589 507L549 0H400L405 65Q380 30 340 11T252 -8Q188 -8 139 21T63 106T36 236Q36 319 66 383T152 484T278 520Q331 520 371 500T435 440L440 507H589ZM357 106T389 149T421 264Q421 334 392
369T308 405Q251 405 219 362T186 244Q186 177 216 142T302 106Q357 106 389 149ZM294 572L161 778H300L387 572H294Z" />
<glyph unicode="&#xe1;" glyph-name="aacute" horiz-adv-x="630" d="M589 507L549 0H400L405 65Q380 30 340 11T252 -8Q188 -8 139 21T63 106T36 236Q36 319 66 383T152 484T278 520Q331 520 371 500T435 440L440 507H589ZM357 106T389 149T421 264Q421 334 392
369T308 405Q251 405 219 362T186 244Q186 177 216 142T302 106Q357 106 389 149ZM387 572H294L405 778H561L387 572Z" />
<glyph unicode="&#xe2;" glyph-name="acircumflex" horiz-adv-x="630" d="M589 507L549 0H400L405 65Q380 30 340 11T252 -8Q188 -8 139 21T63 106T36 236Q36 319 66 383T152 484T278 520Q331 520 371 500T435 440L440 507H589ZM357 106T389 149T421 264Q421 334
392 369T308 405Q251 405 219 362T186 244Q186 177 216 142T302 106Q357 106 389 149ZM285 572H164L311 778H402L517 572H402L350 689L285 572Z" />
<glyph unicode="&#xe3;" glyph-name="atilde" horiz-adv-x="630" d="M589 507L549 0H400L405 65Q380 30 340 11T252 -8Q188 -8 139 21T63 106T36 236Q36 319 66 383T152 484T278 520Q331 520 371 500T435 440L440 507H589ZM357 106T389 149T421 264Q421 334 392
369T308 405Q251 405 219 362T186 244Q186 177 216 142T302 106Q357 106 389 149ZM171 679T204 714T283 750Q304 750 321 743T365 720Q386 708 396 703T419 698Q459 698 465 747H531Q526 672 493 637T414 601Q393 601 376 608T334 631Q330 633 318 639T297 649T279
653Q239 653 232 604H167Q171 679 204 714Z" />
<glyph unicode="&#xe4;" glyph-name="adieresis" horiz-adv-x="630" d="M589 507L549 0H400L405 65Q380 30 340 11T252 -8Q188 -8 139 21T63 106T36 236Q36 319 66 383T152 484T278 520Q331 520 371 500T435 440L440 507H589ZM357 106T389 149T421 264Q421 334
392 369T308 405Q251 405 219 362T186 244Q186 177 216 142T302 106Q357 106 389 149ZM188 740H327L317 608H177L188 740ZM380 740H520L508 608H369L380 740Z" />
<glyph unicode="&#xe5;" glyph-name="aring" horiz-adv-x="630" d="M589 507L549 0H400L405 65Q380 30 340 11T252 -8Q188 -8 139 21T63 106T36 236Q36 319 66 383T152 484T278 520Q331 520 371 500T435 440L440 507H589ZM357 106T389 149T421 264Q421 334 392
369T308 405Q251 405 219 362T186 244Q186 177 216 142T302 106Q357 106 389 149ZM302 567T271 598T239 676Q239 721 271 752T349 784Q395 784 427 753T459 676Q459 630 427 599T349 567Q302 567 271 598ZM368 629T380 642T392 676Q392 695 380 708T349 721Q330
721 318 708T305 676Q305 656 317 643T349 629Q368 629 380 642Z" />
<glyph unicode="&#xe6;" glyph-name="ae" horiz-adv-x="866" d="M683 520T730 493T805 414T832 289Q832 267 829 241H502Q503 174 536 140T630 105Q708 105 775 156L808 54Q776 25 725 9T620 -8Q548 -8 496 18T413 95Q384 46 334 19T221 -8Q136 -8 85 34T34 146Q34
236 100 276T318 316H364Q368 363 347 384T276 406Q238 406 194 392T111 354L78 457Q120 485 182 502T305 520Q413 520 460 457Q492 487 533 503T622 520Q683 520 730 493ZM531 414T509 316H706Q704 365 681 389T620 414Q531 414 509 316ZM293 97T322 128T356 209L359
243H321Q243 243 212 225T180 163Q180 131 199 114T250 97Q293 97 322 128Z" />
<glyph unicode="&#xe7;" glyph-name="ccedilla" horiz-adv-x="509" d="M450 25T403 9T304 -8L297 -40H304Q341 -40 364 -58T387 -109Q387 -148 352 -173T253 -199Q227 -199 199 -195T152 -181L168 -122Q213 -136 249 -136Q294 -136 294 -110Q294 -101 286 -96T263
-90Q252 -90 226 -97L208 -76L224 0Q136 19 86 83T36 240Q36 326 70 389T168 486T317 520Q438 520 514 457L465 352Q396 404 325 404Q261 404 226 362T191 242Q191 177 223 143T311 108Q384 108 450 159L483 54Q450 25 403 9Z" />
<glyph unicode="&#xe8;" glyph-name="egrave" horiz-adv-x="550" d="M394 520T455 460T516 291Q516 267 513 241H181Q182 174 214 140T310 105Q391 105 460 156L492 54Q458 25 407 9T300 -8Q221 -8 161 22T69 109T36 241Q36 322 69 385T160 484T292 520Q394 520
455 460ZM208 414T188 316H391Q391 363 366 388T298 414Q208 414 188 316ZM264 572L131 778H270L357 572H264Z" />
<glyph unicode="&#xe9;" glyph-name="eacute" horiz-adv-x="550" d="M394 520T455 460T516 291Q516 267 513 241H181Q182 174 214 140T310 105Q391 105 460 156L492 54Q458 25 407 9T300 -8Q221 -8 161 22T69 109T36 241Q36 322 69 385T160 484T292 520Q394 520
455 460ZM208 414T188 316H391Q391 363 366 388T298 414Q208 414 188 316ZM357 572H264L375 778H531L357 572Z" />
<glyph unicode="&#xea;" glyph-name="ecircumflex" horiz-adv-x="550" d="M394 520T455 460T516 291Q516 267 513 241H181Q182 174 214 140T310 105Q391 105 460 156L492 54Q458 25 407 9T300 -8Q221 -8 161 22T69 109T36 241Q36 322 69 385T160 484T292 520Q394
520 455 460ZM208 414T188 316H391Q391 363 366 388T298 414Q208 414 188 316ZM255 572H134L281 778H372L487 572H372L320 689L255 572Z" />
<glyph unicode="&#xeb;" glyph-name="edieresis" horiz-adv-x="550" d="M394 520T455 460T516 291Q516 267 513 241H181Q182 174 214 140T310 105Q391 105 460 156L492 54Q458 25 407 9T300 -8Q221 -8 161 22T69 109T36 241Q36 322 69 385T160 484T292 520Q394
520 455 460ZM208 414T188 316H391Q391 363 366 388T298 414Q208 414 188 316ZM158 740H297L287 608H147L158 740ZM350 740H490L478 608H339L350 740Z" />
<glyph unicode="&#xec;" glyph-name="igrave" horiz-adv-x="274" d="M42 0L82 507H233L193 0H42ZM115 572L-18 778H121L208 572H115Z" />
<glyph unicode="&#xed;" glyph-name="iacute" horiz-adv-x="274" d="M42 0L82 507H233L193 0H42ZM208 572H115L226 778H382L208 572Z" />
<glyph unicode="&#xee;" glyph-name="icircumflex" horiz-adv-x="274" d="M42 0L82 507H233L193 0H42ZM106 572H-15L132 778H223L338 572H223L171 689L106 572Z" />
<glyph unicode="&#xef;" glyph-name="idieresis" horiz-adv-x="274" d="M42 0L82 507H233L193 0H42ZM9 740H148L138 608H-2L9 740ZM201 740H341L329 608H190L201 740Z" />
<glyph unicode="&#xf0;" glyph-name="eth" horiz-adv-x="612" d="M508 579Q544 526 562 462T581 328Q581 156 504 74T298 -8Q217 -8 158 20T66 100T34 221Q34 296 67 352T159 439T291 470Q388 470 436 418Q421 490 374 543L193 493L178 571L299 604Q250 633 184
644L225 748Q362 728 451 645L584 681L598 604L508 579ZM358 107T387 145T417 246Q417 298 389 328T306 358Q244 358 214 320T184 222Q184 171 213 139T297 107Q358 107 387 145Z" />
<glyph unicode="&#xf1;" glyph-name="ntilde" horiz-adv-x="613" d="M472 520T515 473T559 336Q559 314 558 303L534 0H383L407 296Q408 302 408 314Q408 357 388 379T327 402Q276 402 248 371T215 284L192 0H41L70 362Q74 405 74 459Q74 491 73 507H216L218 437Q243
476 287 498T388 520Q472 520 515 473ZM164 679T197 714T276 750Q297 750 314 743T358 720Q379 708 389 703T412 698Q452 698 458 747H524Q519 672 486 637T407 601Q386 601 369 608T327 631Q323 633 311 639T290 649T272 653Q232 653 225 604H160Q164 679 197
714Z" />
<glyph unicode="&#xf2;" glyph-name="ograve" horiz-adv-x="604" d="M219 -8T160 23T68 110T36 242Q36 327 69 390T164 486T306 520Q386 520 445 489T537 402T569 270Q569 184 536 122T442 26T300 -8Q219 -8 160 23ZM360 106T389 152T419 274Q419 339 391 372T308
405Q246 405 216 359T186 239Q186 106 299 106Q360 106 389 152ZM281 572L148 778H287L374 572H281Z" />
<glyph unicode="&#xf3;" glyph-name="oacute" horiz-adv-x="604" d="M219 -8T160 23T68 110T36 242Q36 327 69 390T164 486T306 520Q386 520 445 489T537 402T569 270Q569 184 536 122T442 26T300 -8Q219 -8 160 23ZM360 106T389 152T419 274Q419 339 391 372T308
405Q246 405 216 359T186 239Q186 106 299 106Q360 106 389 152ZM374 572H281L392 778H548L374 572Z" />
<glyph unicode="&#xf4;" glyph-name="ocircumflex" horiz-adv-x="604" d="M219 -8T160 23T68 110T36 242Q36 327 69 390T164 486T306 520Q386 520 445 489T537 402T569 270Q569 184 536 122T442 26T300 -8Q219 -8 160 23ZM360 106T389 152T419 274Q419 339 391
372T308 405Q246 405 216 359T186 239Q186 106 299 106Q360 106 389 152ZM272 572H151L298 778H389L504 572H389L337 689L272 572Z" />
<glyph unicode="&#xf5;" glyph-name="otilde" horiz-adv-x="604" d="M219 -8T160 23T68 110T36 242Q36 327 69 390T164 486T306 520Q386 520 445 489T537 402T569 270Q569 184 536 122T442 26T300 -8Q219 -8 160 23ZM360 106T389 152T419 274Q419 339 391 372T308
405Q246 405 216 359T186 239Q186 106 299 106Q360 106 389 152ZM158 679T191 714T270 750Q291 750 308 743T352 720Q373 708 383 703T406 698Q446 698 452 747H518Q513 672 480 637T401 601Q380 601 363 608T321 631Q317 633 305 639T284 649T266 653Q226 653
219 604H154Q158 679 191 714Z" />
<glyph unicode="&#xf6;" glyph-name="odieresis" horiz-adv-x="604" d="M219 -8T160 23T68 110T36 242Q36 327 69 390T164 486T306 520Q386 520 445 489T537 402T569 270Q569 184 536 122T442 26T300 -8Q219 -8 160 23ZM360 106T389 152T419 274Q419 339 391 372T308
405Q246 405 216 359T186 239Q186 106 299 106Q360 106 389 152ZM175 740H314L304 608H164L175 740ZM367 740H507L495 608H356L367 740Z" />
<glyph unicode="&#xf7;" glyph-name="divide" horiz-adv-x="600" d="M248 422L258 541H377L368 422H248ZM554 341L545 238H54L62 341H554ZM217 32L227 152H346L336 32H217Z" />
<glyph unicode="&#xf8;" glyph-name="oslash" horiz-adv-x="604" d="M527 428T548 379T569 270Q569 184 536 122T442 26T300 -8Q239 -8 189 10L140 -64L71 -22L119 50Q79 83 58 132T36 242Q36 327 69 390T164 486T306 520Q366 520 418 501L466 574L534 532L487
461Q527 428 548 379ZM183 195T195 165L351 400Q332 406 308 406Q244 406 214 360T183 239Q183 195 195 165ZM362 105T392 151T423 274Q423 316 411 346L255 111Q274 105 299 105Q362 105 392 151Z" />
<glyph unicode="&#xf9;" glyph-name="ugrave" horiz-adv-x="606" d="M565 507L525 0H378L383 65Q357 30 315 11T223 -8Q140 -8 97 38T53 172Q53 182 55 206L78 507H230L206 215Q198 110 285 110Q332 110 359 141T391 226L414 507H565ZM281 572L148 778H287L374 572H281Z" />
<glyph unicode="&#xfa;" glyph-name="uacute" horiz-adv-x="606" d="M565 507L525 0H378L383 65Q357 30 315 11T223 -8Q140 -8 97 38T53 172Q53 182 55 206L78 507H230L206 215Q198 110 285 110Q332 110 359 141T391 226L414 507H565ZM374 572H281L392 778H548L374 572Z" />
<glyph unicode="&#xfb;" glyph-name="ucircumflex" horiz-adv-x="606" d="M565 507L525 0H378L383 65Q357 30 315 11T223 -8Q140 -8 97 38T53 172Q53 182 55 206L78 507H230L206 215Q198 110 285 110Q332 110 359 141T391 226L414 507H565ZM272 572H151L298 778H389L504
572H389L337 689L272 572Z" />
<glyph unicode="&#xfc;" glyph-name="udieresis" horiz-adv-x="606" d="M565 507L525 0H378L383 65Q357 30 315 11T223 -8Q140 -8 97 38T53 172Q53 182 55 206L78 507H230L206 215Q198 110 285 110Q332 110 359 141T391 226L414 507H565ZM175 740H314L304 608H164L175
740ZM367 740H507L495 608H356L367 740Z" />
<glyph unicode="&#xfd;" glyph-name="yacute" horiz-adv-x="550" d="M583 507L304 -27Q253 -125 185 -170T21 -228L-5 -112Q66 -97 103 -74T164 -7L182 27L11 507H164L273 179L431 507H583ZM348 572H255L366 778H522L348 572Z" />
<glyph unicode="&#xfe;" glyph-name="thorn" horiz-adv-x="631" d="M445 520T494 491T570 406T597 276Q597 193 567 129T481 28T355 -8Q251 -8 199 71L175 -216H25L100 728H250L227 447Q252 481 292 500T381 520Q445 520 494 491ZM382 106T414 148T446 266Q446
333 416 369T331 405Q276 405 244 362T211 246Q211 177 240 142T325 106Q382 106 414 148Z" />
<glyph unicode="&#xff;" glyph-name="ydieresis" horiz-adv-x="550" d="M583 507L304 -27Q253 -125 185 -170T21 -228L-5 -112Q66 -97 103 -74T164 -7L182 27L11 507H164L273 179L431 507H583ZM149 740H288L278 608H138L149 740ZM341 740H481L469 608H330L341 740Z" />
<glyph unicode="&#x2013;" glyph-name="endash" horiz-adv-x="505" d="M-2 226L5 314H510L503 226H-2Z" />
<glyph unicode="&#x2014;" glyph-name="emdash" horiz-adv-x="1010" d="M-2 226L5 314H1015L1008 226H-2Z" />
<glyph unicode="&#x2018;" glyph-name="quoteleft" horiz-adv-x="262" d="M238 575L226 414H64L72 518Q76 576 100 623T178 720L232 673Q178 620 164 575H238Z" />
<glyph unicode="&#x2019;" glyph-name="quoteright" horiz-adv-x="262" d="M249 712L240 609Q236 551 212 504T134 406L80 453Q135 505 149 551H74L86 712H249Z" />
<glyph unicode="&#x201a;" glyph-name="quotesinglbase" horiz-adv-x="262" d="M206 161L198 61Q193 1 169 -47T92 -144L36 -98Q90 -46 105 0H30L43 161H206Z" />
<glyph unicode="&#x201c;" glyph-name="quotedblleft" horiz-adv-x="471" d="M238 575L226 414H64L72 518Q76 576 100 623T178 720L232 673Q178 620 164 575H238ZM447 575L435 414H273L281 518Q285 576 309 623T387 720L441 673Q387 620 373 575H447Z" />
<glyph unicode="&#x201d;" glyph-name="quotedblright" horiz-adv-x="471" d="M249 712L240 609Q236 551 212 504T134 406L80 453Q135 505 149 551H74L86 712H249ZM458 712L449 609Q445 551 421 504T343 406L289 453Q344 505 358 551H283L295 712H458Z" />
<glyph unicode="&#x201e;" glyph-name="quotedblbase" horiz-adv-x="471" d="M206 161L198 61Q193 1 169 -47T92 -144L36 -98Q90 -46 105 0H30L43 161H206ZM415 161L407 61Q402 1 378 -47T301 -144L245 -98Q299 -46 314 0H239L252 161H415Z" />
<glyph unicode="&#x2022;" glyph-name="bullet" horiz-adv-x="529" d="M217 89T175 112T108 177T83 268Q83 314 107 355T173 422T266 447Q314 447 356 424T423 359T448 268Q448 219 424 178T357 113T266 89Q217 89 175 112Z" />
<glyph unicode="&#x2039;" glyph-name="guilsinglleft" horiz-adv-x="305" d="M144 85L23 267L173 451H299L154 268L270 85H144Z" />
<glyph unicode="&#x203a;" glyph-name="guilsinglright" horiz-adv-x="303" d="M136 85H12L154 268L38 451H165L284 267L136 85Z" />
</font>
</defs>
</svg>
