<?xml version="1.0" standalone="no"?>
<!DOCTYPE svg PUBLIC "-//W3C//DTD SVG 1.1//EN" "http://www.w3.org/Graphics/SVG/1.1/DTD/svg11.dtd">
<svg xmlns="http://www.w3.org/2000/svg">
<defs >
<font id="Muli" horiz-adv-x="572" ><font-face
    font-family="Muli SemiBold"
    units-per-em="1000"
    panose-1="0 0 7 0 0 0 0 0 0 0"
    ascent="1005"
    descent="-250"
    alphabetic="0" />
<glyph unicode=" " glyph-name="space" horiz-adv-x="267" />
<glyph unicode="!" glyph-name="exclam" horiz-adv-x="240" d="M85 199L94 712H219L147 199H85ZM50 120H170L161 0H41L50 120Z" />
<glyph unicode="&quot;" glyph-name="quotedbl" horiz-adv-x="438" d="M98 426L93 712H212L165 426H98ZM304 426L299 712H418L371 426H304Z" />
<glyph unicode="#" glyph-name="numbersign" horiz-adv-x="606" d="M586 472H491L430 248H546L541 179H411L362 0H287L336 179H190L141 0H67L116 179H34L39 248H135L196 472H79L83 541H215L262 712H336L289 541H436L483 712H557L510 541H590L586 472ZM355 248L417
472H270L209 248H355Z" />
<glyph unicode="$" glyph-name="dollar" horiz-adv-x="600" d="M421 365T461 345T529 290T557 201Q557 115 496 58T332 -8L323 -116H239L248 -7Q108 5 27 80L70 157Q112 120 158 101T259 77L278 312Q215 332 173 353T102 412T73 507Q73 566 102 612T185 687T305
719L314 828H398L390 716Q451 709 499 688T581 633L537 556Q471 620 379 632L359 385Q421 365 461 345ZM178 477T206 453T285 409L303 635Q245 630 212 598T178 516Q178 477 206 453ZM392 86T422 116T452 193Q452 227 426 249T351 288L335 78Q392 86 422 116Z"
/>
<glyph unicode="%" glyph-name="percent" horiz-adv-x="946" d="M159 287T115 337T71 481Q71 594 119 658T252 722Q335 722 379 672T423 527Q423 413 375 350T241 287Q159 287 115 337ZM295 0H201L669 712H762L295 0ZM287 355T311 402T335 537Q335 596 315 624T252
653Q205 653 182 607T158 471Q158 412 178 384T241 355Q287 355 311 402ZM630 -7T586 43T541 187Q541 300 589 364T722 428Q805 428 849 378T894 233Q894 120 846 57T713 -7Q630 -7 586 43ZM759 62T782 108T806 243Q806 302 786 330T723 359Q630 359 630 178Q630
118 650 90T713 62Q759 62 782 108Z" />
<glyph unicode="&amp;" glyph-name="ampersand" horiz-adv-x="678" d="M631 -9Q552 24 494 79Q450 37 396 15T280 -7Q210 -7 157 17T75 83T45 181Q45 250 86 301T211 398Q170 446 153 482T136 557Q136 630 186 674T318 719Q395 719 441 680T487 573Q487 517 454
474T341 383L494 213Q540 300 547 422H635Q623 260 552 149Q606 91 688 60L631 -9ZM280 646T255 622T230 557Q230 532 242 507T290 441Q353 477 377 505T401 568Q401 603 379 624T321 646Q280 646 255 622ZM329 72T368 89T440 138L262 340Q201 304 173 269T144
186Q144 134 182 103T285 72Q329 72 368 89Z" />
<glyph unicode="&apos;" glyph-name="quotesingle" horiz-adv-x="232" d="M98 426L93 712H212L165 426H98Z" />
<glyph unicode="(" glyph-name="parenleft" horiz-adv-x="335" d="M144 -84T123 6T102 191Q102 229 105 266Q114 382 150 490T258 712H343Q278 583 248 478T210 266Q206 208 206 179Q206 97 221 10T270 -182H189Q144 -84 123 6Z" />
<glyph unicode=")" glyph-name="parenright" horiz-adv-x="335" d="M-5 -182Q60 -52 90 53T129 266Q132 308 132 350Q132 434 117 521T67 712H150Q236 529 236 340Q236 304 233 266Q224 150 187 43T78 -182H-5Z" />
<glyph unicode="*" glyph-name="asterisk" horiz-adv-x="456" d="M152 355L95 398L199 517L55 559L84 630L222 577L228 729H303L284 577L431 630L449 559L299 517L384 398L321 355L247 482L152 355Z" />
<glyph unicode="+" glyph-name="plus" horiz-adv-x="600" d="M552 325L546 251H338L321 41H247L264 251H55L60 325H269L286 534H360L343 325H552Z" />
<glyph unicode="," glyph-name="comma" horiz-adv-x="240" d="M170 120L163 38Q159 -10 141 -48T82 -124L40 -89Q86 -44 97 0H41L50 120H170Z" />
<glyph unicode="-" glyph-name="hyphen" horiz-adv-x="433" d="M70 228L77 310H367L361 228H70Z" />
<glyph unicode="." glyph-name="period" horiz-adv-x="240" d="M50 120H170L161 0H41L50 120Z" />
<glyph unicode="/" glyph-name="slash" horiz-adv-x="299" d="M41 -57H-46L274 751H362L41 -57Z" />
<glyph unicode="0" glyph-name="zero" horiz-adv-x="600" d="M176 -8T115 72T53 305Q53 436 85 529T177 671T323 720Q441 720 503 640T565 407Q565 210 494 101T294 -8Q176 -8 115 72ZM378 76T420 164T462 422Q462 532 428 584T322 636Q241 636 199 548T156 290Q156
180 190 128T297 76Q378 76 420 164Z" />
<glyph unicode="1" glyph-name="one" horiz-adv-x="600" d="M367 85H524L517 0H102L109 85H264L304 588L151 499L159 594L358 712H418L367 85Z" />
<glyph unicode="2" glyph-name="two" horiz-adv-x="600" d="M199 85H532L525 0H58L64 77L332 345Q388 400 412 444T437 533Q437 581 407 608T322 636Q270 636 220 617T118 558L88 634Q135 675 198 697T331 720Q427 720 483 670T540 534Q540 472 509 416T403 286L199 85Z" />
<glyph unicode="3" glyph-name="three" horiz-adv-x="600" d="M467 347T498 307T530 207Q530 144 500 96T412 20T278 -7Q206 -7 144 15T34 79L77 155Q173 77 280 77Q351 77 390 111T430 206Q430 319 285 319H198L205 403H282Q355 403 396 437T438 534Q438 581
407 608T320 636Q217 636 118 558L88 634Q132 674 196 697T331 720Q425 720 482 672T540 545Q540 482 506 434T410 364Q467 347 498 307Z" />
<glyph unicode="4" glyph-name="four" horiz-adv-x="600" d="M570 231L564 148H459L447 0H345L357 148H36L42 225L418 712H503L465 231H570ZM148 231H363L388 543L148 231Z" />
<glyph unicode="5" glyph-name="five" horiz-adv-x="600" d="M224 629L206 408Q264 451 343 451Q406 451 454 425T529 352T556 243Q556 168 524 112T434 24T299 -7Q229 -7 167 15T57 79L100 155Q194 77 299 77Q371 77 413 119T456 234Q456 295 419 331T318 367Q270
367 230 349T162 294H95L128 712H564L557 629H224Z" />
<glyph unicode="6" glyph-name="six" horiz-adv-x="600" d="M402 451T451 424T527 347T554 234Q554 165 524 110T439 23T317 -8Q191 -8 123 72T54 301Q54 428 91 522T196 668T356 720Q420 720 480 698T587 634L544 558Q500 596 453 616T360 636Q273 636 222 565T160
358L159 346Q185 395 232 423T339 451Q402 451 451 424ZM376 76T415 118T454 230Q454 292 417 329T317 367Q253 367 212 325T171 215Q171 153 210 115T314 76Q376 76 415 118Z" />
<glyph unicode="7" glyph-name="seven" horiz-adv-x="600" d="M96 712H578L572 635L199 0H89L458 627H90L96 712Z" />
<glyph unicode="8" glyph-name="eight" horiz-adv-x="600" d="M485 347T521 302T557 195Q557 133 523 87T428 17T286 -7Q169 -7 102 43T34 181Q34 250 77 299T196 366Q141 385 110 428T78 528Q78 618 147 669T334 720Q403 720 455 699T537 637T566 544Q566 480
528 433T422 366Q485 347 521 302ZM257 637T218 607T177 520Q177 467 212 435T311 395Q384 404 424 439T465 531Q465 582 429 609T329 637Q257 637 218 607ZM368 76T412 109T457 201Q457 254 419 286T306 326Q219 316 177 283T134 193Q134 136 175 106T291 76Q368
76 412 109Z" />
<glyph unicode="9" glyph-name="nine" horiz-adv-x="600" d="M427 720T495 640T564 411Q564 284 527 190T422 44T263 -8Q199 -8 139 14T31 78L74 154Q118 116 165 96T259 76Q345 76 396 147T458 354L459 366Q433 318 386 290T280 261Q216 261 167 288T91 365T64
478Q64 547 94 602T179 688T301 720Q427 720 495 640ZM365 345T406 387T447 497Q447 559 408 597T307 636Q243 636 204 594T164 482Q164 420 201 383T301 345Q365 345 406 387Z" />
<glyph unicode=":" glyph-name="colon" horiz-adv-x="241" d="M80 493H200L190 373H71L80 493ZM51 120H170L161 0H41L51 120Z" />
<glyph unicode=";" glyph-name="semicolon" horiz-adv-x="240" d="M80 493H200L190 373H71L80 493ZM50 120H170L163 38Q159 -10 141 -48T82 -124L40 -89Q86 -44 97 0H41L50 120Z" />
<glyph unicode="&lt;" glyph-name="less" horiz-adv-x="600" d="M570 543L564 462L150 288L536 114L530 32L55 249L60 327L570 543Z" />
<glyph unicode="=" glyph-name="equal" horiz-adv-x="600" d="M560 426L555 352H62L68 426H560ZM543 224L539 150H47L52 224H543Z" />
<glyph unicode="&gt;" glyph-name="greater" horiz-adv-x="600" d="M77 543L553 327L547 249L37 32L43 114L457 288L71 462L77 543Z" />
<glyph unicode="?" glyph-name="question" horiz-adv-x="454" d="M183 229Q186 271 200 305T233 363T282 422Q320 464 337 492T355 557Q355 594 329 615T257 636Q187 636 115 594L122 685Q155 702 194 711T271 720Q357 720 408 679T460 570Q460 530 446 498T410
440T352 379Q305 333 280 299T245 220L241 197H181L183 229ZM136 0L145 120H265L256 0H136Z" />
<glyph unicode="@" glyph-name="at" horiz-adv-x="939" d="M353 -155T255 -102T105 49T52 274Q52 408 108 509T263 664T485 718Q615 718 708 666T849 529T897 346Q897 250 868 187T793 95T692 65Q638 65 607 88T571 153H569Q514 65 418 65Q349 65 308 112T266
242Q266 312 293 372T368 468T479 504Q525 504 559 483T605 426H607L618 493H696L650 229Q646 209 646 190Q646 158 661 143T706 128Q732 128 758 149T803 220T822 346Q822 427 785 496T671 606T485 648Q384 648 304 603T177 474T130 274Q130 165 172 84T295 -41T485
-86Q567 -86 626 -64T717 0H820Q778 -72 691 -113T485 -155Q353 -155 255 -102ZM482 128T516 157T569 232T587 329Q587 383 562 411T491 439Q446 439 413 411T362 338T344 244Q344 189 369 159T435 128Q482 128 516 157Z" />
<glyph unicode="A" glyph-name="A" horiz-adv-x="741" d="M610 0L548 176H188L99 0H-9L364 712H450L712 0H610ZM229 258H519L400 597L229 258Z" />
<glyph unicode="B" glyph-name="B" horiz-adv-x="686" d="M568 348T599 307T630 205Q630 108 564 54T381 0H65L120 712H408Q521 712 580 666T639 536Q639 474 607 430T510 364Q568 348 599 307ZM217 629L199 403H384Q459 403 498 433T537 525Q537 629 396 629H217ZM453
83T491 113T530 206Q530 320 387 320H192L173 83H375Q453 83 491 113Z" />
<glyph unicode="C" glyph-name="C" horiz-adv-x="684" d="M285 -8T215 32T106 149T67 328Q67 447 110 535T232 672T418 720Q495 720 559 698T669 632L625 556Q578 597 530 615T420 634Q303 634 238 553T173 327Q173 207 229 143T390 78Q496 78 594 156L625 80Q581
37 518 15T380 -8Q285 -8 215 32Z" />
<glyph unicode="D" glyph-name="D" horiz-adv-x="754" d="M120 712H366Q527 712 615 626T704 384Q704 202 607 101T333 0H65L120 712ZM326 86Q462 86 530 162T599 385Q599 504 538 565T356 626H218L175 86H326Z" />
<glyph unicode="E" glyph-name="E" horiz-adv-x="592" d="M576 628H216L198 404H538L531 320H192L173 84H533L526 0H65L120 712H583L576 628Z" />
<glyph unicode="F" glyph-name="F" horiz-adv-x="568" d="M565 627H217L199 404H527L521 319H192L167 0H65L120 712H572L565 627Z" />
<glyph unicode="G" glyph-name="G" horiz-adv-x="735" d="M411 378H671L645 43Q598 20 531 6T397 -8Q239 -8 153 79T67 322Q67 443 111 533T236 671T428 720Q584 720 679 632L636 556Q587 597 540 615T434 634Q310 634 242 552T173 324Q173 204 231 140T406 75Q481
75 556 100L571 299H404L411 378Z" />
<glyph unicode="H" glyph-name="H" horiz-adv-x="770" d="M621 712H723L667 0H565L590 319H192L167 0H65L120 712H223L199 404H597L621 712Z" />
<glyph unicode="I" glyph-name="I" horiz-adv-x="269" d="M65 0L120 712H224L168 0H65Z" />
<glyph unicode="J" glyph-name="J" horiz-adv-x="344" d="M-31 -91Q5 -98 37 -98Q86 -98 109 -72T138 20L193 712H297L242 19Q234 -87 188 -136T50 -186Q6 -186 -37 -178L-31 -91Z" />
<glyph unicode="K" glyph-name="K" horiz-adv-x="648" d="M686 712L300 365L649 0H524L194 337L168 0H65L120 712H224L199 390L554 712H686Z" />
<glyph unicode="L" glyph-name="L" horiz-adv-x="552" d="M65 0L120 712H224L175 86H521L514 0H65Z" />
<glyph unicode="M" glyph-name="M" horiz-adv-x="849" d="M718 712H802L746 0H653L691 486L442 0H371L197 487L159 0H66L121 712H205L416 122L718 712Z" />
<glyph unicode="N" glyph-name="N" horiz-adv-x="750" d="M606 712H704L648 0H569L204 537L161 0H65L120 712H199L564 176L606 712Z" />
<glyph unicode="O" glyph-name="O" horiz-adv-x="779" d="M291 -9T218 31T106 148T67 328Q67 446 108 535T226 672T404 721Q504 721 577 681T689 564T729 384Q729 266 688 177T570 40T391 -9Q291 -9 218 31ZM462 77T514 114T595 220T623 384Q623 505 567 570T405
635Q296 635 234 553T172 327Q172 206 228 142T391 77Q462 77 514 114Z" />
<glyph unicode="P" glyph-name="P" horiz-adv-x="659" d="M516 712T576 660T637 522Q637 419 570 363T383 306H192L168 0H65L120 712H406Q516 712 576 660ZM454 388T495 421T537 518Q537 571 502 600T396 629H218L199 388H376Q454 388 495 421Z" />
<glyph unicode="Q" glyph-name="Q" horiz-adv-x="779" d="M546 -63T623 -131L548 -191Q505 -159 467 -111T403 -9H391Q291 -9 218 31T106 148T67 328Q67 446 108 535T226 672T404 721Q504 721 577 681T689 564T729 384Q729 243 671 145T509 10Q546 -63 623 -131ZM172
206T228 142T391 77Q462 77 514 114T595 220T623 384Q623 505 567 570T405 635Q296 635 234 553T172 327Q172 206 228 142Z" />
<glyph unicode="R" glyph-name="R" horiz-adv-x="697" d="M516 310T535 287T567 221L635 0H526L454 237Q443 275 415 289T339 304H191L167 0H65L120 712H422Q531 712 590 662T650 523Q650 442 609 390T487 319Q516 310 535 287ZM393 387Q551 387 551 517Q551 629
412 629H217L198 387H393Z" />
<glyph unicode="S" glyph-name="S" horiz-adv-x="633" d="M142 -8T33 80L76 156Q130 114 186 95T312 76Q393 76 436 105T479 187Q479 220 457 241T404 275T313 306Q238 328 192 348T112 408T79 513Q79 575 112 622T208 694T353 720Q427 720 493 697T605 632L562
556Q516 596 462 616T351 636Q271 636 227 605T183 520Q183 484 206 460T263 423T358 391Q431 370 476 351T552 294T584 196Q584 101 511 47T309 -8Q142 -8 33 80Z" />
<glyph unicode="T" glyph-name="T" horiz-adv-x="610" d="M234 0L283 626H42L49 712H635L628 626H388L338 0H234Z" />
<glyph unicode="U" glyph-name="U" horiz-adv-x="735" d="M219 -8T150 58T80 251Q80 275 81 288L115 712H217L183 287Q182 276 182 255Q182 76 360 76Q450 76 499 123T557 272L591 712H694L659 281Q648 137 572 65T356 -8Q219 -8 150 58Z" />
<glyph unicode="V" glyph-name="V" horiz-adv-x="708" d="M641 712H748L378 0H292L33 712H141L345 130L641 712Z" />
<glyph unicode="W" glyph-name="W" horiz-adv-x="1116" d="M1022 712H1123L817 0H731L582 550L346 0H260L66 712H170L317 146L558 712L634 711L783 143L1022 712Z" />
<glyph unicode="X" glyph-name="X" horiz-adv-x="661" d="M686 712L398 362L641 0H521L334 284L104 0H-19L281 365L48 712H168L345 442L562 712H686Z" />
<glyph unicode="Y" glyph-name="Y" horiz-adv-x="617" d="M680 712L363 286L341 0H237L259 286L9 712H125L316 370L560 712H680Z" />
<glyph unicode="Z" glyph-name="Z" horiz-adv-x="601" d="M591 712L585 637L156 85H552L546 0H27L33 76L462 627H77L84 712H591Z" />
<glyph unicode="[" glyph-name="bracketleft" horiz-adv-x="333" d="M76 -182L146 712H360L354 634H240L181 -104H296L291 -182H76Z" />
<glyph unicode="\" glyph-name="backslash" horiz-adv-x="298" d="M210 -57L16 751H104L298 -57H210Z" />
<glyph unicode="]" glyph-name="bracketright" horiz-adv-x="333" d="M190 -182H-23L-18 -104H97L155 634H40L46 712H260L190 -182Z" />
<glyph unicode="^" glyph-name="asciicircum" horiz-adv-x="600" d="M547 142H468L325 543L119 142H36L292 635H370L547 142Z" />
<glyph unicode="_" glyph-name="underscore" horiz-adv-x="505" d="M-14 -63L-9 0H476L472 -63H-14Z" />
<glyph unicode="`" glyph-name="grave" horiz-adv-x="300" d="M143 558L20 763H123L210 558H143Z" />
<glyph unicode="a" glyph-name="a" horiz-adv-x="609" d="M555 504L515 0H416L422 77Q398 37 355 15T259 -7Q195 -7 147 22T72 107T45 236Q45 319 75 382T158 481T282 516Q340 516 383 492T449 422L455 504H555ZM357 72T397 125T437 270Q437 351 401 393T296 436Q226
436 186 383T146 238Q146 159 183 116T288 72Q357 72 397 125Z" />
<glyph unicode="b" glyph-name="b" horiz-adv-x="609" d="M414 516T463 487T539 402T566 273Q566 190 536 127T452 28T328 -7Q270 -7 227 17T161 87L154 0H54L113 736H213L188 433Q213 472 256 494T351 516Q414 516 463 487ZM385 72T424 125T464 270Q464 349 427
392T323 436Q253 436 213 383T173 238Q173 157 209 115T315 72Q385 72 424 125Z" />
<glyph unicode="c" glyph-name="c" horiz-adv-x="499" d="M213 -7T158 23T74 108T44 237Q44 322 76 385T167 482T307 516Q364 516 411 499T494 451L457 379Q419 407 384 421T309 435Q232 435 190 383T148 236Q148 159 186 116T294 73Q333 73 366 86T437 129L463
57Q430 27 384 10T286 -7Q213 -7 158 23Z" />
<glyph unicode="d" glyph-name="d" horiz-adv-x="609" d="M573 736L514 0H415L421 75Q396 36 353 15T259 -7Q195 -7 147 22T71 107T44 235Q44 318 74 382T158 481T282 516Q340 516 383 492T448 423L472 736H573ZM357 72T396 125T436 270Q436 351 400 393T296 436Q226
436 186 384T146 239Q146 160 183 116T288 72Q357 72 396 125Z" />
<glyph unicode="e" glyph-name="e" horiz-adv-x="546" d="M144 250V237Q144 158 182 115T295 72Q385 72 456 128L482 57Q450 27 398 10T290 -7Q215 -7 160 23T74 108T44 237Q44 319 75 382T164 481T294 516Q393 516 450 459T507 296Q507 274 504 250H144ZM239
442T202 409T151 310H420Q421 373 389 407T299 442Q239 442 202 409Z" />
<glyph unicode="f" glyph-name="f" horiz-adv-x="351" d="M237 657T229 561L224 504H365L358 426H218L184 0H84L118 426H20L27 504H124L129 570Q136 654 181 698T302 742Q341 742 374 732L367 649Q340 657 319 657Q237 657 229 561Z" />
<glyph unicode="g" glyph-name="g" horiz-adv-x="613" d="M558 504L519 12Q509 -108 447 -165T269 -223Q151 -223 64 -172L88 -93Q134 -120 176 -132T271 -144Q408 -144 420 3L427 96Q402 58 359 37T263 15Q198 15 149 43T72 124T45 247Q45 325 75 386T159 482T284
516Q344 516 387 492T453 422L459 504H558ZM360 95T401 144T442 280Q442 355 405 395T298 436Q228 436 188 386T147 249Q147 175 184 135T290 95Q360 95 401 144Z" />
<glyph unicode="h" glyph-name="h" horiz-adv-x="593" d="M440 516T484 471T528 339Q528 321 527 311L502 0H402L426 305Q427 312 427 326Q427 434 324 434Q259 434 221 395T178 287L155 0H54L112 736H213L189 436Q215 474 258 495T355 516Q440 516 484 471Z" />
<glyph unicode="i" glyph-name="i" horiz-adv-x="248" d="M54 0L94 504H195L155 0H54ZM102 724H220L212 618H94L102 724Z" />
<glyph unicode="j" glyph-name="j" horiz-adv-x="248" d="M-60 -136T-40 -136Q42 -136 50 -41L94 504H195L150 -49Q143 -133 98 -177T-23 -221Q-63 -221 -94 -211L-88 -129Q-60 -136 -40 -136ZM101 724H219L211 618H93L101 724Z" />
<glyph unicode="k" glyph-name="k" horiz-adv-x="531" d="M543 503L284 260L524 0H399L174 240L155 0H54L112 736H213L177 277L415 503H543Z" />
<glyph unicode="l" glyph-name="l" horiz-adv-x="248" d="M54 0L113 736H214L155 0H54Z" />
<glyph unicode="m" glyph-name="m" horiz-adv-x="888" d="M742 516T782 472T823 341Q823 321 822 311L797 0H697L721 307Q722 315 722 331Q722 383 700 408T631 434Q572 434 538 396T498 284L476 0H375L400 306Q401 314 401 328Q401 382 379 408T310 434Q251 434
217 396T177 284L155 0H54L83 362Q87 428 87 464Q87 491 86 504H180L182 426Q233 516 343 516Q400 516 437 493T491 423Q518 468 562 492T663 516Q742 516 782 472Z" />
<glyph unicode="n" glyph-name="n" horiz-adv-x="593" d="M440 516T484 471T528 339Q528 321 527 311L502 0H402L426 305Q427 312 427 326Q427 434 324 434Q259 434 221 395T178 287L155 0H54L83 362Q87 403 87 457Q87 488 86 504H180L182 424Q207 467 252 491T355
516Q440 516 484 471Z" />
<glyph unicode="o" glyph-name="o" horiz-adv-x="581" d="M213 -7T158 23T74 108T44 238Q44 322 75 385T164 482T296 516Q369 516 423 486T507 400T537 271Q537 187 506 124T418 27T286 -7Q213 -7 158 23ZM358 72T396 127T435 274Q435 352 399 394T296 436Q224
436 185 382T146 235Q146 155 181 114T287 72Q358 72 396 127Z" />
<glyph unicode="p" glyph-name="p" horiz-adv-x="609" d="M414 516T462 487T538 402T565 273Q565 190 535 127T451 28T327 -7Q270 -7 227 17T161 85L137 -216H37L83 362Q87 403 87 457Q87 488 86 504H180L182 422Q205 466 250 491T350 516Q414 516 462 487ZM384
72T423 125T463 270Q463 349 426 392T322 436Q252 436 213 383T173 238Q173 157 209 115T314 72Q384 72 423 125Z" />
<glyph unicode="q" glyph-name="q" horiz-adv-x="609" d="M562 504Q550 439 543 362L497 -216H396L419 74Q395 36 352 15T258 -7Q195 -7 147 22T71 107T44 236Q44 319 74 382T157 481T281 516Q342 516 386 490T452 414L468 504H562ZM356 72T396 125T436 270Q436
351 400 393T295 436Q225 436 185 383T145 238Q145 159 182 116T287 72Q356 72 396 125Z" />
<glyph unicode="r" glyph-name="r" horiz-adv-x="376" d="M370 516T393 509L384 418Q358 428 326 428Q257 428 220 387T177 281L155 0H54L83 362Q87 430 87 464Q87 491 86 504H180L182 425Q206 468 249 492T345 516Q370 516 393 509Z" />
<glyph unicode="s" glyph-name="s" horiz-adv-x="498" d="M114 -7T26 57L63 129Q147 69 239 69Q294 69 322 86T350 136Q350 167 322 183T235 216Q182 231 149 245T92 288T68 362Q68 432 123 474T272 516Q327 516 376 499T459 451L423 380Q350 439 272 439Q219
439 191 421T162 368Q162 346 177 332T213 310T276 289Q329 274 362 260T420 217T444 142Q444 72 388 33T237 -7Q114 -7 26 57Z" />
<glyph unicode="t" glyph-name="t" horiz-adv-x="363" d="M199 173L198 157Q198 78 276 78Q302 78 329 86L323 4Q290 -7 248 -7Q175 -7 136 31T97 141Q97 156 98 164L118 426H20L27 504H124L134 630L237 665L225 504H364L358 426H219L199 173Z" />
<glyph unicode="u" glyph-name="u" horiz-adv-x="586" d="M532 504L493 0H394L400 76Q375 36 332 15T236 -7Q153 -7 110 37T66 167Q66 187 67 197L91 504H192L167 203Q166 196 166 182Q166 74 267 74Q329 74 366 113T409 221L432 504H532Z" />
<glyph unicode="v" glyph-name="v" horiz-adv-x="536" d="M449 503H552L294 0H202L25 503H127L258 114L449 503Z" />
<glyph unicode="w" glyph-name="w" horiz-adv-x="876" d="M773 504H875L644 0H552L444 363L283 0H191L39 504H141L248 120L417 504H497L605 119L773 504Z" />
<glyph unicode="x" glyph-name="x" horiz-adv-x="541" d="M547 504L331 258L519 0H399L267 188L104 0H-18L213 260L34 504H153L275 331L425 504H547Z" />
<glyph unicode="y" glyph-name="y" horiz-adv-x="536" d="M552 504L272 -41Q226 -131 165 -172T18 -227L2 -149Q73 -133 111 -108T176 -31L199 11L25 504H128L258 113L450 504H552Z" />
<glyph unicode="z" glyph-name="z" horiz-adv-x="522" d="M490 504L484 434L160 77H467L461 0H30L35 70L359 426H72L78 504H490Z" />
<glyph unicode="{" glyph-name="braceleft" horiz-adv-x="371" d="M398 712L392 634H344Q314 634 294 612T270 549L256 375Q252 330 228 302T171 266Q202 259 222 230T239 156L225 -19Q222 -60 239 -82T286 -104H334L328 -182H267Q196 -182 160 -149T123 -52L124
-35L137 135Q138 143 138 156Q138 191 124 208T77 233L47 242L50 288L83 297Q122 306 138 327T159 395L172 565Q177 636 221 674T337 712H398Z" />
<glyph unicode="|" glyph-name="bar" horiz-adv-x="271" d="M54 -182L125 712H221L150 -182H54Z" />
<glyph unicode="}" glyph-name="braceright" horiz-adv-x="371" d="M328 288L325 242L292 233Q253 224 237 203T216 135L203 -35Q197 -107 155 -144T36 -182H-23L-18 -104H29Q59 -104 79 -82T104 -19L118 156Q122 200 147 229T204 266Q173 273 152 301T135 375L149
549Q153 590 136 612T88 634H40L46 712H106Q178 712 216 674T250 565L237 395Q236 388 236 375Q236 340 250 323T297 297L328 288Z" />
<glyph unicode="~" glyph-name="asciitilde" horiz-adv-x="600" d="M553 316Q530 268 493 241T411 214Q380 214 352 225T283 258Q252 275 233 283T196 291Q142 291 110 226L55 261Q77 309 113 335T195 362Q227 362 256 351T325 318Q356 301 375 293T411 285Q465
285 497 350L553 316Z" />
<glyph unicode="&#xa0;" glyph-name="uni00A0" horiz-adv-x="267" />
<glyph unicode="&#xa1;" glyph-name="exclamdown" horiz-adv-x="240" d="M70 373L79 493H199L190 373H70ZM92 293H154L149 -182H23L92 293Z" />
<glyph unicode="&#xa2;" glyph-name="cent" horiz-adv-x="620" d="M509 57Q482 32 445 16T366 -5L357 -119H273L282 -3Q193 11 142 75T90 237Q90 357 152 431T323 515L332 627H416L407 512Q486 499 540 451L503 379Q450 419 400 430L372 76Q425 84 484 129L509
57ZM194 175T218 135T289 80L316 431Q257 418 226 368T194 236Q194 175 218 135Z" />
<glyph unicode="&#xa3;" glyph-name="sterling" horiz-adv-x="600" d="M326 636T296 606T260 517L250 391H427L421 322H245L238 231Q233 174 217 140T164 85H553L546 0H24L29 70Q82 95 105 126T133 210L142 322H50L55 391H147L157 524Q165 614 223 667T378 720Q444
720 502 698T602 633L559 556Q517 595 471 615T380 636Q326 636 296 606Z" />
<glyph unicode="&#xa4;" glyph-name="currency" horiz-adv-x="600" d="M544 163T494 95L548 39L501 -7L448 48Q383 -3 301 -3Q218 -3 152 49L98 -7L52 39L107 96Q57 164 57 247Q57 333 107 399L52 455L99 503L153 447Q218 498 301 498Q381 498 446 448L500 503L548
455L495 399Q544 333 544 247Q544 163 494 95ZM343 79T379 101T436 162T458 247Q458 293 437 331T379 393T300 416Q257 416 221 394T163 332T142 247Q142 201 163 163T220 102T300 79Q343 79 379 101Z" />
<glyph unicode="&#xa5;" glyph-name="yen" horiz-adv-x="600" d="M649 712L400 394H543L538 325H358L352 240H531L526 172H346L333 0H229L242 172H63L68 240H248L254 325H75L80 394H223L23 712H138L312 424L535 712H649Z" />
<glyph unicode="&#xa6;" glyph-name="brokenbar" horiz-adv-x="271" d="M99 375L125 712H221L195 375H99ZM55 -182L82 156H177L151 -182H55Z" />
<glyph unicode="&#xa7;" glyph-name="section" horiz-adv-x="554" d="M513 166T494 129T441 65Q455 32 455 -1Q455 -88 397 -138T240 -188Q117 -188 32 -125L70 -52Q111 -82 151 -95T238 -109Q294 -109 324 -83T355 -9Q355 23 338 46T280 92L177 149Q107 188 76
228T45 322Q45 366 63 404T116 468Q102 496 102 532Q102 617 161 667T315 719Q369 719 417 703T503 656L466 585Q399 640 318 640Q264 640 233 613T202 540Q202 509 219 486T277 440L379 382Q449 342 481 301T513 208Q513 166 494 129ZM368 149T395 125Q417 155
417 191Q417 222 396 248T327 303L227 362Q188 385 163 408Q139 376 139 340Q139 310 160 283T229 228L331 171Q368 149 395 125Z" />
<glyph unicode="&#xa8;" glyph-name="dieresis" horiz-adv-x="300" d="M47 710H151L143 610H39L47 710ZM225 710H330L321 610H218L225 710Z" />
<glyph unicode="&#xa9;" glyph-name="copyright" horiz-adv-x="823" d="M312 -5T229 43T99 173T51 357Q51 458 98 540T228 669T412 717Q513 717 595 670T725 540T773 357Q773 256 726 174T595 43T412 -5Q312 -5 229 43ZM499 45T569 86T679 198T720 357Q720 444
680 515T570 626T412 667Q325 667 255 627T144 515T103 357Q103 270 143 199T254 86T412 45Q499 45 569 86ZM325 138T269 197T213 357Q213 456 269 515T422 574Q466 574 506 560T575 521L547 456Q493 500 432 500Q373 500 341 463T308 357Q308 287 340 250T432
212Q493 212 547 256L575 191Q546 166 506 152T422 138Q325 138 269 197Z" />
<glyph unicode="&#xaa;" glyph-name="ordfeminine" horiz-adv-x="336" d="M266 717T296 689T327 606Q327 592 326 585L313 414H230L234 461Q206 409 145 409Q102 409 74 435T46 499Q46 547 86 567T219 588H243L244 603Q246 629 234 640T193 652Q140 652 94 624L79
686Q106 700 139 708T206 717Q266 717 296 689ZM199 469T217 486T239 533L240 545H215Q167 545 148 536T128 505Q128 489 140 479T171 469Q199 469 217 486Z" />
<glyph unicode="&#xab;" glyph-name="guillemotleft" horiz-adv-x="469" d="M145 87L27 267L175 449H264L121 268L234 87H145ZM339 87L221 267L369 449H458L315 268L428 87H339Z" />
<glyph unicode="&#xac;" glyph-name="logicalnot" horiz-adv-x="600" d="M561 429L539 147H464L481 355H63L68 429H561Z" />
<glyph unicode="&#xad;" glyph-name="uni00AD" horiz-adv-x="433" d="M70 228L77 310H367L361 228H70Z" />
<glyph unicode="&#xae;" glyph-name="registered" horiz-adv-x="823" d="M522 717T604 670T734 540T782 357Q782 256 735 174T604 43T421 -5Q321 -5 238 43T108 173T60 357Q60 458 107 540T237 669T421 717Q522 717 604 670ZM508 45T578 86T689 198T729 357Q729
444 689 515T579 626T421 667Q334 667 264 627T153 515T112 357Q112 269 152 198T263 86T421 45Q508 45 578 86ZM528 307T548 269L610 143H508L443 280Q434 296 423 302T394 309H350L337 143H246L279 570H455Q530 570 568 539T607 447Q607 395 577 361T494 317Q528
307 548 269ZM443 377Q518 377 518 442Q518 473 500 486T442 499H364L354 377H443Z" />
<glyph unicode="&#xaf;" glyph-name="overscore" horiz-adv-x="300" d="M28 624L34 695H340L334 624H28Z" />
<glyph unicode="&#xb0;" glyph-name="degree" horiz-adv-x="370" d="M169 421T135 440T82 493T62 569Q62 611 81 644T135 697T210 717Q252 717 286 698T340 645T360 569Q360 527 341 494T287 441T210 421Q169 421 135 440ZM247 481T271 505T295 569Q295 608 271
632T210 657Q174 657 150 633T126 569Q126 530 150 506T210 481Q247 481 271 505Z" />
<glyph unicode="&#xb1;" glyph-name="plusminus" horiz-adv-x="600" d="M347 369H557L550 295H341L328 130H254L267 295H58L64 369H273L286 534H360L347 369ZM34 0L40 74H533L527 0H34Z" />
<glyph unicode="&#xb2;" glyph-name="uni00B2" horiz-adv-x="380" d="M165 357H349L344 285H53L58 351L212 503Q240 532 252 553T265 597Q265 621 249 633T204 646Q177 646 146 635T88 603L69 668Q99 690 138 703T218 716Q282 716 319 686T356 604Q356 566 337
531T270 455L165 357Z" />
<glyph unicode="&#xb3;" glyph-name="uni00B3" horiz-adv-x="380" d="M314 493T332 469T351 410Q351 350 308 316T193 281Q150 281 109 294T37 329L66 394Q127 351 188 351Q224 351 245 366T266 412Q266 466 195 466H134L139 536H190Q229 536 249 552T270 598Q270
621 254 633T208 646Q179 646 147 635T88 603L69 668Q99 690 138 703T218 716Q282 716 319 687T356 609Q356 571 336 544T280 504Q314 493 332 469Z" />
<glyph unicode="&#xb4;" glyph-name="acute" horiz-adv-x="300" d="M210 558H143L256 763H370L210 558Z" />
<glyph unicode="&#xb5;" glyph-name="uni00B5" horiz-adv-x="586" d="M532 504L493 0H394L400 76Q375 36 332 15T236 -7Q185 -7 153 13L135 -216H35L91 504H192L167 203Q166 196 166 182Q166 74 267 74Q329 74 366 113T409 221L432 504H532Z" />
<glyph unicode="&#xb6;" glyph-name="paragraph" horiz-adv-x="600" d="M484 -182H407L472 642H357L292 -182H214L253 300Q167 302 115 353T62 491Q62 556 88 606T165 684T287 712H555L484 -182Z" />
<glyph unicode="&#xb7;" glyph-name="middot" horiz-adv-x="241" d="M67 329H187L177 209H58L67 329Z" />
<glyph unicode="&#xb8;" glyph-name="cedilla" horiz-adv-x="300" d="M200 -41T221 -59T242 -109Q242 -148 210 -172T119 -196Q96 -196 70 -191T25 -177L41 -129Q83 -143 119 -143Q144 -143 158 -135T172 -111Q172 -86 139 -86Q121 -86 97 -94L79 -77L98 20H162L149
-42Q154 -41 165 -41Q200 -41 221 -59Z" />
<glyph unicode="&#xb9;" glyph-name="uni00B9" horiz-adv-x="380" d="M269 357H348L342 285H98L103 357H181L202 614L125 571L132 657L232 712H299L269 357Z" />
<glyph unicode="&#xba;" glyph-name="ordmasculine" horiz-adv-x="354" d="M125 409T85 448T44 550Q44 626 89 671T211 717Q280 717 320 679T360 576Q360 500 314 455T192 409Q125 409 85 448ZM233 478T253 503T274 574Q274 609 257 629T209 649Q172 649 152 624T132
553Q132 517 148 498T196 478Q233 478 253 503Z" />
<glyph unicode="&#xbb;" glyph-name="guillemotright" horiz-adv-x="468" d="M105 87H16L157 268L42 449H132L250 267L105 87ZM299 87H210L351 268L236 449H326L444 267L299 87Z" />
<glyph unicode="&#xbc;" glyph-name="onequarter" horiz-adv-x="943" d="M269 357H348L342 285H98L103 357H181L202 614L125 571L132 657L232 712H299L269 357ZM276 -26L211 18L685 738L749 694L276 -26ZM918 146L913 79H851L845 0H763L769 79H576L581 142L807
427H878L856 146H918ZM660 146H774L786 306L660 146Z" />
<glyph unicode="&#xbd;" glyph-name="onehalf" horiz-adv-x="943" d="M269 357H348L342 285H98L103 357H181L202 614L125 571L132 657L232 712H299L269 357ZM276 -26L211 18L685 738L749 694L276 -26ZM705 72H889L884 0H593L598 66L752 218Q780 247 792 268T805
312Q805 336 789 348T744 361Q717 361 686 350T628 318L609 383Q639 405 678 418T758 431Q822 431 859 401T896 319Q896 281 877 246T810 170L705 72Z" />
<glyph unicode="&#xbe;" glyph-name="threequarters" horiz-adv-x="943" d="M314 493T332 469T351 410Q351 350 308 316T193 281Q150 281 109 294T37 329L66 394Q127 351 188 351Q224 351 245 366T266 412Q266 466 195 466H134L139 536H190Q229 536 249 552T270
598Q270 621 254 633T208 646Q179 646 147 635T88 603L69 668Q99 690 138 703T218 716Q282 716 319 687T356 609Q356 571 336 544T280 504Q314 493 332 469ZM276 -26L211 18L685 738L749 694L276 -26ZM918 146L913 79H851L845 0H763L769 79H576L581 142L807 427H878L856
146H918ZM660 146H774L786 306L660 146Z" />
<glyph unicode="&#xbf;" glyph-name="questiondown" horiz-adv-x="454" d="M189 373L198 493H318L309 373H189ZM268 -189T193 -189Q103 -189 50 -148T-3 -39Q-3 0 11 30T47 81T104 134Q149 171 174 201T208 273L214 296H274L272 263Q269 223 255 192T222 140T172
90Q135 55 118 31T101 -27Q101 -63 127 -83T201 -104Q270 -104 342 -63L335 -155Q268 -189 193 -189Z" />
<glyph unicode="&#xc0;" glyph-name="Agrave" horiz-adv-x="741" d="M610 0L548 176H188L99 0H-9L364 712H450L712 0H610ZM229 258H519L400 597L229 258ZM378 773L255 927H352L445 773H378Z" />
<glyph unicode="&#xc1;" glyph-name="Aacute" horiz-adv-x="741" d="M610 0L548 176H188L99 0H-9L364 712H450L712 0H610ZM229 258H519L400 597L229 258ZM445 773H378L490 927H600L445 773Z" />
<glyph unicode="&#xc2;" glyph-name="Acircumflex" horiz-adv-x="741" d="M610 0L548 176H188L99 0H-9L364 712H450L712 0H610ZM229 258H519L400 597L229 258ZM342 773H256L393 927H455L568 773H483L423 872L342 773Z" />
<glyph unicode="&#xc3;" glyph-name="Atilde" horiz-adv-x="741" d="M610 0L548 176H188L99 0H-9L364 712H450L712 0H610ZM229 258H519L400 597L229 258ZM250 853T279 883T352 914Q372 914 389 906T432 882Q436 880 448 873T471 862T489 858Q510 858 523 872T538
911H590Q586 849 557 818T484 787Q464 787 447 795T404 819Q382 832 371 837T348 843Q327 843 314 829T298 790H247Q250 853 279 883Z" />
<glyph unicode="&#xc4;" glyph-name="Adieresis" horiz-adv-x="741" d="M610 0L548 176H188L99 0H-9L364 712H450L712 0H610ZM229 258H519L400 597L229 258ZM281 900H385L377 801H273L281 900ZM459 900H564L556 801H452L459 900Z" />
<glyph unicode="&#xc5;" glyph-name="Aring" horiz-adv-x="741" d="M548 176H188L99 0H-9L355 696Q333 709 320 732T307 782Q307 825 337 855T412 885Q455 885 485 855T516 782Q516 752 500 727T458 690L712 0H610L548 176ZM391 831T378 817T364 782Q364 761 377
747T412 732Q432 732 445 746T459 782Q459 802 446 816T412 831Q391 831 378 817ZM229 258H519L400 597L229 258Z" />
<glyph unicode="&#xc6;" glyph-name="AE" horiz-adv-x="1004" d="M988 628H628L629 404H950L942 320H630L631 84H945L938 0H535V176H204L86 0H-30L463 712H994L988 628ZM535 258L534 628H507L259 258H535Z" />
<glyph unicode="&#xc7;" glyph-name="Ccedilla" horiz-adv-x="684" d="M303 634T238 553T173 327Q173 207 229 143T390 78Q496 78 594 156L625 80Q583 39 524 17T395 -8L388 -42Q393 -41 404 -41Q439 -41 460 -59T481 -109Q481 -148 449 -172T358 -196Q335 -196
309 -191T264 -177L280 -129Q322 -143 358 -143Q383 -143 397 -135T411 -111Q411 -86 378 -86Q360 -86 336 -94L318 -77L332 -5Q209 10 138 98T67 328Q67 447 110 535T232 672T418 720Q495 720 559 698T669 632L625 556Q578 597 530 615T420 634Q303 634 238 553Z"
/>
<glyph unicode="&#xc8;" glyph-name="Egrave" horiz-adv-x="592" d="M576 628H216L198 404H538L531 320H192L173 84H533L526 0H65L120 712H583L576 628ZM337 773L214 927H311L404 773H337Z" />
<glyph unicode="&#xc9;" glyph-name="Eacute" horiz-adv-x="592" d="M576 628H216L198 404H538L531 320H192L173 84H533L526 0H65L120 712H583L576 628ZM404 773H337L449 927H559L404 773Z" />
<glyph unicode="&#xca;" glyph-name="Ecircumflex" horiz-adv-x="592" d="M576 628H216L198 404H538L531 320H192L173 84H533L526 0H65L120 712H583L576 628ZM301 773H215L352 927H414L527 773H442L382 872L301 773Z" />
<glyph unicode="&#xcb;" glyph-name="Edieresis" horiz-adv-x="592" d="M576 628H216L198 404H538L531 320H192L173 84H533L526 0H65L120 712H583L576 628ZM240 900H344L336 801H232L240 900ZM418 900H523L515 801H411L418 900Z" />
<glyph unicode="&#xcc;" glyph-name="Igrave" horiz-adv-x="269" d="M65 0L120 712H224L168 0H65ZM143 773L20 927H117L210 773H143Z" />
<glyph unicode="&#xcd;" glyph-name="Iacute" horiz-adv-x="269" d="M65 0L120 712H224L168 0H65ZM210 773H143L255 927H365L210 773Z" />
<glyph unicode="&#xce;" glyph-name="Icircumflex" horiz-adv-x="269" d="M65 0L120 712H224L168 0H65ZM107 773H21L158 927H220L333 773H248L188 872L107 773Z" />
<glyph unicode="&#xcf;" glyph-name="Idieresis" horiz-adv-x="269" d="M65 0L120 712H224L168 0H65ZM46 900H150L142 801H38L46 900ZM224 900H329L321 801H217L224 900Z" />
<glyph unicode="&#xd0;" glyph-name="Eth" horiz-adv-x="771" d="M544 712T633 626T722 384Q722 264 679 178T552 46T351 0H82L107 320H15L22 401H113L137 712H384Q544 712 633 626ZM480 86T548 162T616 385Q616 504 555 565T374 626H235L217 401H410L403 320H211L192
86H344Q480 86 548 162Z" />
<glyph unicode="&#xd1;" glyph-name="Ntilde" horiz-adv-x="750" d="M606 712H704L648 0H569L204 537L161 0H65L120 712H199L564 176L606 712ZM255 853T284 883T357 914Q377 914 394 906T437 882Q441 880 453 873T476 862T494 858Q515 858 528 872T543 911H595Q591
849 562 818T489 787Q469 787 452 795T409 819Q387 832 376 837T353 843Q332 843 319 829T303 790H252Q255 853 284 883Z" />
<glyph unicode="&#xd2;" glyph-name="Ograve" horiz-adv-x="779" d="M291 -9T218 31T106 148T67 328Q67 446 108 535T226 672T404 721Q504 721 577 681T689 564T729 384Q729 266 688 177T570 40T391 -9Q291 -9 218 31ZM462 77T514 114T595 220T623 384Q623 505
567 570T405 635Q296 635 234 553T172 327Q172 206 228 142T391 77Q462 77 514 114ZM396 773L273 927H370L463 773H396Z" />
<glyph unicode="&#xd3;" glyph-name="Oacute" horiz-adv-x="779" d="M291 -9T218 31T106 148T67 328Q67 446 108 535T226 672T404 721Q504 721 577 681T689 564T729 384Q729 266 688 177T570 40T391 -9Q291 -9 218 31ZM462 77T514 114T595 220T623 384Q623 505
567 570T405 635Q296 635 234 553T172 327Q172 206 228 142T391 77Q462 77 514 114ZM463 773H396L508 927H618L463 773Z" />
<glyph unicode="&#xd4;" glyph-name="Ocircumflex" horiz-adv-x="779" d="M291 -9T218 31T106 148T67 328Q67 446 108 535T226 672T404 721Q504 721 577 681T689 564T729 384Q729 266 688 177T570 40T391 -9Q291 -9 218 31ZM462 77T514 114T595 220T623 384Q623
505 567 570T405 635Q296 635 234 553T172 327Q172 206 228 142T391 77Q462 77 514 114ZM360 773H274L411 927H473L586 773H501L441 872L360 773Z" />
<glyph unicode="&#xd5;" glyph-name="Otilde" horiz-adv-x="779" d="M291 -9T218 31T106 148T67 328Q67 446 108 535T226 672T404 721Q504 721 577 681T689 564T729 384Q729 266 688 177T570 40T391 -9Q291 -9 218 31ZM462 77T514 114T595 220T623 384Q623 505
567 570T405 635Q296 635 234 553T172 327Q172 206 228 142T391 77Q462 77 514 114ZM268 853T297 883T370 914Q390 914 407 906T450 882Q454 880 466 873T489 862T507 858Q528 858 541 872T556 911H608Q604 849 575 818T502 787Q482 787 465 795T422 819Q400 832
389 837T366 843Q345 843 332 829T316 790H265Q268 853 297 883Z" />
<glyph unicode="&#xd6;" glyph-name="Odieresis" horiz-adv-x="779" d="M291 -9T218 31T106 148T67 328Q67 446 108 535T226 672T404 721Q504 721 577 681T689 564T729 384Q729 266 688 177T570 40T391 -9Q291 -9 218 31ZM462 77T514 114T595 220T623 384Q623
505 567 570T405 635Q296 635 234 553T172 327Q172 206 228 142T391 77Q462 77 514 114ZM299 900H403L395 801H291L299 900ZM477 900H582L574 801H470L477 900Z" />
<glyph unicode="&#xd7;" glyph-name="multiply" horiz-adv-x="600" d="M534 472L355 289L525 104L468 52L300 234L121 52L73 104L252 287L82 472L139 524L307 342L486 524L534 472Z" />
<glyph unicode="&#xd8;" glyph-name="Oslash" horiz-adv-x="779" d="M680 595T704 531T729 384Q729 266 688 177T570 40T391 -9Q296 -9 227 27L174 -53L107 -11L162 72Q116 116 92 181T67 328Q67 446 108 535T226 672T404 721Q498 721 569 685L622 765L689 723L634
639Q680 595 704 531ZM172 219T218 156L518 609Q471 635 405 635Q296 635 234 553T172 327Q172 219 218 156ZM462 77T514 114T595 220T623 384Q623 491 578 555L277 103Q326 77 391 77Q462 77 514 114Z" />
<glyph unicode="&#xd9;" glyph-name="Ugrave" horiz-adv-x="735" d="M219 -8T150 58T80 251Q80 275 81 288L115 712H217L183 287Q182 276 182 255Q182 76 360 76Q450 76 499 123T557 272L591 712H694L659 281Q648 137 572 65T356 -8Q219 -8 150 58ZM375 773L252
927H349L442 773H375Z" />
<glyph unicode="&#xda;" glyph-name="Uacute" horiz-adv-x="735" d="M219 -8T150 58T80 251Q80 275 81 288L115 712H217L183 287Q182 276 182 255Q182 76 360 76Q450 76 499 123T557 272L591 712H694L659 281Q648 137 572 65T356 -8Q219 -8 150 58ZM442 773H375L487
927H597L442 773Z" />
<glyph unicode="&#xdb;" glyph-name="Ucircumflex" horiz-adv-x="735" d="M219 -8T150 58T80 251Q80 275 81 288L115 712H217L183 287Q182 276 182 255Q182 76 360 76Q450 76 499 123T557 272L591 712H694L659 281Q648 137 572 65T356 -8Q219 -8 150 58ZM339 773H253L390
927H452L565 773H480L420 872L339 773Z" />
<glyph unicode="&#xdc;" glyph-name="Udieresis" horiz-adv-x="735" d="M219 -8T150 58T80 251Q80 275 81 288L115 712H217L183 287Q182 276 182 255Q182 76 360 76Q450 76 499 123T557 272L591 712H694L659 281Q648 137 572 65T356 -8Q219 -8 150 58ZM278 900H382L374
801H270L278 900ZM456 900H561L553 801H449L456 900Z" />
<glyph unicode="&#xdd;" glyph-name="Yacute" horiz-adv-x="617" d="M680 712L363 286L341 0H237L259 286L9 712H125L316 370L560 712H680ZM382 773H315L427 927H537L382 773Z" />
<glyph unicode="&#xde;" glyph-name="Thorn" horiz-adv-x="658" d="M512 559T569 511T626 374Q626 274 565 220T387 165H180L167 0H65L120 712H223L211 559H408Q512 559 569 511ZM526 247T526 369Q526 425 495 450T398 476H204L186 247H380Q526 247 526 369Z" />
<glyph unicode="&#xdf;" glyph-name="germandbls" horiz-adv-x="653" d="M510 344T563 294T617 165Q617 115 591 76T519 15T412 -7Q360 -7 309 10T220 57L257 129Q337 71 416 71Q465 71 493 95T521 163Q521 218 467 256T290 327L296 403Q384 433 424 473T465 569Q465
665 356 665Q280 665 241 625T195 497L155 0H54L93 485Q114 742 357 742Q451 742 506 699T561 576Q561 440 397 371Q510 344 563 294Z" />
<glyph unicode="&#xe0;" glyph-name="agrave" horiz-adv-x="609" d="M555 504L515 0H416L422 77Q398 37 355 15T259 -7Q195 -7 147 22T72 107T45 236Q45 319 75 382T158 481T282 516Q340 516 383 492T449 422L455 504H555ZM357 72T397 125T437 270Q437 351 401
393T296 436Q226 436 186 383T146 238Q146 159 183 116T288 72Q357 72 397 125ZM297 569L174 774H277L364 569H297Z" />
<glyph unicode="&#xe1;" glyph-name="aacute" horiz-adv-x="609" d="M555 504L515 0H416L422 77Q398 37 355 15T259 -7Q195 -7 147 22T72 107T45 236Q45 319 75 382T158 481T282 516Q340 516 383 492T449 422L455 504H555ZM357 72T397 125T437 270Q437 351 401
393T296 436Q226 436 186 383T146 238Q146 159 183 116T288 72Q357 72 397 125ZM364 569H297L410 774H524L364 569Z" />
<glyph unicode="&#xe2;" glyph-name="acircumflex" horiz-adv-x="609" d="M555 504L515 0H416L422 77Q398 37 355 15T259 -7Q195 -7 147 22T72 107T45 236Q45 319 75 382T158 481T282 516Q340 516 383 492T449 422L455 504H555ZM357 72T397 125T437 270Q437 351
401 393T296 436Q226 436 186 383T146 238Q146 159 183 116T288 72Q357 72 397 125ZM263 569H174L313 774H379L486 569H401L342 705L263 569Z" />
<glyph unicode="&#xe3;" glyph-name="atilde" horiz-adv-x="609" d="M555 504L515 0H416L422 77Q398 37 355 15T259 -7Q195 -7 147 22T72 107T45 236Q45 319 75 382T158 481T282 516Q340 516 383 492T449 422L455 504H555ZM357 72T397 125T437 270Q437 351 401
393T296 436Q226 436 186 383T146 238Q146 159 183 116T288 72Q357 72 397 125ZM170 674T198 705T270 736Q291 736 309 728T352 704Q373 691 385 685T410 679Q431 679 444 693T459 733H509Q506 671 478 640T407 609Q387 609 369 617T324 641Q305 653 293 659T268
665Q247 665 234 651T218 612H167Q170 674 198 705Z" />
<glyph unicode="&#xe4;" glyph-name="adieresis" horiz-adv-x="609" d="M555 504L515 0H416L422 77Q398 37 355 15T259 -7Q195 -7 147 22T72 107T45 236Q45 319 75 382T158 481T282 516Q340 516 383 492T449 422L455 504H555ZM357 72T397 125T437 270Q437 351
401 393T296 436Q226 436 186 383T146 238Q146 159 183 116T288 72Q357 72 397 125ZM201 721H305L297 621H193L201 721ZM379 721H484L475 621H372L379 721Z" />
<glyph unicode="&#xe5;" glyph-name="aring" horiz-adv-x="609" d="M555 504L515 0H416L422 77Q398 37 355 15T259 -7Q195 -7 147 22T72 107T45 236Q45 319 75 382T158 481T282 516Q340 516 383 492T449 422L455 504H555ZM357 72T397 125T437 270Q437 351 401
393T296 436Q226 436 186 383T146 238Q146 159 183 116T288 72Q357 72 397 125ZM294 569T264 598T234 672Q234 715 264 744T338 774Q382 774 412 745T443 672Q443 628 413 599T338 569Q294 569 264 598ZM359 622T372 636T385 672Q385 693 372 706T338 720Q318 720
305 706T291 672Q291 650 304 636T338 622Q359 622 372 636Z" />
<glyph unicode="&#xe6;" glyph-name="ae" horiz-adv-x="877" d="M482 250V237Q482 158 520 115T633 72Q672 72 712 86T787 128L812 57Q781 28 730 11T628 -7Q553 -7 500 24T421 113Q394 56 343 25T225 -7Q146 -7 97 34T48 141Q48 228 116 269T339 310H389L390
320Q391 327 391 340Q391 389 366 412T289 436Q203 436 118 383L92 455Q131 483 188 499T302 516Q420 516 461 439Q492 476 536 496T635 516Q727 516 782 458T838 295Q838 274 835 250H482ZM576 442T539 408T489 310H751Q751 374 720 408T635 442Q576 442 539 408ZM298
68T337 108T382 212L385 251H343Q267 251 225 240T165 207T148 150Q148 113 173 91T242 68Q298 68 337 108Z" />
<glyph unicode="&#xe7;" glyph-name="ccedilla" horiz-adv-x="499" d="M431 28T386 11T290 -7L283 -42Q288 -41 299 -41Q334 -41 355 -59T376 -109Q376 -148 344 -172T253 -196Q230 -196 204 -191T159 -177L175 -129Q217 -143 253 -143Q278 -143 292 -135T306
-111Q306 -86 273 -86Q255 -86 231 -94L213 -77L228 -2Q142 15 93 78T44 237Q44 322 76 385T167 482T307 516Q364 516 411 499T494 451L457 379Q419 407 384 421T309 435Q232 435 190 383T148 236Q148 159 186 116T294 73Q333 73 366 86T437 129L463 57Q431 28
386 11Z" />
<glyph unicode="&#xe8;" glyph-name="egrave" horiz-adv-x="546" d="M144 250V237Q144 158 182 115T295 72Q385 72 456 128L482 57Q450 27 398 10T290 -7Q215 -7 160 23T74 108T44 237Q44 319 75 382T164 481T294 516Q393 516 450 459T507 296Q507 274 504 250H144ZM239
442T202 409T151 310H420Q421 373 389 407T299 442Q239 442 202 409ZM277 569L154 774H257L344 569H277Z" />
<glyph unicode="&#xe9;" glyph-name="eacute" horiz-adv-x="546" d="M144 250V237Q144 158 182 115T295 72Q385 72 456 128L482 57Q450 27 398 10T290 -7Q215 -7 160 23T74 108T44 237Q44 319 75 382T164 481T294 516Q393 516 450 459T507 296Q507 274 504 250H144ZM239
442T202 409T151 310H420Q421 373 389 407T299 442Q239 442 202 409ZM344 569H277L390 774H504L344 569Z" />
<glyph unicode="&#xea;" glyph-name="ecircumflex" horiz-adv-x="546" d="M144 250V237Q144 158 182 115T295 72Q385 72 456 128L482 57Q450 27 398 10T290 -7Q215 -7 160 23T74 108T44 237Q44 319 75 382T164 481T294 516Q393 516 450 459T507 296Q507 274 504
250H144ZM239 442T202 409T151 310H420Q421 373 389 407T299 442Q239 442 202 409ZM243 569H154L293 774H359L466 569H381L322 705L243 569Z" />
<glyph unicode="&#xeb;" glyph-name="edieresis" horiz-adv-x="546" d="M144 250V237Q144 158 182 115T295 72Q385 72 456 128L482 57Q450 27 398 10T290 -7Q215 -7 160 23T74 108T44 237Q44 319 75 382T164 481T294 516Q393 516 450 459T507 296Q507 274 504
250H144ZM239 442T202 409T151 310H420Q421 373 389 407T299 442Q239 442 202 409ZM181 721H285L277 621H173L181 721ZM359 721H464L455 621H352L359 721Z" />
<glyph unicode="&#xec;" glyph-name="igrave" horiz-adv-x="248" d="M54 0L94 504H195L155 0H54ZM116 569L-7 774H96L183 569H116Z" />
<glyph unicode="&#xed;" glyph-name="iacute" horiz-adv-x="248" d="M54 0L94 504H195L155 0H54ZM183 569H116L229 774H343L183 569Z" />
<glyph unicode="&#xee;" glyph-name="icircumflex" horiz-adv-x="248" d="M54 0L94 504H195L155 0H54ZM82 569H-7L132 774H198L305 569H220L161 705L82 569Z" />
<glyph unicode="&#xef;" glyph-name="idieresis" horiz-adv-x="248" d="M54 0L94 504H195L155 0H54ZM20 721H124L116 621H12L20 721ZM198 721H303L294 621H191L198 721Z" />
<glyph unicode="&#xf0;" glyph-name="eth" horiz-adv-x="586" d="M464 600Q547 491 547 331Q547 159 476 76T284 -7Q211 -7 157 20T73 99T43 218Q43 293 74 350T161 439T288 470Q343 470 385 451T452 395Q440 498 374 570L202 514L188 573L322 616Q264 657 193
674L222 745Q343 718 419 648L555 692L568 634L464 600ZM357 73T396 120T435 250Q435 315 398 352T295 390Q223 390 184 343T144 217Q144 149 180 111T285 73Q357 73 396 120Z" />
<glyph unicode="&#xf1;" glyph-name="ntilde" horiz-adv-x="593" d="M440 516T484 471T528 339Q528 321 527 311L502 0H402L426 305Q427 312 427 326Q427 434 324 434Q259 434 221 395T178 287L155 0H54L83 362Q87 403 87 457Q87 488 86 504H180L182 424Q207 467
252 491T355 516Q440 516 484 471ZM163 674T191 705T263 736Q284 736 302 728T345 704Q366 691 378 685T403 679Q424 679 437 693T452 733H502Q499 671 471 640T400 609Q380 609 362 617T317 641Q298 653 286 659T261 665Q240 665 227 651T211 612H160Q163 674
191 705Z" />
<glyph unicode="&#xf2;" glyph-name="ograve" horiz-adv-x="581" d="M213 -7T158 23T74 108T44 238Q44 322 75 385T164 482T296 516Q369 516 423 486T507 400T537 271Q537 187 506 124T418 27T286 -7Q213 -7 158 23ZM358 72T396 127T435 274Q435 352 399 394T296
436Q224 436 185 382T146 235Q146 155 181 114T287 72Q358 72 396 127ZM282 569L159 774H262L349 569H282Z" />
<glyph unicode="&#xf3;" glyph-name="oacute" horiz-adv-x="581" d="M213 -7T158 23T74 108T44 238Q44 322 75 385T164 482T296 516Q369 516 423 486T507 400T537 271Q537 187 506 124T418 27T286 -7Q213 -7 158 23ZM358 72T396 127T435 274Q435 352 399 394T296
436Q224 436 185 382T146 235Q146 155 181 114T287 72Q358 72 396 127ZM349 569H282L395 774H509L349 569Z" />
<glyph unicode="&#xf4;" glyph-name="ocircumflex" horiz-adv-x="581" d="M213 -7T158 23T74 108T44 238Q44 322 75 385T164 482T296 516Q369 516 423 486T507 400T537 271Q537 187 506 124T418 27T286 -7Q213 -7 158 23ZM358 72T396 127T435 274Q435 352 399
394T296 436Q224 436 185 382T146 235Q146 155 181 114T287 72Q358 72 396 127ZM248 569H159L298 774H364L471 569H386L327 705L248 569Z" />
<glyph unicode="&#xf5;" glyph-name="otilde" horiz-adv-x="581" d="M213 -7T158 23T74 108T44 238Q44 322 75 385T164 482T296 516Q369 516 423 486T507 400T537 271Q537 187 506 124T418 27T286 -7Q213 -7 158 23ZM358 72T396 127T435 274Q435 352 399 394T296
436Q224 436 185 382T146 235Q146 155 181 114T287 72Q358 72 396 127ZM155 674T183 705T255 736Q276 736 294 728T337 704Q358 691 370 685T395 679Q416 679 429 693T444 733H494Q491 671 463 640T392 609Q372 609 354 617T309 641Q290 653 278 659T253 665Q232
665 219 651T203 612H152Q155 674 183 705Z" />
<glyph unicode="&#xf6;" glyph-name="odieresis" horiz-adv-x="581" d="M213 -7T158 23T74 108T44 238Q44 322 75 385T164 482T296 516Q369 516 423 486T507 400T537 271Q537 187 506 124T418 27T286 -7Q213 -7 158 23ZM358 72T396 127T435 274Q435 352 399 394T296
436Q224 436 185 382T146 235Q146 155 181 114T287 72Q358 72 396 127ZM186 721H290L282 621H178L186 721ZM364 721H469L460 621H357L364 721Z" />
<glyph unicode="&#xf7;" glyph-name="divide" horiz-adv-x="600" d="M258 434L267 537H368L360 434H258ZM552 325L546 251H55L60 325H552ZM226 36L235 139H336L328 36H226Z" />
<glyph unicode="&#xf8;" glyph-name="oslash" horiz-adv-x="581" d="M498 425T517 378T537 271Q537 187 506 124T418 27T286 -7Q222 -7 171 16L127 -51L73 -19L119 51Q83 83 64 130T44 238Q44 322 75 385T164 482T296 516Q361 516 412 492L456 559L508 528L462
458Q498 425 517 378ZM145 166T170 128L365 422Q335 436 296 436Q223 436 184 382T145 235Q145 166 170 128ZM360 72T398 126T437 274Q437 340 411 381L217 86Q248 72 287 72Q360 72 398 126Z" />
<glyph unicode="&#xf9;" glyph-name="ugrave" horiz-adv-x="586" d="M532 504L493 0H394L400 76Q375 36 332 15T236 -7Q153 -7 110 37T66 167Q66 187 67 197L91 504H192L167 203Q166 196 166 182Q166 74 267 74Q329 74 366 113T409 221L432 504H532ZM285 569L162
774H265L352 569H285Z" />
<glyph unicode="&#xfa;" glyph-name="uacute" horiz-adv-x="586" d="M532 504L493 0H394L400 76Q375 36 332 15T236 -7Q153 -7 110 37T66 167Q66 187 67 197L91 504H192L167 203Q166 196 166 182Q166 74 267 74Q329 74 366 113T409 221L432 504H532ZM352 569H285L398
774H512L352 569Z" />
<glyph unicode="&#xfb;" glyph-name="ucircumflex" horiz-adv-x="586" d="M532 504L493 0H394L400 76Q375 36 332 15T236 -7Q153 -7 110 37T66 167Q66 187 67 197L91 504H192L167 203Q166 196 166 182Q166 74 267 74Q329 74 366 113T409 221L432 504H532ZM251
569H162L301 774H367L474 569H389L330 705L251 569Z" />
<glyph unicode="&#xfc;" glyph-name="udieresis" horiz-adv-x="586" d="M532 504L493 0H394L400 76Q375 36 332 15T236 -7Q153 -7 110 37T66 167Q66 187 67 197L91 504H192L167 203Q166 196 166 182Q166 74 267 74Q329 74 366 113T409 221L432 504H532ZM189 721H293L285
621H181L189 721ZM367 721H472L463 621H360L367 721Z" />
<glyph unicode="&#xfd;" glyph-name="yacute" horiz-adv-x="536" d="M552 504L272 -41Q226 -131 165 -172T18 -227L2 -149Q73 -133 111 -108T176 -31L199 11L25 504H128L258 113L450 504H552ZM328 569H261L374 774H488L328 569Z" />
<glyph unicode="&#xfe;" glyph-name="thorn" horiz-adv-x="609" d="M414 516T463 487T539 402T566 273Q566 190 536 127T452 28T328 -7Q270 -7 227 17T162 86L138 -216H37L112 728H213L190 435Q215 473 257 494T351 516Q414 516 463 487ZM385 72T424 125T464 270Q464
349 427 392T323 436Q253 436 213 383T173 238Q173 157 209 115T315 72Q385 72 424 125Z" />
<glyph unicode="&#xff;" glyph-name="ydieresis" horiz-adv-x="536" d="M552 504L272 -41Q226 -131 165 -172T18 -227L2 -149Q73 -133 111 -108T176 -31L199 11L25 504H128L258 113L450 504H552ZM165 721H269L261 621H157L165 721ZM343 721H448L439 621H336L343 721Z" />
<glyph unicode="&#x2013;" glyph-name="endash" horiz-adv-x="505" d="M-1 238L4 301H509L504 238H-1Z" />
<glyph unicode="&#x2014;" glyph-name="emdash" horiz-adv-x="1010" d="M-1 238L4 301H1014L1009 238H-1Z" />
<glyph unicode="&#x2018;" glyph-name="quoteleft" horiz-adv-x="240" d="M161 638T152 595H208L198 475H78L85 556Q89 604 107 642T167 718L208 684Q161 638 152 595Z" />
<glyph unicode="&#x2019;" glyph-name="quoteright" horiz-adv-x="240" d="M217 712L210 630Q206 583 188 545T128 469L87 503Q134 549 143 592H87L96 712H217Z" />
<glyph unicode="&#x201a;" glyph-name="quotesinglbase" horiz-adv-x="240" d="M170 120L163 38Q159 -10 141 -48T82 -124L40 -89Q86 -44 97 0H41L50 120H170Z" />
<glyph unicode="&#x201c;" glyph-name="quotedblleft" horiz-adv-x="419" d="M161 638T152 595H208L198 475H78L85 556Q89 604 107 642T167 718L208 684Q161 638 152 595ZM340 638T331 595H387L377 475H257L264 556Q268 604 286 642T346 718L387 684Q340 638 331 595Z" />
<glyph unicode="&#x201d;" glyph-name="quotedblright" horiz-adv-x="419" d="M217 712L210 630Q206 583 188 545T128 469L87 503Q134 549 143 592H87L96 712H217ZM396 712L389 630Q385 583 367 545T307 469L266 503Q313 549 322 592H266L275 712H396Z" />
<glyph unicode="&#x201e;" glyph-name="quotedblbase" horiz-adv-x="419" d="M170 120L163 38Q159 -10 141 -48T82 -124L40 -89Q86 -44 97 0H41L50 120H170ZM349 120L342 38Q338 -10 320 -48T261 -124L219 -89Q265 -44 276 0H220L229 120H349Z" />
<glyph unicode="&#x2022;" glyph-name="bullet" horiz-adv-x="529" d="M217 89T175 112T108 177T83 268Q83 314 107 355T173 422T266 447Q314 447 356 424T423 359T448 268Q448 219 424 178T357 113T266 89Q217 89 175 112Z" />
<glyph unicode="&#x2039;" glyph-name="guilsinglleft" horiz-adv-x="274" d="M145 87L27 267L175 449H264L121 268L234 87H145Z" />
<glyph unicode="&#x203a;" glyph-name="guilsinglright" horiz-adv-x="273" d="M105 87H16L157 268L42 449H132L250 267L105 87Z" />
</font>
</defs>
</svg>
