<?xml version="1.0" standalone="no"?>
<!DOCTYPE svg PUBLIC "-//W3C//DTD SVG 1.1//EN" "http://www.w3.org/Graphics/SVG/1.1/DTD/svg11.dtd">
<svg xmlns="http://www.w3.org/2000/svg">
<defs >
<font id="Muli" horiz-adv-x="597" ><font-face
    font-family="Muli Black"
    units-per-em="1000"
    panose-1="0 0 10 0 0 0 0 0 0 0"
    ascent="1005"
    descent="-250"
    alphabetic="0" />
<glyph unicode=" " glyph-name="space" horiz-adv-x="290" />
<glyph unicode="!" glyph-name="exclam" horiz-adv-x="276" d="M84 247L64 713L286 712L193 247H84ZM39 186H227L213 0H24L39 186Z" />
<glyph unicode="&quot;" glyph-name="quotedbl" horiz-adv-x="494" d="M88 402L69 712H276L209 402H88ZM310 402L291 712H498L431 402H310Z" />
<glyph unicode="#" glyph-name="numbersign" horiz-adv-x="606" d="M568 452H499L448 269H529L521 160H417L373 0H257L301 160H214L170 0H53L97 160H48L58 269H128L179 452H95L103 560H209L251 712H367L325 560H413L455 712H571L529 560H576L568 452ZM332 269L383
452H295L244 269H332Z" />
<glyph unicode="$" glyph-name="dollar" horiz-adv-x="600" d="M445 400T487 379T557 318T586 218Q586 128 525 69T361 -5L351 -116H209L218 -6Q149 0 98 17T7 66L76 198Q147 147 242 136L255 289Q194 308 151 330T79 393T49 494Q49 552 78 599T158 677T277 717L286
828H428L419 715Q477 708 524 690T600 646L531 513Q463 558 396 571L384 419Q445 400 487 379ZM235 481T269 462L277 569Q235 552 235 512Q235 481 269 462ZM398 163T398 203Q398 227 370 245L362 146Q398 163 398 203Z" />
<glyph unicode="%" glyph-name="percent" horiz-adv-x="974" d="M147 290T99 342T50 490Q50 599 101 662T242 725Q332 725 381 673T430 526Q430 413 380 352T237 290Q147 290 99 342ZM337 0H185L655 712H806L337 0ZM285 401T285 541Q285 580 276 597T243 614Q217
614 206 580T195 474Q195 435 204 418T235 401Q285 401 285 541ZM657 -7T609 45T560 193Q560 302 611 365T753 428Q843 428 892 376T941 229Q941 117 890 55T747 -7Q657 -7 609 45ZM796 104T796 244Q796 282 787 299T755 317Q728 317 717 283T706 177Q706 138 715
121T746 104Q796 104 796 244Z" />
<glyph unicode="&amp;" glyph-name="ampersand" horiz-adv-x="709" d="M635 -10Q548 11 491 60Q394 -8 281 -8Q203 -8 144 18T51 90T18 194Q18 268 57 318T166 404Q119 466 119 533Q119 588 146 630T223 695T334 718Q426 718 481 674T537 556Q537 434 403 368L498
273Q538 344 553 442H701Q679 285 601 172Q655 128 731 114L635 -10ZM314 600T296 583T278 534Q278 519 286 502T314 460Q358 478 376 499T395 548Q395 572 381 586T341 600Q314 600 296 583ZM194 171T220 150T289 128Q343 128 394 159L254 309Q194 271 194 207Q194
171 220 150Z" />
<glyph unicode="&apos;" glyph-name="quotesingle" horiz-adv-x="272" d="M88 402L69 712H276L209 402H88Z" />
<glyph unicode="(" glyph-name="parenleft" horiz-adv-x="404" d="M147 -75T123 14T98 197Q98 230 101 266Q110 383 150 489T275 712H419Q350 570 323 472T287 266Q283 225 283 175Q283 100 297 16T344 -182H205Q147 -75 123 14Z" />
<glyph unicode=")" glyph-name="parenright" horiz-adv-x="405" d="M-12 -182Q56 -38 83 60T119 266Q123 330 123 361Q123 437 109 519T60 712H202Q258 611 283 520T309 333Q309 301 306 266Q297 149 258 47T132 -182H-12Z" />
<glyph unicode="*" glyph-name="asterisk" horiz-adv-x="460" d="M168 325L75 397L168 497L41 529L88 644L206 594L208 726H329L308 596L435 644L465 529L332 498L410 397L307 325L246 436L168 325Z" />
<glyph unicode="+" glyph-name="plus" horiz-adv-x="600" d="M555 351L545 230H359L344 44H223L238 230H54L63 351H248L263 537H384L369 351H555Z" />
<glyph unicode="," glyph-name="comma" horiz-adv-x="276" d="M227 186L219 75Q214 7 186 -47T98 -157L33 -103Q92 -50 109 0H24L39 186H227Z" />
<glyph unicode="-" glyph-name="hyphen" horiz-adv-x="450" d="M60 201L71 341H395L384 201H60Z" />
<glyph unicode="." glyph-name="period" horiz-adv-x="276" d="M39 186H227L213 0H24L39 186Z" />
<glyph unicode="/" glyph-name="slash" horiz-adv-x="353" d="M95 -64H-50L275 758H420L95 -64Z" />
<glyph unicode="0" glyph-name="zero" horiz-adv-x="600" d="M167 -8T101 74T34 312Q34 440 68 531T168 671T324 720Q450 720 516 638T583 400Q583 272 549 181T449 41T293 -8Q167 -8 101 74ZM348 133T375 207T402 425Q402 505 383 542T321 579Q270 579 243 504T216
287Q216 207 235 170T297 133Q348 133 375 207Z" />
<glyph unicode="1" glyph-name="one" horiz-adv-x="600" d="M425 149H578L565 0H73L85 149H236L265 507L117 426L129 587L359 712H470L425 149Z" />
<glyph unicode="2" glyph-name="two" horiz-adv-x="600" d="M284 149H551L539 0H36L48 138L299 379Q377 454 377 512Q377 544 357 560T292 576Q208 576 111 512L64 645Q161 721 318 721Q431 721 496 666T561 513Q561 457 533 408T433 290L284 149Z" />
<glyph unicode="3" glyph-name="three" horiz-adv-x="600" d="M491 346T522 308T553 213Q553 149 520 99T424 21T271 -8Q193 -8 125 12T8 68L77 201Q170 137 273 137Q325 137 351 157T377 215Q377 254 352 271T274 288H166L178 432H268Q324 432 351 450T379 508Q379
576 292 576Q248 576 201 560T111 512L64 645Q109 681 175 701T317 721Q388 721 443 698T530 633T561 536Q561 411 437 363Q491 346 522 308Z" />
<glyph unicode="4" glyph-name="four" horiz-adv-x="600" d="M590 263L578 120H486L477 0H294L303 120H14L25 258L380 712H532L497 263H590ZM199 263H314L327 429L199 263Z" />
<glyph unicode="5" glyph-name="five" horiz-adv-x="600" d="M420 467T470 440T548 365T576 254Q576 130 500 61T289 -8Q212 -8 145 12T27 68L96 201Q181 137 286 137Q340 137 369 162T399 233Q399 277 372 300T292 324Q261 324 230 315T175 290H72L105 712H575L564
570H277L266 452Q307 467 356 467Q420 467 470 440Z" />
<glyph unicode="6" glyph-name="six" horiz-adv-x="600" d="M424 467T471 439T545 361T572 247Q572 173 540 115T451 24T320 -9Q182 -9 107 74T32 311Q32 436 71 528T184 671T357 721Q425 721 491 701T606 645L537 512Q496 544 452 560T367 576Q247 576 223 402Q247
432 285 449T365 467Q424 467 471 439ZM351 135T374 162T397 236Q397 277 375 300T314 324Q275 324 251 298T227 225Q227 185 251 160T313 135Q351 135 374 162Z" />
<glyph unicode="7" glyph-name="seven" horiz-adv-x="600" d="M73 712H601L591 572L245 0H47L388 563H62L73 712Z" />
<glyph unicode="8" glyph-name="eight" horiz-adv-x="600" d="M508 349T543 305T579 202Q579 135 541 88T436 16T290 -8Q160 -8 87 43T14 191Q14 256 57 302T175 367Q121 387 90 429T59 522Q59 585 96 630T197 698T338 721Q410 721 466 699T554 637T586 541Q586
479 548 432T446 367Q508 349 543 305ZM363 428T386 450T409 513Q409 546 386 563T323 580Q284 580 259 560T233 500Q233 438 314 417Q363 428 386 450ZM344 133T375 155T406 221Q406 253 378 273T305 303Q190 281 190 209Q190 170 218 152T297 133Q344 133 375
155Z" />
<glyph unicode="9" glyph-name="nine" horiz-adv-x="600" d="M434 721T509 638T584 401Q584 277 545 185T432 42T260 -9Q191 -9 126 11T11 67L80 200Q121 168 165 152T250 136Q310 136 347 180T394 311Q369 281 332 263T253 245Q193 245 146 273T72 351T45 465Q45
539 77 597T167 688T297 721Q434 721 509 638ZM342 388T366 414T390 487Q390 527 368 552T311 577Q270 577 245 550T220 476Q220 435 242 412T302 388Q342 388 366 414Z" />
<glyph unicode=":" glyph-name="colon" horiz-adv-x="277" d="M64 497H252L237 312H50L64 497ZM40 186H228L214 0H25L40 186Z" />
<glyph unicode=";" glyph-name="semicolon" horiz-adv-x="276" d="M64 497H252L237 312H50L64 497ZM39 186H227L219 75Q214 7 186 -47T98 -157L33 -103Q92 -50 109 0H24L39 186Z" />
<glyph unicode="&lt;" glyph-name="less" horiz-adv-x="600" d="M571 550L561 418L218 290L540 163L529 31L52 223L63 358L571 550Z" />
<glyph unicode="=" glyph-name="equal" horiz-adv-x="600" d="M561 452L552 331H61L69 452H561ZM544 250L536 129H44L55 250H544Z" />
<glyph unicode="&gt;" glyph-name="greater" horiz-adv-x="600" d="M78 550L556 358L544 223L36 31L47 163L390 291L68 418L78 550Z" />
<glyph unicode="?" glyph-name="question" horiz-adv-x="484" d="M189 303Q193 351 213 381T268 446Q294 471 306 488T318 527Q318 576 256 576Q187 576 112 531L123 684Q158 701 202 711T290 721Q352 721 400 700T476 641T504 553Q504 514 487 483T447 429T385
377Q345 346 326 327T299 282L290 241H184L189 303ZM126 0L141 186H329L314 0H126Z" />
<glyph unicode="@" glyph-name="at" horiz-adv-x="953" d="M355 -164T254 -110T97 42T42 264Q42 407 100 509T261 665T495 719Q628 719 724 672T871 539T921 342Q921 258 896 196T822 99T709 64Q656 64 622 86T577 146H575Q546 106 514 85T431 64Q353 64 311 114T269
248Q269 321 296 379T371 471T480 505Q519 505 548 491T592 446H596L605 497H732L692 275Q686 244 686 220Q686 192 696 178T732 164Q748 164 764 182T792 240T803 342Q803 473 724 543T495 614Q400 614 327 574T212 454T170 264Q170 167 208 95T319 -18T492 -58Q562
-58 611 -43T683 0H846Q808 -73 716 -118T492 -164Q355 -164 254 -110ZM513 164T543 211T573 322Q573 363 555 384T504 405Q454 405 426 357T398 247Q398 211 413 188T459 164Q513 164 543 211Z" />
<glyph unicode="A" glyph-name="A" horiz-adv-x="769" d="M592 0L540 147H223L149 0H-42L346 712H496L772 0H592ZM295 288H490L409 515L295 288Z" />
<glyph unicode="B" glyph-name="B" horiz-adv-x="702" d="M610 351T641 306T672 202Q672 106 599 53T404 0H46L101 712H437Q554 712 616 662T679 532Q679 473 648 433T555 368Q610 351 641 306ZM450 433T474 448T498 502Q498 536 476 553T403 570H274L263 433H391Q450
433 474 448ZM447 142T472 158T497 217Q497 255 474 273T400 291H252L240 142H388Q447 142 472 158Z" />
<glyph unicode="C" glyph-name="C" horiz-adv-x="685" d="M295 -9T217 32T96 151T54 334Q54 451 101 538T235 673T437 721Q508 721 571 701T683 643L615 510Q572 543 531 558T446 573Q350 573 297 510T244 334Q244 239 285 189T407 139Q449 139 493 154T591 202L638
69Q602 34 537 13T403 -9Q295 -9 217 32Z" />
<glyph unicode="D" glyph-name="D" horiz-adv-x="780" d="M100 712H392Q499 712 578 672T701 556T744 378Q744 258 697 174T560 45T344 0H45L100 712ZM327 150Q445 150 501 205T558 379Q558 468 509 515T366 562H277L244 150H327Z" />
<glyph unicode="E" glyph-name="E" horiz-adv-x="603" d="M597 568H273L262 434H567L554 290H251L239 144H563L552 0H45L101 712H609L597 568Z" />
<glyph unicode="F" glyph-name="F" horiz-adv-x="584" d="M586 565H275L265 435H555L544 289H253L230 0H45L101 712H598L586 565Z" />
<glyph unicode="G" glyph-name="G" horiz-adv-x="751" d="M708 402L681 47Q628 20 557 6T403 -9Q296 -9 218 33T97 153T54 336Q54 452 101 539T236 673T441 721Q605 721 703 643L635 510Q592 543 550 558T453 574Q352 574 298 511T243 335Q243 237 289 185T430
133Q472 133 520 145L530 275H405L415 402H708Z" />
<glyph unicode="H" glyph-name="H" horiz-adv-x="784" d="M573 712H756L700 0H515L538 288H252L229 0H45L101 712H286L264 435H550L573 712Z" />
<glyph unicode="I" glyph-name="I" horiz-adv-x="316" d="M45 0L100 712H288L232 0H45Z" />
<glyph unicode="J" glyph-name="J" horiz-adv-x="403" d="M-20 -29Q27 -34 49 -34Q94 -34 112 -16T134 53L186 712H374L323 56Q313 -69 256 -128T75 -188Q27 -188 -31 -179L-20 -29Z" />
<glyph unicode="K" glyph-name="K" horiz-adv-x="706" d="M786 712L448 366L742 0H524L259 321L234 0H46L101 712H290L266 405L560 712H786Z" />
<glyph unicode="L" glyph-name="L" horiz-adv-x="579" d="M45 0L101 712H290L244 152H545L534 0H45Z" />
<glyph unicode="M" glyph-name="M" horiz-adv-x="852" d="M675 712H821L766 0H602L627 323L466 0H347L236 322L211 0H48L103 712H249L424 220L675 712Z" />
<glyph unicode="N" glyph-name="N" horiz-adv-x="766" d="M562 712H737L681 0H541L251 397L219 0H45L101 712H238L529 314L562 712Z" />
<glyph unicode="O" glyph-name="O" horiz-adv-x="805" d="M300 -10T220 31T97 151T54 334Q54 450 98 538T225 674T415 722Q522 722 602 681T725 561T768 378Q768 262 724 174T597 38T407 -10Q300 -10 220 31ZM486 134T533 199T581 378Q581 473 538 525T418 578Q335
578 288 513T241 334Q241 238 283 186T405 134Q486 134 533 199Z" />
<glyph unicode="P" glyph-name="P" horiz-adv-x="685" d="M510 712T565 687T649 615T678 509Q678 400 610 339T415 278H254L232 0H45L101 712H434Q510 712 565 687ZM449 418T476 439T503 498Q503 570 409 570H278L266 418H396Q449 418 476 439Z" />
<glyph unicode="Q" glyph-name="Q" horiz-adv-x="805" d="M601 -5T629 -35T697 -100L564 -191Q456 -116 404 -10Q298 -10 219 32T97 151T54 334Q54 450 98 538T225 674T415 722Q522 722 602 681T725 561T768 378Q768 256 719 166T581 30Q601 -5 629 -35ZM241 238T283
186T405 134Q486 134 533 199T581 378Q581 473 538 525T418 578Q335 578 288 513T241 334Q241 238 283 186Z" />
<glyph unicode="R" glyph-name="R" horiz-adv-x="714" d="M548 285T566 264T595 205L664 0H466L392 237Q380 277 323 277H252L231 0H46L101 712H449Q561 712 624 656T687 507Q687 333 521 294Q548 285 566 264ZM412 417Q461 417 486 438T511 497Q511 534 490 552T423
570H274L262 417H412Z" />
<glyph unicode="S" glyph-name="S" horiz-adv-x="672" d="M236 -9T158 11T23 69L92 202Q199 135 325 135Q442 135 442 193Q442 224 410 241T307 280Q234 301 186 322T104 385T69 494Q69 562 107 613T214 693T377 721Q455 721 526 700T639 643L572 510Q528 542
475 559T373 577Q318 577 286 560T254 511Q254 479 286 462T390 425Q464 404 511 383T593 321T628 215Q628 108 547 50T318 -9Q236 -9 158 11Z" />
<glyph unicode="T" glyph-name="T" horiz-adv-x="638" d="M206 0L250 560H36L48 712H662L651 560H438L395 0H206Z" />
<glyph unicode="U" glyph-name="U" horiz-adv-x="752" d="M63 -9T63 270Q63 284 65 312L97 712H281L249 306Q248 295 248 275Q248 204 281 169T384 134Q439 134 471 168T510 283L545 712H728L696 295Q685 144 604 68T374 -9Q63 -9 63 270Z" />
<glyph unicode="V" glyph-name="V" horiz-adv-x="751" d="M620 712H811L431 0H282L13 712H208L377 233L620 712Z" />
<glyph unicode="W" glyph-name="W" horiz-adv-x="1132" d="M978 712H1156L846 0H697L580 425L396 0H246L49 712H237L350 265L542 712H672L787 255L978 712Z" />
<glyph unicode="X" glyph-name="X" horiz-adv-x="694" d="M756 712L459 358L705 0H491L345 218L170 0H-51L251 362L9 712H224L365 500L535 712H756Z" />
<glyph unicode="Y" glyph-name="Y" horiz-adv-x="657" d="M760 712L425 272L404 0H216L237 275L-28 712H181L340 421L544 712H760Z" />
<glyph unicode="Z" glyph-name="Z" horiz-adv-x="624" d="M614 712L604 577L258 147H582L570 0H33L43 137L388 565H77L88 712H614Z" />
<glyph unicode="[" glyph-name="bracketleft" horiz-adv-x="400" d="M70 -182L140 712H420L410 578H307L257 -48H360L350 -182H70Z" />
<glyph unicode="\" glyph-name="backslash" horiz-adv-x="352" d="M211 -64L13 758H157L355 -64H211Z" />
<glyph unicode="]" glyph-name="bracketright" horiz-adv-x="400" d="M264 -182H-16L-5 -48H98L145 578H43L55 712H333L264 -182Z" />
<glyph unicode="^" glyph-name="asciicircum" horiz-adv-x="600" d="M551 145H421L320 477L167 145H32L265 638H399L551 145Z" />
<glyph unicode="_" glyph-name="underscore" horiz-adv-x="505" d="M-10 -103L-2 0H469L461 -103H-10Z" />
<glyph unicode="`" glyph-name="grave" horiz-adv-x="300" d="M122 562L-17 770H145L232 562H122Z" />
<glyph unicode="a" glyph-name="a" horiz-adv-x="643" d="M609 508L569 0H390L395 57Q371 26 333 9T248 -8Q184 -8 135 21T59 106T31 236Q31 319 62 384T148 485T275 522Q374 522 426 451L431 508H609ZM357 126T384 163T411 260Q411 323 386 354T314 386Q266 386
238 349T210 248Q210 189 236 158T311 126Q357 126 384 163Z" />
<glyph unicode="b" glyph-name="b" horiz-adv-x="645" d="M464 522T513 493T589 408T616 277Q616 194 585 129T499 28T371 -8Q274 -8 219 63L214 0H35L93 736H274L252 455Q277 486 315 504T400 522Q464 522 513 493ZM381 126T408 162T436 263Q436 323 411 354T336
386Q289 386 262 349T234 251Q234 189 259 158T331 126Q381 126 408 162Z" />
<glyph unicode="c" glyph-name="c" horiz-adv-x="515" d="M224 -8T161 23T65 110T31 241Q31 328 67 391T169 488T323 522Q446 522 527 461L470 336Q439 359 404 372T335 385Q279 385 248 349T217 246Q217 188 245 159T321 129Q394 129 458 176L495 53Q460 24 411
8T309 -8Q224 -8 161 23Z" />
<glyph unicode="d" glyph-name="d" horiz-adv-x="643" d="M629 736L570 0H391L395 57Q370 26 333 9T248 -8Q184 -8 135 21T59 106T31 236Q31 319 62 384T148 485T275 522Q370 522 424 454L446 736H629ZM357 126T384 163T412 260Q412 323 387 354T315 386Q266 386
238 349T210 249Q210 189 236 158T311 126Q357 126 384 163Z" />
<glyph unicode="e" glyph-name="e" horiz-adv-x="553" d="M397 522T459 460T521 287Q521 263 518 236H203Q206 179 235 152T319 125Q395 125 462 172L498 53Q464 24 414 8T306 -8Q224 -8 162 23T65 110T31 243Q31 323 65 387T159 486T291 522Q397 522 459 460ZM264
398T242 380T210 320H373Q372 358 352 378T298 398Q264 398 242 380Z" />
<glyph unicode="f" glyph-name="f" horiz-adv-x="405" d="M349 599T327 580T302 524L301 508H422L412 374H290L260 0H78L108 374H13L24 508H119L120 526Q128 629 186 687T348 745Q407 745 441 731L431 592Q403 599 382 599Q349 599 327 580Z" />
<glyph unicode="g" glyph-name="g" horiz-adv-x="647" d="M614 508L576 39Q566 -98 490 -161T273 -224Q145 -224 51 -181L89 -47Q177 -91 280 -91Q333 -91 362 -66T396 17L400 72Q347 14 250 14Q186 14 137 43T60 125T32 248Q32 325 63 387T150 486T278 522Q377
522 431 452L435 508H614ZM361 149T389 183T418 273Q418 330 392 358T316 386Q268 386 240 352T211 258Q211 207 238 178T313 149Q361 149 389 183Z" />
<glyph unicode="h" glyph-name="h" horiz-adv-x="624" d="M492 522T535 474T578 332Q578 310 577 298L553 0H372L396 291L397 306Q397 343 380 362T328 382Q287 382 264 356T238 283L215 0H34L92 736H273L251 459Q279 488 319 505T408 522Q492 522 535 474Z" />
<glyph unicode="i" glyph-name="i" horiz-adv-x="289" d="M34 0L74 508H255L215 0H34ZM89 757H279L266 594H77L89 757Z" />
<glyph unicode="j" glyph-name="j" horiz-adv-x="289" d="M-67 -79T-46 -79Q-13 -79 9 -60T34 -4L75 508H257L216 -6Q208 -109 150 -167T-12 -225Q-71 -225 -105 -211L-95 -72Q-67 -79 -46 -79ZM88 757H278L265 594H76L88 757Z" />
<glyph unicode="k" glyph-name="k" horiz-adv-x="598" d="M642 507L422 261L610 0H392L234 218L217 0H35L93 736H275L241 299L422 507H642Z" />
<glyph unicode="l" glyph-name="l" horiz-adv-x="289" d="M34 0L93 736H274L215 0H34Z" />
<glyph unicode="m" glyph-name="m" horiz-adv-x="925" d="M795 522T837 473T880 331Q880 311 879 300L855 0H674L697 296Q698 302 698 312Q698 346 684 364T641 382Q603 382 582 356T556 273L536 0H353L377 293Q378 299 378 311Q378 382 320 382Q282 382 262 356T237
273L215 0H34L63 362Q67 406 67 460Q67 492 66 508H237L239 450Q271 487 309 504T399 522Q450 522 486 501T542 439Q575 480 619 501T715 522Q795 522 837 473Z" />
<glyph unicode="n" glyph-name="n" horiz-adv-x="624" d="M492 522T535 474T578 332Q578 310 577 298L553 0H372L396 291L397 306Q397 343 380 362T328 382Q287 382 264 356T238 283L215 0H34L63 362Q67 405 67 459Q67 492 66 508H237L239 444Q265 480 309 501T408
522Q492 522 535 474Z" />
<glyph unicode="o" glyph-name="o" horiz-adv-x="618" d="M224 -8T161 23T65 111T31 244Q31 330 66 392T164 488T312 522Q396 522 458 491T554 402T588 270Q588 183 554 121T456 25T309 -8Q224 -8 161 23ZM360 126T384 167T409 274Q409 331 386 358T314 386Q259
386 235 345T210 241Q210 182 233 154T306 126Q360 126 384 167Z" />
<glyph unicode="p" glyph-name="p" horiz-adv-x="645" d="M462 522T511 493T588 408T615 277Q615 194 584 129T498 28T370 -8Q275 -8 220 60L198 -216H17L63 362Q67 405 67 459Q67 492 66 508H237L239 439Q263 478 304 500T398 522Q462 522 511 493ZM380 126T407
162T434 263Q434 323 409 354T335 386Q288 386 261 349T233 251Q233 189 258 158T330 126Q380 126 407 162Z" />
<glyph unicode="q" glyph-name="q" horiz-adv-x="643" d="M619 508Q606 445 599 362L553 -216H372L393 54Q368 24 331 8T248 -8Q184 -8 135 21T59 106T31 236Q31 319 62 384T148 485T275 522Q377 522 434 441L448 508H619ZM357 126T384 163T412 260Q412 323 387
354T315 386Q266 386 239 349T211 248Q211 189 237 158T311 126Q357 126 384 163Z" />
<glyph unicode="r" glyph-name="r" horiz-adv-x="430" d="M433 520T453 509L441 344Q401 364 357 364Q302 364 271 339T235 255L215 0H34L63 362Q67 432 67 467Q67 495 66 508H237L240 436Q261 475 303 497T395 520Q433 520 453 509Z" />
<glyph unicode="s" glyph-name="s" horiz-adv-x="507" d="M179 -8T120 6T3 53L60 176Q102 148 153 133T252 117Q285 117 300 125T316 147Q316 164 295 174T227 196Q171 211 135 226T71 272T44 351Q44 401 73 440T154 500T275 522Q333 522 390 506T488 461L433
341Q394 367 352 381T271 395Q238 395 221 387T204 365Q204 347 226 337T295 313Q349 298 385 283T448 237T475 158Q475 79 415 36T248 -8Q179 -8 120 6Z" />
<glyph unicode="t" glyph-name="t" horiz-adv-x="416" d="M276 211Q274 175 293 157T345 138Q364 138 395 145L383 7Q346 -8 287 -8Q192 -8 143 42T94 184Q94 202 95 211L108 374H13L24 508H119L128 623L314 681L300 508H422L412 374H289L276 211Z" />
<glyph unicode="u" glyph-name="u" horiz-adv-x="619" d="M585 508L545 0H368L373 57Q347 26 306 9T216 -8Q133 -8 90 38T47 173Q47 185 49 211L71 508H254L230 222Q227 178 243 155T295 131Q333 131 355 157T380 230L404 508H585Z" />
<glyph unicode="v" glyph-name="v" horiz-adv-x="559" d="M419 507H601L333 0H183L1 507H184L280 219L419 507Z" />
<glyph unicode="w" glyph-name="w" horiz-adv-x="900" d="M751 508H931L678 0H529L446 252L332 0H181L9 508H190L279 217L411 508H529L616 212L751 508Z" />
<glyph unicode="x" glyph-name="x" horiz-adv-x="567" d="M611 508L388 261L583 0H373L277 138L160 0H-55L182 263L-3 508H206L292 387L395 508H611Z" />
<glyph unicode="y" glyph-name="y" horiz-adv-x="559" d="M602 508L323 -18Q269 -121 197 -168T22 -228L-9 -91Q61 -76 98 -54T156 7L172 36L2 508H185L281 219L420 508H602Z" />
<glyph unicode="z" glyph-name="z" horiz-adv-x="535" d="M514 508L504 388L253 134H495L484 0H27L38 127L283 374H58L68 508H514Z" />
<glyph unicode="{" glyph-name="braceleft" horiz-adv-x="438" d="M457 712L446 578H417Q388 578 364 553T336 480L329 388Q325 342 296 308T231 265Q265 257 289 223T309 140L302 50Q298 4 318 -22T367 -48H398L388 -182H323Q225 -182 174 -140T122 -14Q122 0
123 8L128 93Q130 117 130 126Q130 162 119 179T81 206L34 222L40 306L90 323Q122 335 136 357T156 435L163 522Q170 616 228 664T393 712H457Z" />
<glyph unicode="|" glyph-name="bar" horiz-adv-x="304" d="M34 -182L105 712H272L201 -182H34Z" />
<glyph unicode="}" glyph-name="braceright" horiz-adv-x="438" d="M407 306L401 222L352 206Q319 194 305 172T286 93L280 8Q272 -85 213 -133T49 -182H-16L-5 -48H25Q54 -48 77 -23T105 50L112 140Q116 187 145 221T210 265Q176 273 152 307T132 388L139 480Q143
528 123 553T74 578H43L55 712H119Q217 712 269 670T321 544Q321 530 320 522L313 435Q311 411 311 404Q311 367 322 351T361 323L407 306Z" />
<glyph unicode="~" glyph-name="asciitilde" horiz-adv-x="600" d="M553 315Q533 263 491 232T401 201Q373 201 346 211T282 240Q252 255 238 261T209 267Q186 267 170 253T140 207L56 267Q76 319 118 350T206 381Q234 381 261 371T326 342Q353 328 369 322T398
316Q444 316 469 374L553 315Z" />
<glyph unicode="&#xa0;" glyph-name="uni00A0" horiz-adv-x="290" />
<glyph unicode="&#xa1;" glyph-name="exclamdown" horiz-adv-x="276" d="M48 312L63 497H250L236 312H48ZM82 250H191L215 -181L-8 -182L82 250Z" />
<glyph unicode="&#xa2;" glyph-name="cent" horiz-adv-x="620" d="M539 53Q495 16 426 0L417 -119H274L283 -2Q186 15 131 80T76 241Q76 361 142 434T324 520L333 631H476L466 510Q526 494 570 461L513 336Q486 356 455 368L437 141Q469 152 503 176L539 53ZM261
183T295 152L312 367Q287 350 274 320T261 246Q261 183 295 152Z" />
<glyph unicode="&#xa3;" glyph-name="sterling" horiz-adv-x="600" d="M284 223T273 196T241 149H569L557 0H17L26 126Q66 146 80 169T99 241L104 303H40L49 410H112L120 517Q125 577 157 623T246 695T375 721Q446 721 511 702T619 646L552 513Q455 576 386 576Q311
576 306 504L299 410H451L444 303H290L287 263Q284 223 273 196Z" />
<glyph unicode="&#xa4;" glyph-name="currency" horiz-adv-x="600" d="M543 168T499 104L555 46L494 -13L440 43Q377 -3 298 -3Q222 -3 159 41L105 -14L43 46L98 102Q53 168 53 247Q53 326 98 392L43 448L106 510L160 455Q222 498 298 498Q373 498 435 455L490
513L558 445L501 388Q543 326 543 247Q543 168 499 104ZM341 136T371 169T402 247Q402 293 371 326T297 359Q254 359 224 326T194 247Q194 201 224 169T299 136Q341 136 371 169Z" />
<glyph unicode="&#xa5;" glyph-name="yen" horiz-adv-x="600" d="M670 712L449 414H553L544 308H399L395 258H541L532 152H387L375 0H186L198 152H53L62 258H206L210 308H65L74 414H176L3 712H204L316 494L469 712H670Z" />
<glyph unicode="&#xa6;" glyph-name="brokenbar" horiz-adv-x="304" d="M79 375L105 712H272L245 375H79ZM35 -182L62 156H228L202 -182H35Z" />
<glyph unicode="&#xa7;" glyph-name="section" horiz-adv-x="604" d="M577 143T494 83Q516 44 516 6Q516 -88 445 -138T254 -189Q186 -189 126 -173T25 -128L81 -5Q117 -30 162 -44T248 -59Q292 -59 315 -45T339 -6Q339 11 329 23T291 49L151 120Q89 152 59 192T29
289Q29 386 114 448Q91 486 91 525Q91 586 125 630T218 696T350 719Q415 719 466 705T563 662L509 543Q479 565 439 577T361 590Q266 590 266 539Q266 507 314 483L455 410Q577 351 577 242Q577 143 494 83ZM401 170L404 168Q413 183 413 197Q413 252 350 286L206
366L204 367Q192 345 192 333Q192 308 209 285T255 246L401 170Z" />
<glyph unicode="&#xa8;" glyph-name="dieresis" horiz-adv-x="300" d="M10 740H171L159 588H-3L10 740ZM211 740H372L358 588H198L211 740Z" />
<glyph unicode="&#xa9;" glyph-name="copyright" horiz-adv-x="823" d="M311 -5T229 43T99 173T51 357Q51 458 98 540T228 669T412 717Q513 717 595 670T725 540T773 357Q773 256 726 174T595 43T412 -5Q311 -5 229 43ZM494 65T559 103T662 207T699 357Q699 439
662 505T560 609T412 647Q329 647 264 610T161 506T124 357Q124 274 161 208T263 103T412 65Q494 65 559 103ZM325 138T264 197T203 357Q203 456 264 515T429 574Q530 574 588 528L550 419Q535 429 508 439T456 450Q414 450 390 426T365 357Q365 312 389 287T456
262Q480 262 507 272T550 293L588 184Q525 138 429 138Q325 138 264 197Z" />
<glyph unicode="&#xaa;" glyph-name="ordfeminine" horiz-adv-x="346" d="M289 717T324 685T359 587Q359 579 357 557L346 408H208L212 459Q200 429 179 416T125 403Q86 403 58 431T30 498Q30 545 68 566T188 588H220L221 596Q222 606 214 609T184 612Q161 612
135 607T88 592L72 693Q133 717 212 717Q289 717 324 685ZM196 495T205 502T215 522V525H178Q173 525 168 520T162 509Q162 495 184 495Q196 495 205 502Z" />
<glyph unicode="&#xab;" glyph-name="guillemotleft" horiz-adv-x="565" d="M144 84L21 267L172 452H320L174 268L291 84H144ZM385 84L262 267L413 452H561L415 268L532 84H385Z" />
<glyph unicode="&#xac;" glyph-name="logicalnot" horiz-adv-x="600" d="M564 451L538 130H412L427 329H60L71 451H564Z" />
<glyph unicode="&#xad;" glyph-name="uni00AD" horiz-adv-x="450" d="M60 201L71 341H395L384 201H60Z" />
<glyph unicode="&#xae;" glyph-name="registered" horiz-adv-x="823" d="M522 717T604 670T734 540T782 357Q782 256 735 174T604 43T421 -5Q321 -5 238 43T108 173T60 357Q60 458 107 540T237 669T421 717Q522 717 604 670ZM666 190T687 243T708 357Q708 439
671 505T569 609T421 647Q339 647 273 610T170 506T133 357Q133 294 155 240T218 145L252 571H456Q537 571 580 536T623 438Q623 386 595 350T518 300Q542 297 561 283T590 248L628 150Q666 190 687 243ZM455 396T463 403T472 429Q472 442 463 447T433 453H398L394
396H436Q455 396 463 403ZM259 106T310 86T421 65Q480 65 531 85T622 143H454L402 281Q401 284 400 286T398 289H387L376 143H220Q259 106 310 86Z" />
<glyph unicode="&#xaf;" glyph-name="overscore" horiz-adv-x="300" d="M19 610L28 718H350L341 610H19Z" />
<glyph unicode="&#xb0;" glyph-name="degree" horiz-adv-x="373" d="M167 408T131 428T74 483T53 563Q53 606 74 641T131 697T211 717Q255 717 291 697T349 642T370 563Q370 519 349 484T292 428T211 408Q167 408 131 428ZM238 495T257 514T276 563Q276 592 257
611T211 630Q184 630 165 611T146 563Q146 534 165 515T211 495Q238 495 257 514Z" />
<glyph unicode="&#xb1;" glyph-name="plusminus" horiz-adv-x="600" d="M373 406H560L549 284H363L352 152H231L242 284H57L67 406H252L263 537H384L373 406ZM34 0L43 121H536L527 0H34Z" />
<glyph unicode="&#xb2;" glyph-name="uni00B2" horiz-adv-x="380" d="M227 404H369L360 285H43L52 397L191 527Q208 545 215 556T222 579Q222 591 212 596T178 602Q153 602 125 594T72 571L62 682Q90 697 132 706T214 716Q287 716 332 683T378 594Q378 555 358
522T281 444L227 404Z" />
<glyph unicode="&#xb3;" glyph-name="uni00B3" horiz-adv-x="380" d="M339 493T357 470T375 414Q375 353 327 317T194 280Q148 280 102 289T27 313L53 424Q117 394 185 394Q234 394 234 422Q234 442 198 442H116L125 558H190Q213 558 223 562T233 578Q233 590
223 596T189 602Q129 602 72 571L62 682Q90 698 132 707T214 716Q289 716 333 684T378 598Q378 565 360 541T306 504Q339 493 357 470Z" />
<glyph unicode="&#xb4;" glyph-name="acute" horiz-adv-x="300" d="M232 562H122L232 770H413L232 562Z" />
<glyph unicode="&#xb5;" glyph-name="uni00B5" horiz-adv-x="619" d="M585 508L545 0H368L373 57Q347 26 306 9T216 -8H211L195 -216H14L71 508H254L230 222Q227 178 243 155T295 131Q333 131 355 157T380 230L404 508H585Z" />
<glyph unicode="&#xb6;" glyph-name="paragraph" horiz-adv-x="654" d="M557 -182H441L505 609H403L339 -182H224L259 250Q163 252 104 308T44 463Q44 537 74 593T162 681T297 712H628L557 -182Z" />
<glyph unicode="&#xb7;" glyph-name="middot" horiz-adv-x="275" d="M54 365H241L227 179H38L54 365Z" />
<glyph unicode="&#xb8;" glyph-name="cedilla" horiz-adv-x="300" d="M199 -40T222 -58T246 -109Q246 -148 209 -174T106 -200Q78 -200 50 -196T1 -183L17 -118Q65 -132 101 -132Q139 -132 139 -110Q139 -93 110 -93Q100 -93 77 -98L59 -76L80 20H172L159 -40H161Q199
-40 222 -58Z" />
<glyph unicode="&#xb9;" glyph-name="uni00B9" horiz-adv-x="380" d="M308 404H391L381 285H62L71 404H153L166 552L85 513L95 647L225 712H332L308 404Z" />
<glyph unicode="&#xba;" glyph-name="ordmasculine" horiz-adv-x="391" d="M131 403T84 442T37 547Q37 626 89 671T229 717Q310 717 357 678T404 572Q404 494 351 449T212 403Q131 403 84 442ZM238 516T249 529T261 565Q261 582 250 592T223 603Q204 603 194 592T183
557Q183 539 193 528T219 516Q238 516 249 529Z" />
<glyph unicode="&#xbb;" glyph-name="guillemotright" horiz-adv-x="562" d="M155 84H9L153 268L36 452H185L304 267L155 84ZM396 84H250L394 268L277 452H426L545 267L396 84Z" />
<glyph unicode="&#xbc;" glyph-name="onequarter" horiz-adv-x="973" d="M675 744L781 672L316 -32L210 40L372 285H62L71 404H153L166 552L85 513L95 647L225 712H332L308 404H391L382 301L675 744ZM968 165L960 56H900L896 0H763L767 56H582L589 161L810 427H929L909
165H968ZM710 165H776L783 249L710 165Z" />
<glyph unicode="&#xbd;" glyph-name="onehalf" horiz-adv-x="973" d="M675 744L781 672L316 -32L210 40L372 285H62L71 404H153L166 552L85 513L95 647L225 712H332L308 404H391L382 301L675 744ZM797 119H939L930 0H613L622 112L761 242Q778 260 785 271T792
294Q792 306 782 311T748 317Q723 317 695 309T642 286L632 397Q660 412 702 421T784 431Q857 431 902 398T948 309Q948 270 928 237T851 159L797 119Z" />
<glyph unicode="&#xbe;" glyph-name="threequarters" horiz-adv-x="973" d="M339 493T357 470T375 414Q375 353 327 317T194 280Q148 280 102 289T27 313L53 424Q117 394 185 394Q234 394 234 422Q234 442 198 442H116L125 558H190Q213 558 223 562T233 578Q233
590 223 596T189 602Q129 602 72 571L62 682Q90 698 132 707T214 716Q289 716 333 684T378 598Q378 565 360 541T306 504Q339 493 357 470ZM316 -32L210 40L675 744L781 672L316 -32ZM968 165L960 56H900L896 0H763L767 56H582L589 161L810 427H929L909 165H968ZM710
165H776L783 249L710 165Z" />
<glyph unicode="&#xbf;" glyph-name="questiondown" horiz-adv-x="483" d="M156 312L171 497H358L343 312H156ZM293 -190T209 -190Q141 -190 90 -170T11 -112T-17 -25Q-17 17 0 48T43 99T107 144Q141 164 160 180T185 216L196 256H301L296 194Q292 148 271 121T214
65Q189 45 178 32T167 1Q167 -21 184 -33T231 -45Q296 -45 375 -1L362 -154Q293 -190 209 -190Z" />
<glyph unicode="&#xc0;" glyph-name="Agrave" horiz-adv-x="769" d="M592 0L540 147H223L149 0H-42L346 712H496L772 0H592ZM295 288H490L409 515L295 288ZM369 773L230 931H382L479 773H369Z" />
<glyph unicode="&#xc1;" glyph-name="Aacute" horiz-adv-x="769" d="M592 0L540 147H223L149 0H-42L346 712H496L772 0H592ZM295 288H490L409 515L295 288ZM479 773H369L483 931H653L479 773Z" />
<glyph unicode="&#xc2;" glyph-name="Acircumflex" horiz-adv-x="769" d="M592 0L540 147H223L149 0H-42L346 712H496L772 0H592ZM295 288H490L409 515L295 288ZM366 773H236L388 931H486L614 773H483L435 851L366 773Z" />
<glyph unicode="&#xc3;" glyph-name="Atilde" horiz-adv-x="769" d="M592 0L540 147H223L149 0H-42L346 712H496L772 0H592ZM295 288H490L409 515L295 288ZM249 858T285 896T374 934Q392 934 408 927T445 907Q465 895 477 890T501 884Q538 884 545 931H619Q614
847 578 809T488 771Q470 771 456 777T417 798Q399 809 387 815T362 821Q325 821 318 774H244Q249 858 285 896Z" />
<glyph unicode="&#xc4;" glyph-name="Adieresis" horiz-adv-x="769" d="M592 0L540 147H223L149 0H-42L346 712H496L772 0H592ZM295 288H490L409 515L295 288ZM257 928H418L406 777H244L257 928ZM458 928H619L606 777H445L458 928Z" />
<glyph unicode="&#xc5;" glyph-name="Aring" horiz-adv-x="769" d="M540 147H223L149 0H-42L345 710Q314 743 314 788Q314 834 347 866T428 899Q476 899 509 867T542 788Q542 761 531 739T500 700L772 0H592L540 147ZM410 831T399 819T387 788Q387 770 398 757T428
743Q446 743 458 756T470 788Q470 806 458 818T428 831Q410 831 399 819ZM295 288H490L409 515L295 288Z" />
<glyph unicode="&#xc6;" glyph-name="AE" horiz-adv-x="1014" d="M1007 568H704L702 434H976L963 290H700L698 144H974L961 0H522L525 147H241L143 0H-64L446 712H1017L1007 568ZM528 288L534 568H523L336 288H528Z" />
<glyph unicode="&#xc7;" glyph-name="Ccedilla" horiz-adv-x="685" d="M605 36T545 15T418 -9L411 -40H413Q451 -40 474 -58T498 -109Q498 -148 461 -174T358 -200Q330 -200 302 -196T253 -183L269 -118Q317 -132 353 -132Q391 -132 391 -110Q391 -93 362 -93Q351
-93 329 -98L311 -76L327 -3Q198 18 126 107T54 334Q54 451 101 538T235 673T437 721Q508 721 571 701T683 643L615 510Q572 543 531 558T446 573Q350 573 297 510T244 334Q244 239 285 189T407 139Q449 139 493 154T591 202L638 69Q605 36 545 15Z" />
<glyph unicode="&#xc8;" glyph-name="Egrave" horiz-adv-x="603" d="M597 568H273L262 434H567L554 290H251L239 144H563L552 0H45L101 712H609L597 568ZM322 773L183 931H335L432 773H322Z" />
<glyph unicode="&#xc9;" glyph-name="Eacute" horiz-adv-x="603" d="M597 568H273L262 434H567L554 290H251L239 144H563L552 0H45L101 712H609L597 568ZM432 773H322L436 931H606L432 773Z" />
<glyph unicode="&#xca;" glyph-name="Ecircumflex" horiz-adv-x="603" d="M597 568H273L262 434H567L554 290H251L239 144H563L552 0H45L101 712H609L597 568ZM319 773H189L341 931H439L567 773H436L388 851L319 773Z" />
<glyph unicode="&#xcb;" glyph-name="Edieresis" horiz-adv-x="603" d="M597 568H273L262 434H567L554 290H251L239 144H563L552 0H45L101 712H609L597 568ZM210 928H371L359 777H197L210 928ZM411 928H572L559 777H398L411 928Z" />
<glyph unicode="&#xcc;" glyph-name="Igrave" horiz-adv-x="316" d="M45 0L100 712H288L232 0H45ZM144 773L5 931H157L254 773H144Z" />
<glyph unicode="&#xcd;" glyph-name="Iacute" horiz-adv-x="316" d="M45 0L100 712H288L232 0H45ZM254 773H144L258 931H428L254 773Z" />
<glyph unicode="&#xce;" glyph-name="Icircumflex" horiz-adv-x="316" d="M45 0L100 712H288L232 0H45ZM141 773H11L163 931H261L389 773H258L210 851L141 773Z" />
<glyph unicode="&#xcf;" glyph-name="Idieresis" horiz-adv-x="316" d="M45 0L100 712H288L232 0H45ZM32 928H193L181 777H19L32 928ZM233 928H394L381 777H220L233 928Z" />
<glyph unicode="&#xd0;" glyph-name="Eth" horiz-adv-x="818" d="M535 712T615 672T738 556T782 378Q782 258 735 174T597 45T382 0H82L104 289H21L32 429H115L137 712H428Q535 712 615 672ZM482 150T538 205T594 379Q594 467 545 514T403 562H314L304 429H489L477
289H293L282 150H365Q482 150 538 205Z" />
<glyph unicode="&#xd1;" glyph-name="Ntilde" horiz-adv-x="766" d="M562 712H737L681 0H541L251 397L219 0H45L101 712H238L529 314L562 712ZM247 858T283 896T372 934Q390 934 406 927T443 907Q463 895 475 890T499 884Q536 884 543 931H617Q612 847 576 809T486
771Q468 771 454 777T415 798Q397 809 385 815T360 821Q323 821 316 774H242Q247 858 283 896Z" />
<glyph unicode="&#xd2;" glyph-name="Ograve" horiz-adv-x="805" d="M300 -10T220 31T97 151T54 334Q54 450 98 538T225 674T415 722Q522 722 602 681T725 561T768 378Q768 262 724 174T597 38T407 -10Q300 -10 220 31ZM486 134T533 199T581 378Q581 473 538 525T418
578Q335 578 288 513T241 334Q241 238 283 186T405 134Q486 134 533 199ZM387 773L248 931H400L497 773H387Z" />
<glyph unicode="&#xd3;" glyph-name="Oacute" horiz-adv-x="805" d="M300 -10T220 31T97 151T54 334Q54 450 98 538T225 674T415 722Q522 722 602 681T725 561T768 378Q768 262 724 174T597 38T407 -10Q300 -10 220 31ZM486 134T533 199T581 378Q581 473 538 525T418
578Q335 578 288 513T241 334Q241 238 283 186T405 134Q486 134 533 199ZM497 773H387L501 931H671L497 773Z" />
<glyph unicode="&#xd4;" glyph-name="Ocircumflex" horiz-adv-x="805" d="M300 -10T220 31T97 151T54 334Q54 450 98 538T225 674T415 722Q522 722 602 681T725 561T768 378Q768 262 724 174T597 38T407 -10Q300 -10 220 31ZM486 134T533 199T581 378Q581 473
538 525T418 578Q335 578 288 513T241 334Q241 238 283 186T405 134Q486 134 533 199ZM384 773H254L406 931H504L632 773H501L453 851L384 773Z" />
<glyph unicode="&#xd5;" glyph-name="Otilde" horiz-adv-x="805" d="M300 -10T220 31T97 151T54 334Q54 450 98 538T225 674T415 722Q522 722 602 681T725 561T768 378Q768 262 724 174T597 38T407 -10Q300 -10 220 31ZM486 134T533 199T581 378Q581 473 538 525T418
578Q335 578 288 513T241 334Q241 238 283 186T405 134Q486 134 533 199ZM267 858T303 896T392 934Q410 934 426 927T463 907Q483 895 495 890T519 884Q556 884 563 931H637Q632 847 596 809T506 771Q488 771 474 777T435 798Q417 809 405 815T380 821Q343 821
336 774H262Q267 858 303 896Z" />
<glyph unicode="&#xd6;" glyph-name="Odieresis" horiz-adv-x="805" d="M300 -10T220 31T97 151T54 334Q54 450 98 538T225 674T415 722Q522 722 602 681T725 561T768 378Q768 262 724 174T597 38T407 -10Q300 -10 220 31ZM486 134T533 199T581 378Q581 473 538
525T418 578Q335 578 288 513T241 334Q241 238 283 186T405 134Q486 134 533 199ZM275 928H436L424 777H262L275 928ZM476 928H637L624 777H463L476 928Z" />
<glyph unicode="&#xd7;" glyph-name="multiply" horiz-adv-x="600" d="M531 441L387 293L528 140L435 55L299 203L154 55L76 140L220 288L79 441L172 527L308 379L453 527L531 441Z" />
<glyph unicode="&#xd8;" glyph-name="Oslash" horiz-adv-x="805" d="M718 586T743 522T768 378Q768 262 724 174T597 38T407 -10Q328 -10 264 13L205 -77L93 -7L151 81Q104 126 79 190T54 334Q54 450 98 538T225 674T415 722Q493 722 559 699L618 789L729 719L671
631Q718 586 743 522ZM241 281T255 239L473 570Q447 578 418 578Q335 578 288 513T241 334Q241 281 255 239ZM486 134T533 199T581 378Q581 431 567 473L349 142Q376 134 405 134Q486 134 533 199Z" />
<glyph unicode="&#xd9;" glyph-name="Ugrave" horiz-adv-x="752" d="M63 -9T63 270Q63 284 65 312L97 712H281L249 306Q248 295 248 275Q248 204 281 169T384 134Q439 134 471 168T510 283L545 712H728L696 295Q685 144 604 68T374 -9Q63 -9 63 270ZM362 773L223
931H375L472 773H362Z" />
<glyph unicode="&#xda;" glyph-name="Uacute" horiz-adv-x="752" d="M63 -9T63 270Q63 284 65 312L97 712H281L249 306Q248 295 248 275Q248 204 281 169T384 134Q439 134 471 168T510 283L545 712H728L696 295Q685 144 604 68T374 -9Q63 -9 63 270ZM472 773H362L476
931H646L472 773Z" />
<glyph unicode="&#xdb;" glyph-name="Ucircumflex" horiz-adv-x="752" d="M63 -9T63 270Q63 284 65 312L97 712H281L249 306Q248 295 248 275Q248 204 281 169T384 134Q439 134 471 168T510 283L545 712H728L696 295Q685 144 604 68T374 -9Q63 -9 63 270ZM359
773H229L381 931H479L607 773H476L428 851L359 773Z" />
<glyph unicode="&#xdc;" glyph-name="Udieresis" horiz-adv-x="752" d="M63 -9T63 270Q63 284 65 312L97 712H281L249 306Q248 295 248 275Q248 204 281 169T384 134Q439 134 471 168T510 283L545 712H728L696 295Q685 144 604 68T374 -9Q63 -9 63 270ZM250 928H411L399
777H237L250 928ZM451 928H612L599 777H438L451 928Z" />
<glyph unicode="&#xdd;" glyph-name="Yacute" horiz-adv-x="657" d="M760 712L425 272L404 0H216L237 275L-28 712H181L340 421L544 712H760ZM424 773H314L428 931H598L424 773Z" />
<glyph unicode="&#xde;" glyph-name="Thorn" horiz-adv-x="686" d="M547 575T607 522T668 375Q668 265 605 207T424 149H241L229 0H45L101 712H286L275 575H442Q547 575 607 522ZM494 290T494 365Q494 399 476 415T419 432H264L252 290H408Q494 290 494 365Z" />
<glyph unicode="&#xdf;" glyph-name="germandbls" horiz-adv-x="726" d="M609 352T656 305T703 183Q703 128 673 85T589 17T466 -8Q410 -8 356 7T258 53L315 176Q356 151 399 136T472 121Q503 121 520 135T538 176Q538 214 488 243T327 300L338 431Q416 448 446
474T476 543Q476 579 451 598T383 618Q323 618 292 584T255 475L216 0H35L70 448Q82 596 160 671T388 746Q505 746 575 698T645 562Q645 498 613 452T509 374Q609 352 656 305Z" />
<glyph unicode="&#xe0;" glyph-name="agrave" horiz-adv-x="643" d="M609 508L569 0H390L395 57Q371 26 333 9T248 -8Q184 -8 135 21T59 106T31 236Q31 319 62 384T148 485T275 522Q374 522 426 451L431 508H609ZM357 126T384 163T411 260Q411 323 386 354T314
386Q266 386 238 349T210 248Q210 189 236 158T311 126Q357 126 384 163ZM292 573L153 781H315L402 573H292Z" />
<glyph unicode="&#xe1;" glyph-name="aacute" horiz-adv-x="643" d="M609 508L569 0H390L395 57Q371 26 333 9T248 -8Q184 -8 135 21T59 106T31 236Q31 319 62 384T148 485T275 522Q374 522 426 451L431 508H609ZM357 126T384 163T411 260Q411 323 386 354T314
386Q266 386 238 349T210 248Q210 189 236 158T311 126Q357 126 384 163ZM402 573H292L402 781H583L402 573Z" />
<glyph unicode="&#xe2;" glyph-name="acircumflex" horiz-adv-x="643" d="M609 508L569 0H390L395 57Q371 26 333 9T248 -8Q184 -8 135 21T59 106T31 236Q31 319 62 384T148 485T275 522Q374 522 426 451L431 508H609ZM357 126T384 163T411 260Q411 323 386 354T314
386Q266 386 238 349T210 248Q210 189 236 158T311 126Q357 126 384 163ZM297 573H158L310 781H415L536 573H403L355 679L297 573Z" />
<glyph unicode="&#xe3;" glyph-name="atilde" horiz-adv-x="643" d="M609 508L569 0H390L395 57Q371 26 333 9T248 -8Q184 -8 135 21T59 106T31 236Q31 319 62 384T148 485T275 522Q374 522 426 451L431 508H609ZM357 126T384 163T411 260Q411 323 386 354T314
386Q266 386 238 349T210 248Q210 189 236 158T311 126Q357 126 384 163ZM172 682T207 720T290 759Q312 759 329 752T372 730Q406 709 425 709Q461 709 469 756H543Q537 673 502 635T419 596Q398 596 380 603T339 625Q320 636 309 641T285 646Q267 646 256 636T241
599H167Q172 682 207 720Z" />
<glyph unicode="&#xe4;" glyph-name="adieresis" horiz-adv-x="643" d="M609 508L569 0H390L395 57Q371 26 333 9T248 -8Q184 -8 135 21T59 106T31 236Q31 319 62 384T148 485T275 522Q374 522 426 451L431 508H609ZM357 126T384 163T411 260Q411 323 386 354T314
386Q266 386 238 349T210 248Q210 189 236 158T311 126Q357 126 384 163ZM180 751H341L329 599H167L180 751ZM381 751H542L528 599H368L381 751Z" />
<glyph unicode="&#xe5;" glyph-name="aring" horiz-adv-x="643" d="M609 508L569 0H390L395 57Q371 26 333 9T248 -8Q184 -8 135 21T59 106T31 236Q31 319 62 384T148 485T275 522Q374 522 426 451L431 508H609ZM357 126T384 163T411 260Q411 323 386 354T314
386Q266 386 238 349T210 248Q210 189 236 158T311 126Q357 126 384 163ZM307 566T274 598T241 678Q241 724 274 757T355 790Q402 790 435 757T469 678Q469 630 436 598T355 566Q307 566 274 598ZM373 633T385 646T397 678Q397 696 385 708T355 721Q337 721 325
709T313 678Q313 659 325 646T355 633Q373 633 385 646Z" />
<glyph unicode="&#xe6;" glyph-name="ae" horiz-adv-x="860" d="M676 522T724 494T800 413T828 287Q828 263 825 236H515Q521 125 629 125Q702 125 769 172L805 53Q772 24 721 8T615 -8Q546 -8 494 16T409 87Q379 41 329 17T219 -8Q130 -8 78 35T25 150Q25 211
54 248T144 303T305 320H348Q350 356 331 371T268 387Q232 387 188 374T107 337L69 458Q113 486 178 504T306 522Q409 522 459 466Q524 522 614 522Q676 522 724 494ZM576 398T554 380T522 320H679Q675 359 657 378T611 398Q576 398 554 380ZM290 114T314 140T341
208L343 238H307Q251 238 225 224T199 171Q199 143 214 129T255 114Q290 114 314 140Z" />
<glyph unicode="&#xe7;" glyph-name="ccedilla" horiz-adv-x="515" d="M460 24T412 9T313 -8L306 -40H308Q346 -40 369 -58T393 -109Q393 -148 356 -174T253 -200Q225 -200 197 -196T148 -183L164 -118Q212 -132 248 -132Q286 -132 286 -110Q286 -93 257 -93Q246
-93 224 -98L206 -76L223 1Q132 23 82 86T31 241Q31 328 67 391T169 488T323 522Q446 522 527 461L470 336Q439 359 404 372T335 385Q279 385 248 349T217 246Q217 188 245 159T321 129Q394 129 458 176L495 53Q460 24 412 9Z" />
<glyph unicode="&#xe8;" glyph-name="egrave" horiz-adv-x="553" d="M397 522T459 460T521 287Q521 263 518 236H203Q206 179 235 152T319 125Q395 125 462 172L498 53Q464 24 414 8T306 -8Q224 -8 162 23T65 110T31 243Q31 323 65 387T159 486T291 522Q397 522
459 460ZM264 398T242 380T210 320H373Q372 358 352 378T298 398Q264 398 242 380ZM256 573L117 781H279L366 573H256Z" />
<glyph unicode="&#xe9;" glyph-name="eacute" horiz-adv-x="553" d="M397 522T459 460T521 287Q521 263 518 236H203Q206 179 235 152T319 125Q395 125 462 172L498 53Q464 24 414 8T306 -8Q224 -8 162 23T65 110T31 243Q31 323 65 387T159 486T291 522Q397 522
459 460ZM264 398T242 380T210 320H373Q372 358 352 378T298 398Q264 398 242 380ZM366 573H256L366 781H547L366 573Z" />
<glyph unicode="&#xea;" glyph-name="ecircumflex" horiz-adv-x="553" d="M397 522T459 460T521 287Q521 263 518 236H203Q206 179 235 152T319 125Q395 125 462 172L498 53Q464 24 414 8T306 -8Q224 -8 162 23T65 110T31 243Q31 323 65 387T159 486T291 522Q397
522 459 460ZM264 398T242 380T210 320H373Q372 358 352 378T298 398Q264 398 242 380ZM261 573H122L274 781H379L500 573H367L319 679L261 573Z" />
<glyph unicode="&#xeb;" glyph-name="edieresis" horiz-adv-x="553" d="M397 522T459 460T521 287Q521 263 518 236H203Q206 179 235 152T319 125Q395 125 462 172L498 53Q464 24 414 8T306 -8Q224 -8 162 23T65 110T31 243Q31 323 65 387T159 486T291 522Q397
522 459 460ZM264 398T242 380T210 320H373Q372 358 352 378T298 398Q264 398 242 380ZM144 751H305L293 599H131L144 751ZM345 751H506L492 599H332L345 751Z" />
<glyph unicode="&#xec;" glyph-name="igrave" horiz-adv-x="289" d="M34 0L74 508H255L215 0H34ZM115 573L-24 781H138L225 573H115Z" />
<glyph unicode="&#xed;" glyph-name="iacute" horiz-adv-x="289" d="M34 0L74 508H255L215 0H34ZM225 573H115L225 781H406L225 573Z" />
<glyph unicode="&#xee;" glyph-name="icircumflex" horiz-adv-x="289" d="M34 0L74 508H255L215 0H34ZM120 573H-19L133 781H238L359 573H226L178 679L120 573Z" />
<glyph unicode="&#xef;" glyph-name="idieresis" horiz-adv-x="289" d="M34 0L74 508H255L215 0H34ZM3 751H164L152 599H-10L3 751ZM204 751H365L351 599H191L204 751Z" />
<glyph unicode="&#xf0;" glyph-name="eth" horiz-adv-x="627" d="M535 566Q601 460 601 327Q601 155 521 74T307 -8Q222 -8 159 20T63 100T29 222Q29 297 64 353T159 440T292 470Q380 470 426 429Q411 485 375 527L188 481L172 570L283 597Q234 622 179 626L226
749Q373 733 471 643L601 675L616 586L535 566ZM358 127T382 160T407 243Q407 287 383 312T312 338Q258 338 233 306T208 226Q208 184 232 156T303 127Q358 127 382 160Z" />
<glyph unicode="&#xf1;" glyph-name="ntilde" horiz-adv-x="624" d="M492 522T535 474T578 332Q578 310 577 298L553 0H372L396 291L397 306Q397 343 380 362T328 382Q287 382 264 356T238 283L215 0H34L63 362Q67 405 67 459Q67 492 66 508H237L239 444Q265 480
309 501T408 522Q492 522 535 474ZM165 682T200 720T283 759Q305 759 322 752T365 730Q399 709 418 709Q454 709 462 756H536Q530 673 495 635T412 596Q391 596 373 603T332 625Q313 636 302 641T278 646Q260 646 249 636T234 599H160Q165 682 200 720Z" />
<glyph unicode="&#xf2;" glyph-name="ograve" horiz-adv-x="618" d="M224 -8T161 23T65 111T31 244Q31 330 66 392T164 488T312 522Q396 522 458 491T554 402T588 270Q588 183 554 121T456 25T309 -8Q224 -8 161 23ZM360 126T384 167T409 274Q409 331 386 358T314
386Q259 386 235 345T210 241Q210 182 233 154T306 126Q360 126 384 167ZM279 573L140 781H302L389 573H279Z" />
<glyph unicode="&#xf3;" glyph-name="oacute" horiz-adv-x="618" d="M224 -8T161 23T65 111T31 244Q31 330 66 392T164 488T312 522Q396 522 458 491T554 402T588 270Q588 183 554 121T456 25T309 -8Q224 -8 161 23ZM360 126T384 167T409 274Q409 331 386 358T314
386Q259 386 235 345T210 241Q210 182 233 154T306 126Q360 126 384 167ZM389 573H279L389 781H570L389 573Z" />
<glyph unicode="&#xf4;" glyph-name="ocircumflex" horiz-adv-x="618" d="M224 -8T161 23T65 111T31 244Q31 330 66 392T164 488T312 522Q396 522 458 491T554 402T588 270Q588 183 554 121T456 25T309 -8Q224 -8 161 23ZM360 126T384 167T409 274Q409 331 386
358T314 386Q259 386 235 345T210 241Q210 182 233 154T306 126Q360 126 384 167ZM284 573H145L297 781H402L523 573H390L342 679L284 573Z" />
<glyph unicode="&#xf5;" glyph-name="otilde" horiz-adv-x="618" d="M224 -8T161 23T65 111T31 244Q31 330 66 392T164 488T312 522Q396 522 458 491T554 402T588 270Q588 183 554 121T456 25T309 -8Q224 -8 161 23ZM360 126T384 167T409 274Q409 331 386 358T314
386Q259 386 235 345T210 241Q210 182 233 154T306 126Q360 126 384 167ZM159 682T194 720T277 759Q299 759 316 752T359 730Q393 709 412 709Q448 709 456 756H530Q524 673 489 635T406 596Q385 596 367 603T326 625Q307 636 296 641T272 646Q254 646 243 636T228
599H154Q159 682 194 720Z" />
<glyph unicode="&#xf6;" glyph-name="odieresis" horiz-adv-x="618" d="M224 -8T161 23T65 111T31 244Q31 330 66 392T164 488T312 522Q396 522 458 491T554 402T588 270Q588 183 554 121T456 25T309 -8Q224 -8 161 23ZM360 126T384 167T409 274Q409 331 386 358T314
386Q259 386 235 345T210 241Q210 182 233 154T306 126Q360 126 384 167ZM167 751H328L316 599H154L167 751ZM368 751H529L515 599H355L368 751Z" />
<glyph unicode="&#xf7;" glyph-name="divide" horiz-adv-x="600" d="M242 414L253 544H382L373 414H242ZM555 351L545 230H54L63 351H555ZM212 29L222 160H352L341 29H212Z" />
<glyph unicode="&#xf8;" glyph-name="oslash" horiz-adv-x="618" d="M543 430T565 380T588 270Q588 183 554 121T456 25T309 -8Q249 -8 201 7L149 -71L70 -23L118 50Q76 83 54 132T31 244Q31 330 66 392T164 488T312 522Q370 522 421 506L472 583L549 535L502
463Q543 430 565 380ZM207 214T212 191L341 385Q323 387 314 387Q256 387 232 347T207 241Q207 214 212 191ZM364 125T389 166T414 274Q414 300 409 322L280 127Q296 125 306 125Q364 125 389 166Z" />
<glyph unicode="&#xf9;" glyph-name="ugrave" horiz-adv-x="619" d="M585 508L545 0H368L373 57Q347 26 306 9T216 -8Q133 -8 90 38T47 173Q47 185 49 211L71 508H254L230 222Q227 178 243 155T295 131Q333 131 355 157T380 230L404 508H585ZM278 573L139 781H301L388
573H278Z" />
<glyph unicode="&#xfa;" glyph-name="uacute" horiz-adv-x="619" d="M585 508L545 0H368L373 57Q347 26 306 9T216 -8Q133 -8 90 38T47 173Q47 185 49 211L71 508H254L230 222Q227 178 243 155T295 131Q333 131 355 157T380 230L404 508H585ZM388 573H278L388
781H569L388 573Z" />
<glyph unicode="&#xfb;" glyph-name="ucircumflex" horiz-adv-x="619" d="M585 508L545 0H368L373 57Q347 26 306 9T216 -8Q133 -8 90 38T47 173Q47 185 49 211L71 508H254L230 222Q227 178 243 155T295 131Q333 131 355 157T380 230L404 508H585ZM283 573H144L296
781H401L522 573H389L341 679L283 573Z" />
<glyph unicode="&#xfc;" glyph-name="udieresis" horiz-adv-x="619" d="M585 508L545 0H368L373 57Q347 26 306 9T216 -8Q133 -8 90 38T47 173Q47 185 49 211L71 508H254L230 222Q227 178 243 155T295 131Q333 131 355 157T380 230L404 508H585ZM166 751H327L315
599H153L166 751ZM367 751H528L514 599H354L367 751Z" />
<glyph unicode="&#xfd;" glyph-name="yacute" horiz-adv-x="559" d="M602 508L323 -18Q269 -121 197 -168T22 -228L-9 -91Q61 -76 98 -54T156 7L172 36L2 508H185L281 219L420 508H602ZM361 573H251L361 781H542L361 573Z" />
<glyph unicode="&#xfe;" glyph-name="thorn" horiz-adv-x="645" d="M464 522T513 493T589 408T616 277Q616 194 585 129T499 28T371 -8Q274 -8 221 61L198 -216H17L92 728H273L252 455Q277 486 315 504T400 522Q464 522 513 493ZM381 126T408 162T436 263Q436
323 411 354T336 386Q289 386 262 349T234 251Q234 189 259 158T331 126Q381 126 408 162Z" />
<glyph unicode="&#xff;" glyph-name="ydieresis" horiz-adv-x="559" d="M602 508L323 -18Q269 -121 197 -168T22 -228L-9 -91Q61 -76 98 -54T156 7L172 36L2 508H185L281 219L420 508H602ZM139 751H300L288 599H126L139 751ZM340 751H501L487 599H327L340 751Z" />
<glyph unicode="&#x2013;" glyph-name="endash" horiz-adv-x="505" d="M-2 220L5 323H510L503 220H-2Z" />
<glyph unicode="&#x2014;" glyph-name="emdash" horiz-adv-x="1010" d="M-2 220L5 323H1015L1008 220H-2Z" />
<glyph unicode="&#x2018;" glyph-name="quoteleft" horiz-adv-x="276" d="M257 564L242 378H55L64 494Q69 559 96 611T184 721L247 667Q190 612 172 564H257Z" />
<glyph unicode="&#x2019;" glyph-name="quoteright" horiz-adv-x="276" d="M269 712L258 596Q253 530 226 478T138 369L76 423Q106 452 124 476T151 526H65L80 712H269Z" />
<glyph unicode="&#x201a;" glyph-name="quotesinglbase" horiz-adv-x="276" d="M227 186L219 75Q214 7 186 -47T98 -157L33 -103Q92 -50 109 0H24L39 186H227Z" />
<glyph unicode="&#x201c;" glyph-name="quotedblleft" horiz-adv-x="502" d="M257 564L242 378H55L64 494Q69 559 96 611T184 721L247 667Q190 612 172 564H257ZM483 564L468 378H281L290 494Q295 559 322 611T410 721L473 667Q416 612 398 564H483Z" />
<glyph unicode="&#x201d;" glyph-name="quotedblright" horiz-adv-x="502" d="M269 712L258 596Q253 530 226 478T138 369L76 423Q106 452 124 476T151 526H65L80 712H269ZM495 712L484 596Q479 530 452 478T364 369L302 423Q332 452 350 476T377 526H291L306 712H495Z" />
<glyph unicode="&#x201e;" glyph-name="quotedblbase" horiz-adv-x="502" d="M227 186L219 75Q214 7 186 -47T98 -157L33 -103Q92 -50 109 0H24L39 186H227ZM453 186L445 75Q440 7 412 -47T324 -157L259 -103Q318 -50 335 0H250L265 186H453Z" />
<glyph unicode="&#x2022;" glyph-name="bullet" horiz-adv-x="529" d="M217 89T175 112T108 177T83 268Q83 314 107 355T173 422T266 447Q314 447 356 424T423 359T448 268Q448 219 424 178T357 113T266 89Q217 89 175 112Z" />
<glyph unicode="&#x2039;" glyph-name="guilsinglleft" horiz-adv-x="324" d="M144 84L21 267L172 452H320L174 268L291 84H144Z" />
<glyph unicode="&#x203a;" glyph-name="guilsinglright" horiz-adv-x="321" d="M155 84H9L153 268L36 452H185L304 267L155 84Z" />
</font>
</defs>
</svg>
