<?xml version="1.0" standalone="no"?>
<!DOCTYPE svg PUBLIC "-//W3C//DTD SVG 1.1//EN" "http://www.w3.org/Graphics/SVG/1.1/DTD/svg11.dtd">
<svg xmlns="http://www.w3.org/2000/svg">
<defs >
<font id="Muli" horiz-adv-x="580" ><font-face
    font-family="Muli"
    units-per-em="1000"
    panose-1="0 0 8 0 0 0 0 0 0 0"
    ascent="1005"
    descent="-250"
    alphabetic="0" />
<glyph unicode=" " glyph-name="space" horiz-adv-x="274" />
<glyph unicode="!" glyph-name="exclam" horiz-adv-x="251" d="M85 214V713L239 712L161 214H85ZM47 140H187L176 0H36L47 140Z" />
<glyph unicode="&quot;" glyph-name="quotedbl" horiz-adv-x="455" d="M95 419L86 712H232L178 419H95ZM306 419L297 712H443L389 419H306Z" />
<glyph unicode="#" glyph-name="numbersign" horiz-adv-x="606" d="M580 466H493L435 255H541L535 173H413L365 0H278L326 173H198L150 0H63L111 173H38L45 255H133L191 466H83L89 547H214L259 712H346L301 547H429L474 712H561L516 547H586L580 466ZM348 255L406
466H278L220 255H348Z" />
<glyph unicode="$" glyph-name="dollar" horiz-adv-x="600" d="M428 376T469 356T538 299T566 206Q566 119 505 62T341 -7L332 -116H230L238 -7Q101 5 21 76L72 170Q113 136 157 119T254 96L270 305Q208 325 166 347T95 407T66 503Q66 562 95 609T176 685T296
720L305 828H407L399 717Q458 709 506 689T587 637L535 543Q470 600 384 614L367 395Q428 376 469 356ZM195 483T217 462T280 424L295 616Q248 608 222 582T195 515Q195 483 217 462ZM388 106T412 131T436 196Q436 224 416 242T357 276L343 98Q388 106 412 131Z"
/>
<glyph unicode="%" glyph-name="percent" horiz-adv-x="955" d="M155 288T110 339T64 484Q64 595 113 659T249 723Q334 723 379 672T425 526Q425 413 377 351T240 288Q155 288 110 339ZM307 0H197L665 712H775L307 0ZM280 369T300 412T320 538Q320 591 303 616T249
642Q169 642 169 472Q169 419 186 394T239 369Q280 369 300 412ZM638 -7T593 44T547 189Q547 301 596 364T732 428Q817 428 862 378T908 232Q908 119 860 56T723 -7Q638 -7 593 44ZM763 74T783 117T803 243Q803 296 786 321T732 347Q653 347 653 177Q653 124 669
99T723 74Q763 74 783 117Z" />
<glyph unicode="&amp;" glyph-name="ampersand" horiz-adv-x="688" d="M632 -9Q547 23 494 73Q402 -8 281 -8Q209 -8 154 16T68 85T37 185Q37 256 78 306T198 399Q163 441 147 477T131 550Q131 625 184 671T323 718Q405 718 453 677T502 568Q502 509 469 465T358
379L494 231Q538 312 549 428H655Q640 267 566 155Q620 104 701 77L632 -9ZM290 632T268 610T245 550Q245 527 256 505T296 447Q354 478 376 503T399 562Q399 594 380 613T327 632Q290 632 268 610ZM159 145T193 117T286 89Q365 89 428 144L260 330Q209 302 184
270T159 193Q159 145 193 117Z" />
<glyph unicode="&apos;" glyph-name="quotesingle" horiz-adv-x="244" d="M95 419L86 712H232L178 419H95Z" />
<glyph unicode="(" glyph-name="parenleft" horiz-adv-x="355" d="M145 -81T123 9T101 193Q101 229 104 266Q113 382 150 490T263 712H366Q300 579 271 476T233 266Q229 206 229 178Q229 97 243 11T292 -182H194Q145 -81 123 9Z" />
<glyph unicode=")" glyph-name="parenright" horiz-adv-x="356" d="M-7 -182Q59 -48 88 55T126 266Q129 310 129 353Q129 435 115 521T65 712H165Q214 616 236 525T258 338Q258 302 255 266Q246 150 209 44T95 -182H-7Z" />
<glyph unicode="*" glyph-name="asterisk" horiz-adv-x="457" d="M156 346L89 398L189 511L51 550L85 634L217 582L222 728H310L291 583L432 634L454 550L309 511L392 398L317 346L247 468L156 346Z" />
<glyph unicode="+" glyph-name="plus" horiz-adv-x="600" d="M553 333L546 244H344L328 42H240L256 244H54L61 333H263L279 535H367L351 333H553Z" />
<glyph unicode="," glyph-name="comma" horiz-adv-x="251" d="M187 140L180 49Q176 -4 155 -47T87 -134L38 -93Q88 -45 101 0H36L47 140H187Z" />
<glyph unicode="-" glyph-name="hyphen" horiz-adv-x="438" d="M67 220L75 320H376L368 220H67Z" />
<glyph unicode="." glyph-name="period" horiz-adv-x="251" d="M47 140H187L176 0H36L47 140Z" />
<glyph unicode="/" glyph-name="slash" horiz-adv-x="315" d="M58 -59H-47L275 753H380L58 -59Z" />
<glyph unicode="0" glyph-name="zero" horiz-adv-x="600" d="M173 -8T110 72T47 307Q47 437 79 529T174 671T323 720Q444 720 507 640T571 405Q571 275 539 183T444 41T294 -8Q173 -8 110 72ZM369 93T406 177T444 423Q444 524 414 571T321 619Q249 619 212 535T174
289Q174 188 204 141T297 93Q369 93 406 177Z" />
<glyph unicode="1" glyph-name="one" horiz-adv-x="600" d="M385 105H541L532 0H93L102 105H256L293 564L141 477L150 592L358 712H433L385 105Z" />
<glyph unicode="2" glyph-name="two" horiz-adv-x="600" d="M224 105H538L529 0H52L60 95L322 355Q373 405 396 446T419 526Q419 570 392 594T313 618Q217 618 116 544L81 638Q127 678 190 699T325 721Q427 721 487 669T547 527Q547 468 517 414T412 287L224 105Z" />
<glyph unicode="3" glyph-name="three" horiz-adv-x="600" d="M473 347T505 308T537 209Q537 145 506 96T416 20T276 -8Q203 -8 139 14T27 75L77 169Q172 95 278 95Q343 95 378 124T414 209Q414 260 381 284T281 309H189L197 412H278Q346 412 383 442T421 527Q421
570 392 594T311 618Q213 618 116 544L81 638Q125 676 190 698T325 721Q390 721 440 699T519 637T547 542Q547 479 513 433T417 364Q473 347 505 308Z" />
<glyph unicode="4" glyph-name="four" horiz-adv-x="600" d="M576 240L568 139H467L456 0H330L341 139H30L37 235L406 712H512L475 240H576ZM163 240H349L369 508L163 240Z" />
<glyph unicode="5" glyph-name="five" horiz-adv-x="600" d="M410 455T459 429T535 356T562 246Q562 169 529 112T436 23T296 -8Q224 -8 160 13T48 75L99 169Q189 95 295 95Q362 95 400 132T439 233Q439 289 405 321T310 354Q267 354 230 339T166 293H88L121 712H567L559
612H240L224 422Q278 455 347 455Q410 455 459 429Z" />
<glyph unicode="6" glyph-name="six" horiz-adv-x="600" d="M409 455T457 428T533 351T560 238Q560 167 529 111T443 23T318 -9Q188 -9 118 72T48 304Q48 430 86 524T193 670T357 721Q421 721 482 700T593 638L542 544Q498 580 452 599T362 618Q282 618 235 553T178
362Q203 405 247 430T346 455Q409 455 457 428ZM369 93T403 131T437 232Q437 288 404 321T316 354Q260 354 224 316T188 218Q188 162 223 128T314 93Q369 93 403 131Z" />
<glyph unicode="7" glyph-name="seven" horiz-adv-x="600" d="M89 712H585L578 616L213 0H77L437 607H81L89 712Z" />
<glyph unicode="8" glyph-name="eight" horiz-adv-x="600" d="M491 349T527 304T563 197Q563 133 528 87T430 17T287 -8Q166 -8 97 43T28 184Q28 252 71 300T191 367Q136 386 104 428T72 526Q72 587 105 631T198 698T335 721Q405 721 458 700T542 638T572 543Q572
479 533 432T428 366Q491 349 527 304ZM194 466T226 438T312 401Q377 411 412 442T448 525Q448 571 416 595T327 620Q264 620 229 593T194 514Q194 466 226 438ZM359 93T400 123T442 207Q442 254 407 282T306 319Q151 300 151 197Q151 146 188 120T291 93Q359 93
400 123Z" />
<glyph unicode="9" glyph-name="nine" horiz-adv-x="600" d="M430 721T500 640T570 408Q570 282 533 188T426 42T262 -9Q197 -9 135 12T25 74L76 168Q120 132 166 113T256 94Q335 94 383 159T440 350Q415 307 371 282T272 257Q209 257 161 284T85 361T58 474Q58
545 89 601T175 689T300 721Q430 721 500 640ZM358 358T394 395T430 494Q430 550 397 584T308 619Q251 619 216 581T181 480Q181 424 214 391T302 358Q358 358 394 395Z" />
<glyph unicode=":" glyph-name="colon" horiz-adv-x="252" d="M75 494H215L204 355H64L75 494ZM47 140H188L177 0H37L47 140Z" />
<glyph unicode=";" glyph-name="semicolon" horiz-adv-x="251" d="M75 494H215L204 355H64L75 494ZM47 140H187L180 49Q176 -4 155 -47T87 -134L38 -93Q88 -45 101 0H36L47 140Z" />
<glyph unicode="&lt;" glyph-name="less" horiz-adv-x="600" d="M571 545L563 449L168 288L537 128L529 32L54 241L61 337L571 545Z" />
<glyph unicode="=" glyph-name="equal" horiz-adv-x="600" d="M561 434L554 345H62L68 434H561ZM544 232L538 143H46L53 232H544Z" />
<glyph unicode="&gt;" glyph-name="greater" horiz-adv-x="600" d="M78 545L554 337L546 241L36 32L44 128L440 288L70 449L78 545Z" />
<glyph unicode="?" glyph-name="question" horiz-adv-x="463" d="M185 251Q189 307 212 345T278 428Q312 465 328 490T344 548Q344 582 321 600T256 618Q186 618 114 575L122 685Q156 702 197 711T277 721Q365 721 419 678T473 565Q473 525 458 493T422 437T363
378Q319 338 295 308T262 238L255 210H182L185 251ZM133 0L144 140H285L274 0H133Z" />
<glyph unicode="@" glyph-name="at" horiz-adv-x="943" d="M354 -158T255 -104T103 47T49 271Q49 408 106 509T262 664T488 718Q619 718 713 668T855 532T904 345Q904 253 876 190T801 96T697 64Q643 64 611 87T573 151H571Q514 64 422 64Q350 64 309 112T267
244Q267 315 294 374T369 469T480 504Q523 504 556 485T601 432H603L614 494H707L662 243Q658 222 658 200Q658 168 671 154T714 139Q737 139 760 159T800 226T816 345Q816 428 779 494T668 599T488 638Q389 638 311 595T187 468T142 271Q142 166 183 88T302 -34T487
-77Q566 -77 622 -57T707 0H828Q787 -72 699 -115T487 -158Q354 -158 255 -104ZM486 139T518 166T566 236T583 327Q583 377 560 403T495 429Q453 429 423 402T376 333T360 245Q360 196 382 168T442 139Q486 139 518 166Z" />
<glyph unicode="A" glyph-name="A" horiz-adv-x="750" d="M604 0L545 167H198L114 0H-19L358 712H464L730 0H604ZM249 267H510L403 572L249 267Z" />
<glyph unicode="B" glyph-name="B" horiz-adv-x="690" d="M581 350T611 307T642 204Q642 107 574 54T388 0H59L114 712H417Q531 712 591 665T651 535Q651 411 524 365Q581 350 611 307ZM234 612L218 412H386Q456 412 491 438T526 518Q526 612 398 612H234ZM451
100T485 126T520 210Q520 261 489 286T391 311H210L193 100H379Q451 100 485 126Z" />
<glyph unicode="C" glyph-name="C" horiz-adv-x="685" d="M288 -9T215 32T103 149T63 330Q63 448 107 536T233 673T424 721Q499 721 562 700T673 636L622 542Q576 581 531 598T428 616Q317 616 256 540T194 329Q194 217 246 157T395 96Q493 96 593 170L629 76Q587
36 523 14T387 -9Q288 -9 215 32Z" />
<glyph unicode="D" glyph-name="D" horiz-adv-x="761" d="M114 712H374Q481 712 558 673T675 559T716 382Q716 262 672 176T542 45T337 0H59L114 712ZM327 105Q586 105 586 383Q586 493 529 550T359 607H235L195 105H327Z" />
<glyph unicode="E" glyph-name="E" horiz-adv-x="595" d="M583 610H233L217 413H547L538 311H209L193 102H542L534 0H59L114 712H590L583 610Z" />
<glyph unicode="F" glyph-name="F" horiz-adv-x="572" d="M572 609H235L219 414H536L528 310H211L186 0H59L114 712H580L572 609Z" />
<glyph unicode="G" glyph-name="G" horiz-adv-x="739" d="M412 385H682L656 44Q607 19 539 5T399 -9Q294 -9 218 31T103 147T63 326Q63 446 108 535T236 672T432 720Q590 720 686 636L635 542Q587 582 541 599T433 616Q319 615 257 539T194 328Q194 214 249 154T413
93Q481 93 545 114L558 292H405L412 385Z" />
<glyph unicode="H" glyph-name="H" horiz-adv-x="774" d="M606 712H733L677 0H550L574 309H210L185 0H59L114 712H242L218 414H583L606 712Z" />
<glyph unicode="I" glyph-name="I" horiz-adv-x="283" d="M59 0L114 712H243L187 0H59Z" />
<glyph unicode="J" glyph-name="J" horiz-adv-x="361" d="M-27 -73Q18 -80 41 -80Q89 -80 111 -56T137 30L191 712H320L267 30Q258 -82 208 -134T57 -187Q10 -187 -35 -179L-27 -73Z" />
<glyph unicode="K" glyph-name="K" horiz-adv-x="666" d="M716 712L345 365L677 0H524L214 333L188 0H59L114 712H244L219 394L556 712H716Z" />
<glyph unicode="L" glyph-name="L" horiz-adv-x="560" d="M59 0L114 712H244L195 106H528L520 0H59Z" />
<glyph unicode="M" glyph-name="M" horiz-adv-x="850" d="M705 712H808L752 0H638L672 437L449 0H364L209 436L174 0H60L115 712H218L418 151L705 712Z" />
<glyph unicode="N" glyph-name="N" horiz-adv-x="755" d="M593 712H714L658 0H560L218 496L179 0H59L114 712H210L553 218L593 712Z" />
<glyph unicode="O" glyph-name="O" horiz-adv-x="786" d="M294 -9T219 32T104 149T63 330Q63 447 105 535T226 672T408 721Q510 721 585 680T700 563T740 382Q740 265 698 177T577 40T395 -9Q294 -9 219 32ZM495 94T553 170T611 382Q611 496 558 557T409 618Q308
618 250 541T192 329Q192 216 244 155T395 94Q495 94 553 170Z" />
<glyph unicode="P" glyph-name="P" horiz-adv-x="666" d="M526 712T588 659T650 518Q650 413 582 355T392 297H211L187 0H59L114 712H415Q526 712 588 659ZM453 397T490 426T527 512Q527 560 496 586T400 612H236L219 397H382Q453 397 490 426Z" />
<glyph unicode="Q" glyph-name="Q" horiz-adv-x="786" d="M565 -49T645 -121L552 -191Q507 -157 469 -110T403 -9H395Q294 -9 219 32T104 149T63 330Q63 447 105 535T226 672T408 721Q510 721 585 680T700 563T740 382Q740 247 685 151T531 16Q565 -49 645 -121ZM192
216T244 155T395 94Q495 94 553 170T611 382Q611 496 558 557T409 618Q308 618 250 541T192 329Q192 216 244 155Z" />
<glyph unicode="R" glyph-name="R" horiz-adv-x="702" d="M525 303T544 281T576 217L644 0H508L436 237Q426 270 401 283T334 296H210L187 0H59L114 712H430Q540 712 600 660T661 518Q661 436 620 383T497 312Q525 303 544 281ZM399 396Q539 396 539 511Q539 612
416 612H234L217 396H399Z" />
<glyph unicode="S" glyph-name="S" horiz-adv-x="644" d="M229 -9T157 12T30 76L80 170Q135 130 192 112T316 93Q390 93 429 118T468 189Q468 219 448 238T396 270T310 298Q236 320 190 340T110 401T76 507Q76 571 111 619T210 694T360 721Q436 721 504 699T615
636L565 542Q519 579 466 599T357 619Q284 619 244 592T204 517Q204 485 225 464T279 430T368 401Q441 380 486 360T564 302T597 202Q597 103 522 47T312 -9Q229 -9 157 12Z" />
<glyph unicode="T" glyph-name="T" horiz-adv-x="619" d="M225 0L273 606H40L48 712H643L635 606H403L355 0H225Z" />
<glyph unicode="U" glyph-name="U" horiz-adv-x="740" d="M220 -9T148 58T75 254Q75 267 77 295L109 712H237L203 293Q202 282 202 261Q202 176 243 135T367 94Q447 94 491 137T543 276L577 712H704L670 285Q659 139 582 65T362 -9Q220 -9 148 58Z" />
<glyph unicode="V" glyph-name="V" horiz-adv-x="721" d="M634 712H767L394 0H289L27 712H161L355 162L634 712Z" />
<glyph unicode="W" glyph-name="W" horiz-adv-x="1120" d="M1009 712H1133L826 0H721L581 513L361 0H256L61 712H190L327 182L554 712H646L784 177L1009 712Z" />
<glyph unicode="X" glyph-name="X" horiz-adv-x="671" d="M707 712L416 361L660 0H512L338 264L124 0H-28L272 364L37 712H185L351 460L554 712H707Z" />
<glyph unicode="Y" glyph-name="Y" horiz-adv-x="629" d="M704 712L382 282L360 0H230L253 283L-2 712H142L323 385L556 712H704Z" />
<glyph unicode="Z" glyph-name="Z" horiz-adv-x="608" d="M598 712L591 619L187 103H561L553 0H29L36 94L440 609H77L85 712H598Z" />
<glyph unicode="[" glyph-name="bracketleft" horiz-adv-x="353" d="M74 -182L144 712H378L371 617H260L204 -87H316L308 -182H74Z" />
<glyph unicode="\" glyph-name="backslash" horiz-adv-x="315" d="M211 -59L15 753H120L315 -59H211Z" />
<glyph unicode="]" glyph-name="bracketright" horiz-adv-x="353" d="M212 -182H-21L-14 -87H98L152 617H41L49 712H282L212 -182Z" />
<glyph unicode="^" glyph-name="asciicircum" horiz-adv-x="600" d="M548 143H454L323 524L134 143H35L284 636H379L548 143Z" />
<glyph unicode="_" glyph-name="underscore" horiz-adv-x="505" d="M-13 -75L-7 0H474L468 -75H-13Z" />
<glyph unicode="`" glyph-name="grave" horiz-adv-x="300" d="M136 559L9 765H129L216 559H136Z" />
<glyph unicode="a" glyph-name="a" horiz-adv-x="619" d="M571 505L531 0H408L414 70Q388 33 347 13T256 -8Q192 -8 144 21T68 106T41 236Q41 319 71 383T155 482T280 518Q336 518 377 495T442 430L448 505H571ZM357 89T393 137T429 267Q429 342 396 381T302 421Q238
421 202 373T166 241Q166 168 199 129T295 89Q357 89 393 137Z" />
<glyph unicode="b" glyph-name="b" horiz-adv-x="620" d="M429 518T478 489T554 404T581 274Q581 191 551 127T467 28T341 -8Q285 -8 243 15T178 81L172 0H48L107 736H231L207 440Q232 477 273 497T365 518Q429 518 478 489ZM383 89T419 136T455 268Q455 341 422
381T327 421Q264 421 228 373T191 242Q191 167 224 128T319 89Q383 89 419 136Z" />
<glyph unicode="c" glyph-name="c" horiz-adv-x="503" d="M216 -8T159 22T71 108T40 238Q40 324 73 387T168 484T312 518Q429 518 504 454L461 366Q390 420 317 420Q247 420 208 373T169 239Q169 168 204 129T302 90Q341 90 375 103T444 143L472 56Q439 26 392
9T293 -8Q216 -8 159 22Z" />
<glyph unicode="d" glyph-name="d" horiz-adv-x="619" d="M590 736L531 0H408L414 71Q389 34 347 13T255 -8Q192 -8 143 21T67 106T40 235Q40 318 70 382T154 482T280 518Q335 518 376 496T441 432L465 736H590ZM357 89T393 137T429 267Q429 342 396 381T302 421Q238
421 202 373T165 242Q165 169 199 129T295 89Q357 89 393 137Z" />
<glyph unicode="e" glyph-name="e" horiz-adv-x="548" d="M161 246V240Q161 166 197 127T302 88Q389 88 458 141L486 56Q454 26 402 9T295 -8Q218 -8 160 22T71 109T40 239Q40 320 72 383T162 482T293 518Q394 518 452 460T511 295Q511 272 508 246H161ZM192 429T168
313H406Q407 368 378 398T299 429Q192 429 168 313Z" />
<glyph unicode="f" glyph-name="f" horiz-adv-x="367" d="M258 639T251 550L247 505H382L374 411H240L207 0H82L114 411H18L26 505H122L126 557Q134 646 183 694T316 743Q362 743 394 731L387 632Q359 639 338 639Q258 639 251 550Z" />
<glyph unicode="g" glyph-name="g" horiz-adv-x="623" d="M575 505L536 20Q526 -105 460 -164T270 -224Q150 -224 60 -175L88 -79Q134 -105 178 -116T274 -128Q401 -128 413 7L420 90Q395 54 353 34T259 14Q194 14 145 43T68 125T41 248Q41 326 71 387T156 483T282
518Q339 518 381 496T446 431L452 505H575ZM361 112T398 156T435 278Q435 347 401 384T304 421Q240 421 203 376T166 252Q166 185 200 149T297 112Q361 112 398 156Z" />
<glyph unicode="h" glyph-name="h" horiz-adv-x="603" d="M456 518T499 472T543 336Q543 317 542 307L517 0H393L417 301Q418 308 418 321Q418 369 395 394T325 419Q267 419 234 384T196 286L173 0H48L106 736H231L208 443Q235 479 277 498T371 518Q456 518 499 472Z" />
<glyph unicode="i" glyph-name="i" horiz-adv-x="261" d="M48 0L88 505H213L173 0H48ZM98 734H237L228 611H89L98 734Z" />
<glyph unicode="j" glyph-name="j" horiz-adv-x="261" d="M-62 -119T-42 -119Q38 -119 46 -30L88 505H213L170 -36Q163 -126 114 -174T-20 -222Q-65 -222 -98 -211L-90 -112Q-62 -119 -42 -119ZM97 734H236L227 611H88L97 734Z" />
<glyph unicode="k" glyph-name="k" horiz-adv-x="551" d="M573 504L326 261L550 0H397L192 236L173 0H48L106 736H231L195 281L417 504H573Z" />
<glyph unicode="l" glyph-name="l" horiz-adv-x="261" d="M48 0L107 736H232L173 0H48Z" />
<glyph unicode="m" glyph-name="m" horiz-adv-x="899" d="M758 518T799 472T840 338Q840 318 839 308L815 0H690L714 304Q715 312 715 327Q715 374 695 396T634 419Q582 419 552 384T516 280L494 0H369L393 302Q394 310 394 324Q394 372 374 395T313 419Q260 419
230 384T195 280L173 0H48L77 362Q81 430 81 465Q81 492 80 505H197L199 433Q254 518 360 518Q416 518 453 495T507 428Q535 471 579 494T678 518Q758 518 799 472Z" />
<glyph unicode="n" glyph-name="n" horiz-adv-x="603" d="M456 518T499 472T543 336Q543 317 542 307L517 0H393L417 301Q418 308 418 321Q418 369 395 394T325 419Q267 419 234 384T196 286L173 0H48L77 362Q81 403 81 457Q81 489 80 505H197L199 430Q225 472
269 495T371 518Q456 518 499 472Z" />
<glyph unicode="o" glyph-name="o" horiz-adv-x="592" d="M216 -8T159 22T71 109T40 240Q40 324 72 387T164 484T301 518Q377 518 434 487T521 400T552 270Q552 185 520 122T430 26T293 -8Q216 -8 159 22ZM359 89T393 139T428 274Q428 345 396 383T302 421Q235
421 200 371T165 237Q165 89 293 89Q359 89 393 139Z" />
<glyph unicode="p" glyph-name="p" horiz-adv-x="620" d="M428 518T477 489T553 404T580 274Q580 191 550 127T466 28T340 -8Q285 -8 244 14T179 78L155 -216H31L77 362Q81 403 81 457Q81 489 80 505H197L199 428Q223 470 267 494T365 518Q428 518 477 489ZM383
89T418 136T454 268Q454 342 421 381T326 421Q263 421 227 373T191 242Q191 167 224 128T319 89Q383 89 418 136Z" />
<glyph unicode="q" glyph-name="q" horiz-adv-x="619" d="M579 505Q567 441 560 362L514 -216H389L411 68Q386 32 345 12T255 -8Q191 -8 143 21T67 106T40 236Q40 319 70 383T154 482T279 518Q337 518 380 493T447 421L462 505H579ZM356 89T392 137T429 267Q429
342 396 381T301 421Q238 421 202 373T165 241Q165 168 198 129T294 89Q356 89 392 137Z" />
<glyph unicode="r" glyph-name="r" horiz-adv-x="392" d="M390 517T411 509L401 396Q373 408 336 408Q271 408 235 372T195 273L173 0H48L77 362Q81 430 81 465Q81 492 80 505H197L199 428Q221 470 264 493T360 517Q390 517 411 509Z" />
<glyph unicode="s" glyph-name="s" horiz-adv-x="501" d="M117 -8T19 56L62 143Q147 84 243 84Q340 84 340 140Q340 166 315 179T233 210Q180 225 145 240T86 283T61 358Q61 430 119 474T273 518Q329 518 381 501T468 454L426 369Q351 426 271 426Q224 426 199
411T174 367Q174 340 199 327T282 296Q337 280 371 266T429 222T454 147Q454 74 396 33T240 -8Q117 -8 19 56Z" />
<glyph unicode="t" glyph-name="t" horiz-adv-x="379" d="M222 185Q215 96 297 96Q320 96 349 103L341 5Q308 -7 259 -7Q180 -7 138 34T96 155Q96 170 97 178L115 411H18L26 505H122L132 628L260 670L247 505H382L374 411H240L222 185Z" />
<glyph unicode="u" glyph-name="u" horiz-adv-x="596" d="M548 505L508 0H387L393 72Q367 34 325 13T230 -8Q147 -8 104 37T60 170Q60 190 61 201L85 505H210L186 209L185 190Q185 91 276 91Q330 91 362 126T400 224L423 505H548Z" />
<glyph unicode="v" glyph-name="v" horiz-adv-x="543" d="M440 504H566L305 0H196L18 504H144L264 144L440 504Z" />
<glyph unicode="w" glyph-name="w" horiz-adv-x="883" d="M767 505H892L654 0H545L445 330L297 0H188L30 505H155L258 150L415 505H506L609 147L767 505Z" />
<glyph unicode="x" glyph-name="x" horiz-adv-x="549" d="M566 505L348 259L538 0H392L270 173L121 0H-29L203 261L23 505H169L280 348L416 505H566Z" />
<glyph unicode="y" glyph-name="y" horiz-adv-x="543" d="M567 505L287 -34Q239 -128 175 -171T19 -228L-2 -131Q69 -116 106 -92T170 -19L190 18L18 505H145L265 145L441 505H567Z" />
<glyph unicode="z" glyph-name="z" horiz-adv-x="526" d="M497 505L490 420L188 94H476L468 0H29L36 87L337 411H68L75 505H497Z" />
<glyph unicode="{" glyph-name="braceleft" horiz-adv-x="391" d="M415 712L408 617H366Q336 617 315 594T290 529L278 379Q274 334 248 303T189 265Q221 258 242 228T260 151L248 1Q245 -41 263 -64T310 -87H353L346 -182H284Q206 -182 165 -146T123 -41L124
-22L134 123Q135 132 135 148Q135 183 122 200T78 225L43 236L47 294L85 305Q122 315 138 336T158 407L169 552Q175 630 223 671T354 712H415Z" />
<glyph unicode="|" glyph-name="bar" horiz-adv-x="281" d="M48 -182L119 712H236L165 -182H48Z" />
<glyph unicode="}" glyph-name="braceright" horiz-adv-x="391" d="M352 294L348 236L310 225Q273 215 257 194T237 123L226 -22Q219 -101 172 -141T40 -182H-21L-14 -87H28Q58 -87 79 -64T104 1L116 151Q120 197 146 227T206 265Q174 272 152 302T134 379L146
529Q150 571 132 594T84 617H41L49 712H110Q187 712 229 676T272 570L271 552L260 407Q259 398 259 383Q259 347 272 330T317 305L352 294Z" />
<glyph unicode="~" glyph-name="asciitilde" horiz-adv-x="600" d="M553 315Q531 266 493 238T408 210Q378 210 351 221T282 253Q251 269 234 276T200 284Q172 284 153 268T119 220L56 263Q77 312 115 340T199 368Q230 368 258 357T325 326Q355 310 373 303T407
295Q460 295 488 357L553 315Z" />
<glyph unicode="&#xa0;" glyph-name="uni00A0" horiz-adv-x="274" />
<glyph unicode="&#xa1;" glyph-name="exclamdown" horiz-adv-x="251" d="M64 355L75 494H214L204 355H64ZM89 280H165L169 -181L13 -182L89 280Z" />
<glyph unicode="&#xa2;" glyph-name="cent" horiz-adv-x="620" d="M518 56Q492 33 458 18T384 -4L375 -119H273L282 -3Q191 13 139 77T86 238Q86 358 150 432T323 516L332 628H434L425 512Q498 497 549 454L506 366Q461 400 417 412L392 95Q442 105 490 143L518
56ZM214 186T233 151T290 100L315 414Q266 399 240 354T214 239Q214 186 233 151Z" />
<glyph unicode="&#xa3;" glyph-name="sterling" horiz-adv-x="600" d="M247 189T233 157T189 105H558L550 0H22L28 87Q77 110 97 139T123 220L130 316H47L53 397H136L146 522Q154 613 215 667T377 721Q444 721 504 699T607 637L557 543Q514 580 469 599T382 618Q333
618 306 592T274 513L265 397H434L428 316H258L252 240Q247 189 233 157Z" />
<glyph unicode="&#xa4;" glyph-name="currency" horiz-adv-x="600" d="M543 164T495 98L550 41L499 -9L445 47Q415 23 378 10T300 -3Q218 -3 155 46L100 -9L49 41L104 98Q56 164 56 247Q56 330 104 397L49 453L101 505L155 449Q220 498 300 498Q379 498 443 450L497
506L551 452L496 396Q543 328 543 247Q543 164 495 98ZM338 96T370 116T422 171T441 247Q441 288 422 323T371 378T300 399Q261 399 228 379T176 323T157 247Q157 206 176 172T227 117T300 96Q338 96 370 116Z" />
<glyph unicode="&#xa5;" glyph-name="yen" horiz-adv-x="600" d="M656 712L415 400H546L540 320H370L364 246H534L528 166H358L345 0H216L229 166H60L66 246H235L241 320H72L78 400H208L17 712H158L313 445L515 712H656Z" />
<glyph unicode="&#xa6;" glyph-name="brokenbar" horiz-adv-x="281" d="M93 375L119 712H236L210 375H93ZM49 -182L76 156H192L166 -182H49Z" />
<glyph unicode="&#xa7;" glyph-name="section" horiz-adv-x="569" d="M532 174T513 136T457 71Q473 39 473 1Q473 -88 411 -138T244 -189Q118 -189 30 -126L74 -38Q152 -94 241 -94Q293 -94 322 -71T351 -8Q351 19 336 39T284 79L170 140Q102 178 71 218T40 312Q40
357 59 395T115 462Q99 493 99 530Q99 618 163 668T329 719Q440 719 521 658L479 573Q413 625 331 625Q278 625 250 602T221 539Q221 513 237 493T288 453L402 391Q469 353 500 312T532 218Q532 174 513 136ZM352 171Q373 159 399 139Q416 166 416 193Q416 223
397 248T334 298L220 363Q189 381 174 394Q155 366 155 338Q155 309 175 284T237 234L352 171Z" />
<glyph unicode="&#xa8;" glyph-name="dieresis" horiz-adv-x="300" d="M36 719H157L148 604H27L36 719ZM221 719H342L332 604H212L221 719Z" />
<glyph unicode="&#xa9;" glyph-name="copyright" horiz-adv-x="823" d="M311 -5T229 43T99 173T51 357Q51 458 98 540T228 669T412 717Q513 717 595 670T725 540T773 357Q773 256 726 174T595 43T412 -5Q311 -5 229 43ZM497 51T566 91T674 201T713 357Q713 442
674 511T566 621T412 661Q326 661 257 621T149 512T110 357Q110 271 149 201T257 91T412 51Q497 51 566 91ZM325 138T268 197T210 357Q210 456 267 515T424 574Q469 574 509 561T579 523L548 445Q526 463 497 474T439 485Q385 485 355 452T325 357Q325 294 355
261T439 227Q468 227 497 238T548 267L579 189Q549 165 509 152T424 138Q325 138 268 197Z" />
<glyph unicode="&#xaa;" glyph-name="ordfeminine" horiz-adv-x="339" d="M274 717T305 687T337 598Q337 584 336 576L323 412H224L228 461Q202 407 139 407Q97 407 70 433T42 498Q42 546 81 567T209 588H236L237 601Q239 621 228 630T190 640Q166 640 140 634T92
615L77 688Q104 702 138 709T208 717Q274 717 305 687ZM198 476T214 491T232 529L233 539H204Q170 539 154 531T138 506Q138 493 148 485T175 476Q198 476 214 491Z" />
<glyph unicode="&#xab;" glyph-name="guillemotleft" horiz-adv-x="497" d="M145 86L25 267L174 450H281L137 268L251 86H145ZM353 86L233 267L382 450H489L345 268L459 86H353Z" />
<glyph unicode="&#xac;" glyph-name="logicalnot" horiz-adv-x="600" d="M562 435L538 142H449L464 347H62L69 435H562Z" />
<glyph unicode="&#xad;" glyph-name="uni00AD" horiz-adv-x="438" d="M67 220L75 320H376L368 220H67Z" />
<glyph unicode="&#xae;" glyph-name="registered" horiz-adv-x="823" d="M522 717T604 670T734 540T782 357Q782 256 735 174T604 43T421 -5Q321 -5 238 43T108 173T60 357Q60 458 107 540T237 669T421 717Q522 717 604 670ZM506 51T575 91T683 201T722 357Q722
443 683 512T575 621T421 661Q335 661 266 622T158 513T119 357Q119 271 158 201T267 91T421 51Q506 51 575 91ZM542 302T560 262L617 143H492L430 280Q424 293 416 298T395 303H361L348 143H237L271 570H456Q532 570 572 537T612 444Q612 393 584 358T503 311Q542
302 560 262ZM441 383Q504 383 504 438Q504 463 489 474T439 485H374L366 383H441Z" />
<glyph unicode="&#xaf;" glyph-name="overscore" horiz-adv-x="300" d="M25 620L32 702H343L336 620H25Z" />
<glyph unicode="&#xb0;" glyph-name="degree" horiz-adv-x="371" d="M169 417T134 436T79 490T59 567Q59 609 79 643T134 697T211 717Q253 717 288 698T343 644T363 567Q363 525 343 491T288 437T211 417Q169 417 134 436ZM244 485T266 508T289 567Q289 603 267
626T211 649Q177 649 155 626T132 567Q132 531 154 508T211 485Q244 485 266 508Z" />
<glyph unicode="&#xb1;" glyph-name="plusminus" horiz-adv-x="600" d="M355 380H558L550 292H348L335 136H247L260 292H58L65 380H267L279 535H367L355 380ZM34 0L41 88H534L527 0H34Z" />
<glyph unicode="&#xb2;" glyph-name="uni00B2" horiz-adv-x="380" d="M182 371H355L349 285H50L56 365L205 510Q230 536 241 554T252 591Q252 633 196 633Q170 633 140 623T83 594L67 672Q96 692 136 704T217 716Q283 716 322 685T362 601Q362 563 343 528T273
452L182 371Z" />
<glyph unicode="&#xb3;" glyph-name="uni00B3" horiz-adv-x="380" d="M322 493T340 469T358 411Q358 351 313 316T193 281Q149 281 106 293T34 325L62 403Q125 364 187 364Q220 364 238 377T257 415Q257 438 242 448T196 459H128L135 542H190Q259 542 259 592Q259
612 244 622T202 633Q142 633 83 594L67 672Q96 692 136 704T217 716Q284 716 323 686T362 606Q362 569 343 542T289 504Q322 493 340 469Z" />
<glyph unicode="&#xb4;" glyph-name="acute" horiz-adv-x="300" d="M216 559H136L249 765H383L216 559Z" />
<glyph unicode="&#xb5;" glyph-name="uni00B5" horiz-adv-x="596" d="M548 505L508 0H387L393 72Q367 34 325 13T230 -8Q194 -8 170 4L153 -216H28L85 505H210L186 209L185 190Q185 91 276 91Q330 91 362 127T400 224L423 505H548Z" />
<glyph unicode="&#xb6;" glyph-name="paragraph" horiz-adv-x="616" d="M506 -182H417L482 632H371L306 -182H217L255 285Q166 287 111 340T56 482Q56 550 83 602T164 683T290 712H577L506 -182Z" />
<glyph unicode="&#xb7;" glyph-name="middot" horiz-adv-x="251" d="M63 340H203L192 200H52L63 340Z" />
<glyph unicode="&#xb8;" glyph-name="cedilla" horiz-adv-x="300" d="M199 -40T221 -58T243 -109Q243 -148 210 -172T115 -197Q90 -197 64 -193T18 -179L34 -126Q77 -140 113 -140Q162 -140 162 -110Q162 -88 130 -88Q117 -88 91 -95L73 -76L92 20H165L152 -41Q156
-40 164 -40Q199 -40 221 -58Z" />
<glyph unicode="&#xb9;" glyph-name="uni00B9" horiz-adv-x="380" d="M281 371H361L353 285H87L94 371H173L191 595L113 553L121 654L230 712H309L281 371Z" />
<glyph unicode="&#xba;" glyph-name="ordmasculine" horiz-adv-x="365" d="M127 407T85 446T42 549Q42 626 89 671T217 717Q289 717 331 679T373 575Q373 498 325 453T198 407Q127 407 85 446ZM234 490T252 511T270 571Q270 601 255 618T213 635Q181 635 164 614T147
554Q147 524 162 507T203 490Q234 490 252 511Z" />
<glyph unicode="&#xbb;" glyph-name="guillemotright" horiz-adv-x="496" d="M120 86H14L156 268L40 450H148L267 267L120 86ZM328 86H222L364 268L248 450H356L475 267L328 86Z" />
<glyph unicode="&#xbc;" glyph-name="onequarter" horiz-adv-x="952" d="M281 371H361L353 285H87L94 371H173L191 595L113 553L121 654L230 712H309L281 371ZM288 -28L210 24L682 740L758 688L288 -28ZM933 152L927 72H867L861 0H763L769 72H578L584 148L808
427H894L873 152H933ZM675 152H775L786 290L675 152Z" />
<glyph unicode="&#xbd;" glyph-name="onehalf" horiz-adv-x="952" d="M281 371H361L353 285H87L94 371H173L191 595L113 553L121 654L230 712H309L281 371ZM288 -28L210 24L682 740L758 688L288 -28ZM731 86H904L898 0H599L605 80L754 225Q779 251 790 269T801
306Q801 348 745 348Q719 348 689 338T632 309L616 387Q645 407 685 419T766 431Q832 431 871 400T911 316Q911 278 892 243T822 167L731 86Z" />
<glyph unicode="&#xbe;" glyph-name="threequarters" horiz-adv-x="952" d="M322 493T340 469T358 411Q358 351 313 316T193 281Q149 281 106 293T34 325L62 403Q125 364 187 364Q220 364 238 377T257 415Q257 438 242 448T196 459H128L135 542H190Q259 542 259
592Q259 612 244 622T202 633Q142 633 83 594L67 672Q96 692 136 704T217 716Q284 716 323 686T362 606Q362 569 343 542T289 504Q322 493 340 469ZM288 -28L210 24L682 740L758 688L288 -28ZM933 152L927 72H867L861 0H763L769 72H578L584 148L808 427H894L873
152H933ZM675 152H775L786 290L675 152Z" />
<glyph unicode="&#xbf;" glyph-name="questiondown" horiz-adv-x="463" d="M179 355L190 494H330L319 355H179ZM276 -190T198 -190Q104 -190 49 -147T-7 -35Q-7 5 8 35T45 86T104 137Q147 170 170 195T201 256L208 284H282L279 243Q274 189 251 155T185 82Q152
53 137 32T121 -18Q121 -50 145 -68T210 -87Q277 -87 352 -45L343 -154Q276 -190 198 -190Z" />
<glyph unicode="&#xc0;" glyph-name="Agrave" horiz-adv-x="750" d="M604 0L545 167H198L114 0H-19L358 712H464L730 0H604ZM249 267H510L403 572L249 267ZM376 773L247 928H361L456 773H376Z" />
<glyph unicode="&#xc1;" glyph-name="Aacute" horiz-adv-x="750" d="M604 0L545 167H198L114 0H-19L358 712H464L730 0H604ZM249 267H510L403 572L249 267ZM456 773H376L488 928H616L456 773Z" />
<glyph unicode="&#xc2;" glyph-name="Acircumflex" horiz-adv-x="750" d="M604 0L545 167H198L114 0H-19L358 712H464L730 0H604ZM249 267H510L403 572L249 267ZM349 773H250L391 928H465L582 773H483L426 865L349 773Z" />
<glyph unicode="&#xc3;" glyph-name="Atilde" horiz-adv-x="750" d="M604 0L545 167H198L114 0H-19L358 712H464L730 0H604ZM249 267H510L403 572L249 267ZM250 854T281 887T359 920Q378 920 395 912T435 890Q439 888 451 881T474 870T493 866Q513 866 525 879T540
917H598Q594 848 563 816T485 783Q466 783 449 791T409 813Q387 826 376 831T352 837Q332 837 320 824T304 786H246Q250 854 281 887Z" />
<glyph unicode="&#xc4;" glyph-name="Adieresis" horiz-adv-x="750" d="M604 0L545 167H198L114 0H-19L358 712H464L730 0H604ZM249 267H510L403 572L249 267ZM274 909H395L386 794H265L274 909ZM459 909H580L571 794H450L459 909Z" />
<glyph unicode="&#xc5;" glyph-name="Aring" horiz-adv-x="750" d="M545 167H198L114 0H-19L351 700Q332 714 321 736T309 784Q309 828 340 858T416 889Q461 889 492 859T524 784Q524 755 510 731T471 693L730 0H604L545 167ZM397 831T384 818T371 784Q371 764
384 750T416 736Q436 736 449 750T462 784Q462 804 449 817T416 831Q397 831 384 818ZM249 267H510L403 572L249 267Z" />
<glyph unicode="&#xc6;" glyph-name="AE" horiz-adv-x="1007" d="M994 610H651V413H957L949 311H651V102H954L945 0H531L532 167H215L103 0H-40L458 712H1001L994 610ZM532 267L534 610H512L282 267H532Z" />
<glyph unicode="&#xc7;" glyph-name="Ccedilla" horiz-adv-x="685" d="M589 38T529 16T402 -9L395 -41Q399 -40 407 -40Q442 -40 464 -58T486 -109Q486 -148 453 -172T358 -197Q334 -197 307 -193T261 -179L277 -126Q320 -140 356 -140Q405 -140 405 -110Q405
-88 373 -88Q360 -88 334 -95L316 -76L330 -5Q205 12 134 100T63 330Q63 448 107 536T233 673T424 721Q499 721 562 700T673 636L622 542Q576 581 531 598T428 616Q317 616 256 540T194 329Q194 217 246 157T395 96Q493 96 593 170L629 76Q589 38 529 16Z" />
<glyph unicode="&#xc8;" glyph-name="Egrave" horiz-adv-x="595" d="M583 610H233L217 413H547L538 311H209L193 102H542L534 0H59L114 712H590L583 610ZM333 773L204 928H318L413 773H333Z" />
<glyph unicode="&#xc9;" glyph-name="Eacute" horiz-adv-x="595" d="M583 610H233L217 413H547L538 311H209L193 102H542L534 0H59L114 712H590L583 610ZM413 773H333L445 928H573L413 773Z" />
<glyph unicode="&#xca;" glyph-name="Ecircumflex" horiz-adv-x="595" d="M583 610H233L217 413H547L538 311H209L193 102H542L534 0H59L114 712H590L583 610ZM306 773H207L348 928H422L539 773H440L383 865L306 773Z" />
<glyph unicode="&#xcb;" glyph-name="Edieresis" horiz-adv-x="595" d="M583 610H233L217 413H547L538 311H209L193 102H542L534 0H59L114 712H590L583 610ZM231 909H352L343 794H222L231 909ZM416 909H537L528 794H407L416 909Z" />
<glyph unicode="&#xcc;" glyph-name="Igrave" horiz-adv-x="283" d="M59 0L114 712H243L187 0H59ZM144 773L15 928H129L224 773H144Z" />
<glyph unicode="&#xcd;" glyph-name="Iacute" horiz-adv-x="283" d="M59 0L114 712H243L187 0H59ZM224 773H144L256 928H384L224 773Z" />
<glyph unicode="&#xce;" glyph-name="Icircumflex" horiz-adv-x="283" d="M59 0L114 712H243L187 0H59ZM117 773H18L159 928H233L350 773H251L194 865L117 773Z" />
<glyph unicode="&#xcf;" glyph-name="Idieresis" horiz-adv-x="283" d="M59 0L114 712H243L187 0H59ZM42 909H163L154 794H33L42 909ZM227 909H348L339 794H218L227 909Z" />
<glyph unicode="&#xd0;" glyph-name="Eth" horiz-adv-x="785" d="M504 712T581 673T699 559T740 382Q740 262 696 176T566 45T361 0H82L106 310H17L25 410H114L137 712H397Q504 712 581 673ZM610 105T610 383Q610 493 553 550T383 607H259L243 410H434L425 310H235L219
105H351Q610 105 610 383Z" />
<glyph unicode="&#xd1;" glyph-name="Ntilde" horiz-adv-x="755" d="M593 712H714L658 0H560L218 496L179 0H59L114 712H210L553 218L593 712ZM253 854T284 887T362 920Q381 920 398 912T438 890Q442 888 454 881T477 870T496 866Q516 866 528 879T543 917H601Q597
848 566 816T488 783Q469 783 452 791T412 813Q390 826 379 831T355 837Q335 837 323 824T307 786H249Q253 854 284 887Z" />
<glyph unicode="&#xd2;" glyph-name="Ograve" horiz-adv-x="786" d="M294 -9T219 32T104 149T63 330Q63 447 105 535T226 672T408 721Q510 721 585 680T700 563T740 382Q740 265 698 177T577 40T395 -9Q294 -9 219 32ZM495 94T553 170T611 382Q611 496 558 557T409
618Q308 618 250 541T192 329Q192 216 244 155T395 94Q495 94 553 170ZM394 773L265 928H379L474 773H394Z" />
<glyph unicode="&#xd3;" glyph-name="Oacute" horiz-adv-x="786" d="M294 -9T219 32T104 149T63 330Q63 447 105 535T226 672T408 721Q510 721 585 680T700 563T740 382Q740 265 698 177T577 40T395 -9Q294 -9 219 32ZM495 94T553 170T611 382Q611 496 558 557T409
618Q308 618 250 541T192 329Q192 216 244 155T395 94Q495 94 553 170ZM474 773H394L506 928H634L474 773Z" />
<glyph unicode="&#xd4;" glyph-name="Ocircumflex" horiz-adv-x="786" d="M294 -9T219 32T104 149T63 330Q63 447 105 535T226 672T408 721Q510 721 585 680T700 563T740 382Q740 265 698 177T577 40T395 -9Q294 -9 219 32ZM495 94T553 170T611 382Q611 496 558
557T409 618Q308 618 250 541T192 329Q192 216 244 155T395 94Q495 94 553 170ZM367 773H268L409 928H483L600 773H501L444 865L367 773Z" />
<glyph unicode="&#xd5;" glyph-name="Otilde" horiz-adv-x="786" d="M294 -9T219 32T104 149T63 330Q63 447 105 535T226 672T408 721Q510 721 585 680T700 563T740 382Q740 265 698 177T577 40T395 -9Q294 -9 219 32ZM495 94T553 170T611 382Q611 496 558 557T409
618Q308 618 250 541T192 329Q192 216 244 155T395 94Q495 94 553 170ZM268 854T299 887T377 920Q396 920 413 912T453 890Q457 888 469 881T492 870T511 866Q531 866 543 879T558 917H616Q612 848 581 816T503 783Q484 783 467 791T427 813Q405 826 394 831T370
837Q350 837 338 824T322 786H264Q268 854 299 887Z" />
<glyph unicode="&#xd6;" glyph-name="Odieresis" horiz-adv-x="786" d="M294 -9T219 32T104 149T63 330Q63 447 105 535T226 672T408 721Q510 721 585 680T700 563T740 382Q740 265 698 177T577 40T395 -9Q294 -9 219 32ZM495 94T553 170T611 382Q611 496 558
557T409 618Q308 618 250 541T192 329Q192 216 244 155T395 94Q495 94 553 170ZM292 909H413L404 794H283L292 909ZM477 909H598L589 794H468L477 909Z" />
<glyph unicode="&#xd7;" glyph-name="multiply" horiz-adv-x="600" d="M533 462L365 291L526 115L458 53L300 225L131 53L74 115L242 287L81 462L149 525L307 353L476 525L533 462Z" />
<glyph unicode="&#xd8;" glyph-name="Oslash" horiz-adv-x="786" d="M691 592T715 528T740 382Q740 265 698 177T577 40T395 -9Q308 -9 238 22L184 -60L103 -10L159 75Q112 119 88 183T63 330Q63 447 105 535T226 672T408 721Q497 721 566 689L621 772L701 722L645
637Q691 592 715 528ZM192 235T228 178L505 598Q463 618 409 618Q308 618 250 541T192 329Q192 235 228 178ZM495 94T553 170T611 382Q611 474 576 532L299 114Q341 94 395 94Q495 94 553 170Z" />
<glyph unicode="&#xd9;" glyph-name="Ugrave" horiz-adv-x="740" d="M220 -9T148 58T75 254Q75 267 77 295L109 712H237L203 293Q202 282 202 261Q202 176 243 135T367 94Q447 94 491 137T543 276L577 712H704L670 285Q659 139 582 65T362 -9Q220 -9 148 58ZM372
773L243 928H357L452 773H372Z" />
<glyph unicode="&#xda;" glyph-name="Uacute" horiz-adv-x="740" d="M220 -9T148 58T75 254Q75 267 77 295L109 712H237L203 293Q202 282 202 261Q202 176 243 135T367 94Q447 94 491 137T543 276L577 712H704L670 285Q659 139 582 65T362 -9Q220 -9 148 58ZM452
773H372L484 928H612L452 773Z" />
<glyph unicode="&#xdb;" glyph-name="Ucircumflex" horiz-adv-x="740" d="M220 -9T148 58T75 254Q75 267 77 295L109 712H237L203 293Q202 282 202 261Q202 176 243 135T367 94Q447 94 491 137T543 276L577 712H704L670 285Q659 139 582 65T362 -9Q220 -9 148
58ZM345 773H246L387 928H461L578 773H479L422 865L345 773Z" />
<glyph unicode="&#xdc;" glyph-name="Udieresis" horiz-adv-x="740" d="M220 -9T148 58T75 254Q75 267 77 295L109 712H237L203 293Q202 282 202 261Q202 176 243 135T367 94Q447 94 491 137T543 276L577 712H704L670 285Q659 139 582 65T362 -9Q220 -9 148 58ZM270
909H391L382 794H261L270 909ZM455 909H576L567 794H446L455 909Z" />
<glyph unicode="&#xdd;" glyph-name="Yacute" horiz-adv-x="629" d="M704 712L382 282L360 0H230L253 283L-2 712H142L323 385L556 712H704ZM396 773H316L428 928H556L396 773Z" />
<glyph unicode="&#xde;" glyph-name="Thorn" horiz-adv-x="667" d="M522 564T580 515T638 374Q638 271 576 216T398 160H198L185 0H59L114 712H242L230 564H418Q522 564 580 515ZM517 260T517 368Q517 417 489 440T405 463H222L206 260H389Q517 260 517 368Z" />
<glyph unicode="&#xdf;" glyph-name="germandbls" horiz-adv-x="675" d="M539 347T591 297T643 171Q643 120 616 79T540 15T428 -8Q375 -8 323 9T232 56L275 143Q357 86 433 86Q477 86 501 107T526 167Q526 217 474 252T301 319L308 412Q394 438 431 474T469 562Q469
606 442 628T364 651Q293 651 257 613T213 491L173 0H48L86 474Q107 743 367 743Q468 743 527 698T586 572Q586 438 430 372Q539 347 591 297Z" />
<glyph unicode="&#xe0;" glyph-name="agrave" horiz-adv-x="619" d="M571 505L531 0H408L414 70Q388 33 347 13T256 -8Q192 -8 144 21T68 106T41 236Q41 319 71 383T155 482T280 518Q336 518 377 495T442 430L448 505H571ZM357 89T393 137T429 267Q429 342 396
381T302 421Q238 421 202 373T166 241Q166 168 199 129T295 89Q357 89 393 137ZM295 570L168 776H288L375 570H295Z" />
<glyph unicode="&#xe1;" glyph-name="aacute" horiz-adv-x="619" d="M571 505L531 0H408L414 70Q388 33 347 13T256 -8Q192 -8 144 21T68 106T41 236Q41 319 71 383T155 482T280 518Q336 518 377 495T442 430L448 505H571ZM357 89T393 137T429 267Q429 342 396
381T302 421Q238 421 202 373T166 241Q166 168 199 129T295 89Q357 89 393 137ZM375 570H295L408 776H542L375 570Z" />
<glyph unicode="&#xe2;" glyph-name="acircumflex" horiz-adv-x="619" d="M571 505L531 0H408L414 70Q388 33 347 13T256 -8Q192 -8 144 21T68 106T41 236Q41 319 71 383T155 482T280 518Q336 518 377 495T442 430L448 505H571ZM357 89T393 137T429 267Q429 342
396 381T302 421Q238 421 202 373T166 241Q166 168 199 129T295 89Q357 89 393 137ZM274 570H170L312 776H390L501 570H402L346 698L274 570Z" />
<glyph unicode="&#xe3;" glyph-name="atilde" horiz-adv-x="619" d="M571 505L531 0H408L414 70Q388 33 347 13T256 -8Q192 -8 144 21T68 106T41 236Q41 319 71 383T155 482T280 518Q336 518 377 495T442 430L448 505H571ZM357 89T393 137T429 267Q429 342 396
381T302 421Q238 421 202 373T166 241Q166 168 199 129T295 89Q357 89 393 137ZM171 676T201 709T276 743Q297 743 315 735T359 711Q377 700 389 694T414 688Q456 688 462 740H520Q516 672 486 639T411 605Q390 605 372 613T330 636Q311 647 298 653T273 659Q253
659 241 646T225 608H167Q171 676 201 709Z" />
<glyph unicode="&#xe4;" glyph-name="adieresis" horiz-adv-x="619" d="M571 505L531 0H408L414 70Q388 33 347 13T256 -8Q192 -8 144 21T68 106T41 236Q41 319 71 383T155 482T280 518Q336 518 377 495T442 430L448 505H571ZM357 89T393 137T429 267Q429 342
396 381T302 421Q238 421 202 373T166 241Q166 168 199 129T295 89Q357 89 393 137ZM195 730H316L307 615H186L195 730ZM380 730H501L491 615H371L380 730Z" />
<glyph unicode="&#xe5;" glyph-name="aring" horiz-adv-x="619" d="M571 505L531 0H408L414 70Q388 33 347 13T256 -8Q192 -8 144 21T68 106T41 236Q41 319 71 383T155 482T280 518Q336 518 377 495T442 430L448 505H571ZM357 89T393 137T429 267Q429 342 396
381T302 421Q238 421 202 373T166 241Q166 168 199 129T295 89Q357 89 393 137ZM299 568T268 598T236 674Q236 717 267 747T344 778Q388 778 419 748T451 674Q451 629 420 599T344 568Q299 568 268 598ZM363 625T376 639T389 674Q389 694 376 707T344 721Q324 721
311 708T298 674Q298 653 311 639T344 625Q363 625 376 639Z" />
<glyph unicode="&#xe6;" glyph-name="ae" horiz-adv-x="872" d="M492 246V240Q492 166 528 127T632 88Q713 88 781 141L810 56Q778 27 727 10T624 -8Q551 -8 498 21T417 104Q389 50 338 21T223 -8Q141 -8 91 34T41 144Q41 232 108 272T329 313H378V318L379 335Q379
380 356 401T282 422Q243 422 199 408T114 369L85 456Q126 484 185 501T303 518Q417 518 461 448Q492 482 534 500T628 518Q721 518 778 459T835 293Q835 270 832 246H492ZM576 429T544 400T499 313H730Q729 370 701 399T628 429Q576 429 544 400ZM296 82T330 118T369
211L372 247H332Q237 247 200 226T163 157Q163 122 185 102T246 82Q296 82 330 118Z" />
<glyph unicode="&#xe7;" glyph-name="ccedilla" horiz-adv-x="503" d="M440 27T394 10T297 -8L290 -41Q294 -40 302 -40Q337 -40 359 -58T381 -109Q381 -148 348 -172T253 -197Q228 -197 202 -193T156 -179L172 -126Q215 -140 251 -140Q300 -140 300 -110Q300
-88 268 -88Q255 -88 229 -95L211 -76L226 -1Q139 17 90 80T40 238Q40 324 73 387T168 484T312 518Q429 518 504 454L461 366Q390 420 317 420Q247 420 208 373T169 239Q169 168 204 129T302 90Q341 90 375 103T444 143L472 56Q440 27 394 10Z" />
<glyph unicode="&#xe8;" glyph-name="egrave" horiz-adv-x="548" d="M161 246V240Q161 166 197 127T302 88Q389 88 458 141L486 56Q454 26 402 9T295 -8Q218 -8 160 22T71 109T40 239Q40 320 72 383T162 482T293 518Q394 518 452 460T511 295Q511 272 508 246H161ZM192
429T168 313H406Q407 368 378 398T299 429Q192 429 168 313ZM270 570L143 776H263L350 570H270Z" />
<glyph unicode="&#xe9;" glyph-name="eacute" horiz-adv-x="548" d="M161 246V240Q161 166 197 127T302 88Q389 88 458 141L486 56Q454 26 402 9T295 -8Q218 -8 160 22T71 109T40 239Q40 320 72 383T162 482T293 518Q394 518 452 460T511 295Q511 272 508 246H161ZM192
429T168 313H406Q407 368 378 398T299 429Q192 429 168 313ZM350 570H270L383 776H517L350 570Z" />
<glyph unicode="&#xea;" glyph-name="ecircumflex" horiz-adv-x="548" d="M161 246V240Q161 166 197 127T302 88Q389 88 458 141L486 56Q454 26 402 9T295 -8Q218 -8 160 22T71 109T40 239Q40 320 72 383T162 482T293 518Q394 518 452 460T511 295Q511 272 508
246H161ZM192 429T168 313H406Q407 368 378 398T299 429Q192 429 168 313ZM249 570H145L287 776H365L476 570H377L321 698L249 570Z" />
<glyph unicode="&#xeb;" glyph-name="edieresis" horiz-adv-x="548" d="M161 246V240Q161 166 197 127T302 88Q389 88 458 141L486 56Q454 26 402 9T295 -8Q218 -8 160 22T71 109T40 239Q40 320 72 383T162 482T293 518Q394 518 452 460T511 295Q511 272 508 246H161ZM192
429T168 313H406Q407 368 378 398T299 429Q192 429 168 313ZM170 730H291L282 615H161L170 730ZM355 730H476L466 615H346L355 730Z" />
<glyph unicode="&#xec;" glyph-name="igrave" horiz-adv-x="261" d="M48 0L88 505H213L173 0H48ZM115 570L-12 776H108L195 570H115Z" />
<glyph unicode="&#xed;" glyph-name="iacute" horiz-adv-x="261" d="M48 0L88 505H213L173 0H48ZM195 570H115L228 776H362L195 570Z" />
<glyph unicode="&#xee;" glyph-name="icircumflex" horiz-adv-x="261" d="M48 0L88 505H213L173 0H48ZM94 570H-10L132 776H210L321 570H222L166 698L94 570Z" />
<glyph unicode="&#xef;" glyph-name="idieresis" horiz-adv-x="261" d="M48 0L88 505H213L173 0H48ZM15 730H136L127 615H6L15 730ZM200 730H321L311 615H191L200 730Z" />
<glyph unicode="&#xf0;" glyph-name="eth" horiz-adv-x="599" d="M486 590Q564 482 564 330Q564 157 490 75T291 -8Q214 -8 157 20T70 99T39 219Q39 294 71 351T161 439T289 470Q394 470 444 407Q430 493 374 557L198 504L184 572L311 610Q257 646 189 659L223
746Q351 723 434 647L569 687L583 619L486 590ZM357 89T391 132T426 248Q426 307 393 341T300 375Q233 375 198 332T163 220Q163 159 196 124T291 89Q357 89 391 132Z" />
<glyph unicode="&#xf1;" glyph-name="ntilde" horiz-adv-x="603" d="M456 518T499 472T543 336Q543 317 542 307L517 0H393L417 301Q418 308 418 321Q418 369 395 394T325 419Q267 419 234 384T196 286L173 0H48L77 362Q81 403 81 457Q81 489 80 505H197L199 430Q225
472 269 495T371 518Q456 518 499 472ZM163 676T193 709T268 743Q289 743 307 735T351 711Q369 700 381 694T406 688Q448 688 454 740H512Q508 672 478 639T403 605Q382 605 364 613T322 636Q303 647 290 653T265 659Q245 659 233 646T217 608H159Q163 676 193
709Z" />
<glyph unicode="&#xf2;" glyph-name="ograve" horiz-adv-x="592" d="M216 -8T159 22T71 109T40 240Q40 324 72 387T164 484T301 518Q377 518 434 487T521 400T552 270Q552 185 520 122T430 26T293 -8Q216 -8 159 22ZM359 89T393 139T428 274Q428 345 396 383T302
421Q235 421 200 371T165 237Q165 89 293 89Q359 89 393 139ZM281 570L154 776H274L361 570H281Z" />
<glyph unicode="&#xf3;" glyph-name="oacute" horiz-adv-x="592" d="M216 -8T159 22T71 109T40 240Q40 324 72 387T164 484T301 518Q377 518 434 487T521 400T552 270Q552 185 520 122T430 26T293 -8Q216 -8 159 22ZM359 89T393 139T428 274Q428 345 396 383T302
421Q235 421 200 371T165 237Q165 89 293 89Q359 89 393 139ZM361 570H281L394 776H528L361 570Z" />
<glyph unicode="&#xf4;" glyph-name="ocircumflex" horiz-adv-x="592" d="M216 -8T159 22T71 109T40 240Q40 324 72 387T164 484T301 518Q377 518 434 487T521 400T552 270Q552 185 520 122T430 26T293 -8Q216 -8 159 22ZM359 89T393 139T428 274Q428 345 396
383T302 421Q235 421 200 371T165 237Q165 89 293 89Q359 89 393 139ZM260 570H156L298 776H376L487 570H388L332 698L260 570Z" />
<glyph unicode="&#xf5;" glyph-name="otilde" horiz-adv-x="592" d="M216 -8T159 22T71 109T40 240Q40 324 72 387T164 484T301 518Q377 518 434 487T521 400T552 270Q552 185 520 122T430 26T293 -8Q216 -8 159 22ZM359 89T393 139T428 274Q428 345 396 383T302
421Q235 421 200 371T165 237Q165 89 293 89Q359 89 393 139ZM157 676T187 709T262 743Q283 743 301 735T345 711Q363 700 375 694T400 688Q442 688 448 740H506Q502 672 472 639T397 605Q376 605 358 613T316 636Q297 647 284 653T259 659Q239 659 227 646T211
608H153Q157 676 187 709Z" />
<glyph unicode="&#xf6;" glyph-name="odieresis" horiz-adv-x="592" d="M216 -8T159 22T71 109T40 240Q40 324 72 387T164 484T301 518Q377 518 434 487T521 400T552 270Q552 185 520 122T430 26T293 -8Q216 -8 159 22ZM359 89T393 139T428 274Q428 345 396 383T302
421Q235 421 200 371T165 237Q165 89 293 89Q359 89 393 139ZM181 730H302L293 615H172L181 730ZM366 730H487L477 615H357L366 730Z" />
<glyph unicode="&#xf7;" glyph-name="divide" horiz-adv-x="600" d="M254 428L263 539H372L364 428H254ZM553 333L546 244H54L61 333H553ZM222 34L231 146H341L332 34H222Z" />
<glyph unicode="&#xf8;" glyph-name="oslash" horiz-adv-x="592" d="M512 427T532 379T552 270Q552 185 520 122T430 26T293 -8Q229 -8 179 13L133 -57L72 -20L118 50Q80 83 60 131T40 240Q40 324 72 387T164 484T301 518Q364 518 414 497L460 566L521 530L474
459Q512 427 532 379ZM163 180T182 146L358 412Q335 422 302 422Q233 422 198 371T163 237Q163 180 182 146ZM361 88T395 138T430 274Q430 330 411 364L235 98Q259 88 293 88Q361 88 395 138Z" />
<glyph unicode="&#xf9;" glyph-name="ugrave" horiz-adv-x="596" d="M548 505L508 0H387L393 72Q367 34 325 13T230 -8Q147 -8 104 37T60 170Q60 190 61 201L85 505H210L186 209L185 190Q185 91 276 91Q330 91 362 126T400 224L423 505H548ZM282 570L155 776H275L362
570H282Z" />
<glyph unicode="&#xfa;" glyph-name="uacute" horiz-adv-x="596" d="M548 505L508 0H387L393 72Q367 34 325 13T230 -8Q147 -8 104 37T60 170Q60 190 61 201L85 505H210L186 209L185 190Q185 91 276 91Q330 91 362 126T400 224L423 505H548ZM362 570H282L395 776H529L362
570Z" />
<glyph unicode="&#xfb;" glyph-name="ucircumflex" horiz-adv-x="596" d="M548 505L508 0H387L393 72Q367 34 325 13T230 -8Q147 -8 104 37T60 170Q60 190 61 201L85 505H210L186 209L185 190Q185 91 276 91Q330 91 362 126T400 224L423 505H548ZM261 570H157L299
776H377L488 570H389L333 698L261 570Z" />
<glyph unicode="&#xfc;" glyph-name="udieresis" horiz-adv-x="596" d="M548 505L508 0H387L393 72Q367 34 325 13T230 -8Q147 -8 104 37T60 170Q60 190 61 201L85 505H210L186 209L185 190Q185 91 276 91Q330 91 362 126T400 224L423 505H548ZM182 730H303L294
615H173L182 730ZM367 730H488L478 615H358L367 730Z" />
<glyph unicode="&#xfd;" glyph-name="yacute" horiz-adv-x="543" d="M567 505L287 -34Q239 -128 175 -171T19 -228L-2 -131Q69 -116 106 -92T170 -19L190 18L18 505H145L265 145L441 505H567ZM337 570H257L370 776H504L337 570Z" />
<glyph unicode="&#xfe;" glyph-name="thorn" horiz-adv-x="620" d="M429 518T478 489T554 404T581 274Q581 191 551 127T467 28T341 -8Q285 -8 244 14T179 79L156 -216H31L106 728H231L208 440Q233 477 274 497T365 518Q429 518 478 489ZM383 89T419 136T455 268Q455
341 422 381T327 421Q264 421 228 373T191 242Q191 167 224 128T319 89Q383 89 419 136Z" />
<glyph unicode="&#xff;" glyph-name="ydieresis" horiz-adv-x="543" d="M567 505L287 -34Q239 -128 175 -171T19 -228L-2 -131Q69 -116 106 -92T170 -19L190 18L18 505H145L265 145L441 505H567ZM157 730H278L269 615H148L157 730ZM342 730H463L453 615H333L342 730Z" />
<glyph unicode="&#x2013;" glyph-name="endash" horiz-adv-x="505" d="M-1 232L4 307H509L504 232H-1Z" />
<glyph unicode="&#x2014;" glyph-name="emdash" horiz-adv-x="1010" d="M-1 232L4 307H1014L1009 232H-1Z" />
<glyph unicode="&#x2018;" glyph-name="quoteleft" horiz-adv-x="251" d="M222 585L211 446H71L78 538Q83 591 104 633T172 719L219 679Q193 653 179 631T158 585H222Z" />
<glyph unicode="&#x2019;" glyph-name="quoteright" horiz-adv-x="251" d="M232 712L225 620Q220 567 199 525T131 439L84 479Q133 528 146 572H81L92 712H232Z" />
<glyph unicode="&#x201a;" glyph-name="quotesinglbase" horiz-adv-x="251" d="M187 140L180 49Q176 -4 155 -47T87 -134L38 -93Q88 -45 101 0H36L47 140H187Z" />
<glyph unicode="&#x201c;" glyph-name="quotedblleft" horiz-adv-x="444" d="M222 585L211 446H71L78 538Q83 591 104 633T172 719L219 679Q193 653 179 631T158 585H222ZM415 585L404 446H264L271 538Q276 591 297 633T365 719L412 679Q386 653 372 631T351 585H415Z" />
<glyph unicode="&#x201d;" glyph-name="quotedblright" horiz-adv-x="444" d="M232 712L225 620Q220 567 199 525T131 439L84 479Q133 528 146 572H81L92 712H232ZM425 712L418 620Q413 567 392 525T324 439L277 479Q326 528 339 572H274L285 712H425Z" />
<glyph unicode="&#x201e;" glyph-name="quotedblbase" horiz-adv-x="444" d="M187 140L180 49Q176 -4 155 -47T87 -134L38 -93Q88 -45 101 0H36L47 140H187ZM380 140L373 49Q369 -4 348 -47T280 -134L231 -93Q281 -45 294 0H229L240 140H380Z" />
<glyph unicode="&#x2022;" glyph-name="bullet" horiz-adv-x="529" d="M217 89T175 112T108 177T83 268Q83 314 107 355T173 422T266 447Q314 447 356 424T423 359T448 268Q448 219 424 178T357 113T266 89Q217 89 175 112Z" />
<glyph unicode="&#x2039;" glyph-name="guilsinglleft" horiz-adv-x="289" d="M145 86L25 267L174 450H281L137 268L251 86H145Z" />
<glyph unicode="&#x203a;" glyph-name="guilsinglright" horiz-adv-x="288" d="M120 86H14L156 268L40 450H148L267 267L120 86Z" />
</font>
</defs>
</svg>
