<?xml version="1.0" standalone="no"?>
<!DOCTYPE svg PUBLIC "-//W3C//DTD SVG 1.1//EN" "http://www.w3.org/Graphics/SVG/1.1/DTD/svg11.dtd">
<svg xmlns="http://www.w3.org/2000/svg">
<defs >
<font id="Muli" horiz-adv-x="572" ><font-face
    font-family="Muli SemiBold"
    units-per-em="1000"
    panose-1="0 0 7 0 0 0 0 0 0 0"
    ascent="1005"
    descent="-250"
    alphabetic="0" />
<glyph unicode=" " glyph-name="space" horiz-adv-x="267" />
<glyph unicode="!" glyph-name="exclam" horiz-adv-x="240" d="M89 199L57 712H182L151 199H89ZM60 120H180V0H60V120Z" />
<glyph unicode="&quot;" glyph-name="quotedbl" horiz-adv-x="438" d="M83 426L56 712H175L150 426H83ZM289 426L262 712H381L356 426H289Z" />
<glyph unicode="#" glyph-name="numbersign" horiz-adv-x="606" d="M567 472H473L429 248H546V179H416L381 0H306L341 179H195L160 0H86L121 179H39V248H134L178 472H60V541H192L225 712H300L266 541H412L446 712H520L487 541H567V472ZM355 248L399 472H253L209 248H355Z" />
<glyph unicode="$" glyph-name="dollar" horiz-adv-x="600" d="M560 116T503 62T352 -5V-116H268V-7Q128 2 40 80L77 157Q124 119 171 100T273 77V310Q204 328 159 348T83 407T52 511Q52 565 79 609T156 682T268 718V828H352V718Q411 711 462 689T550 633L513
556Q439 622 348 633V387Q414 371 457 352T530 295T560 197Q560 116 503 62ZM156 472T186 448T273 407V634Q218 626 187 595T156 516Q156 472 186 448ZM400 89T428 118T456 194Q456 231 429 253T348 291V80Q400 89 428 118Z" />
<glyph unicode="%" glyph-name="percent" horiz-adv-x="946" d="M143 286T97 341T50 504Q50 611 96 666T225 721Q308 721 354 666T401 504Q401 397 355 342T225 286Q143 286 97 341ZM314 0H220L632 712H726L314 0ZM270 354T291 389T312 504Q312 581 291 616T225
652Q181 652 160 617T139 504Q139 425 160 390T225 354Q270 354 291 389ZM638 -7T592 48T545 211Q545 318 591 373T721 428Q804 428 850 373T896 211Q896 104 850 49T721 -7Q638 -7 592 48ZM766 62T787 97T808 211Q808 288 787 323T721 359Q676 359 655 324T634
211Q634 133 655 98T721 62Q766 62 787 97Z" />
<glyph unicode="&amp;" glyph-name="ampersand" horiz-adv-x="678" d="M640 -9Q558 24 497 82Q454 39 400 16T283 -7Q213 -7 160 16T77 83T47 182Q47 247 84 298T206 397Q162 446 144 482T125 558Q125 630 176 674T309 719Q386 719 431 679T477 571Q477 517 445
475T336 385L492 215Q536 302 540 422H627Q621 262 551 150Q609 93 693 60L640 -9ZM270 646T245 622T220 559Q220 533 233 509T284 441Q345 478 368 505T391 566Q391 602 369 624T310 646Q270 646 245 622ZM375 72T441 141L258 340Q198 302 172 267T146 187Q146
135 184 104T286 72Q375 72 441 141Z" />
<glyph unicode="&apos;" glyph-name="quotesingle" horiz-adv-x="232" d="M83 426L56 712H175L150 426H83Z" />
<glyph unicode="(" glyph-name="parenleft" horiz-adv-x="335" d="M159 -66T131 41T103 266Q103 382 131 490T222 712H305Q251 584 230 479T208 266Q208 159 229 54T304 -182H222Q159 -66 131 41Z" />
<glyph unicode=")" glyph-name="parenright" horiz-adv-x="335" d="M31 -182Q84 -51 105 54T127 266Q127 373 106 478T30 712H113Q175 599 203 491T231 266Q231 149 203 42T112 -182H31Z" />
<glyph unicode="*" glyph-name="asterisk" horiz-adv-x="456" d="M142 355L83 398L178 517L30 559L54 630L196 577L190 729H264L258 577L401 630L424 559L278 518L372 398L312 355L227 482L142 355Z" />
<glyph unicode="+" glyph-name="plus" horiz-adv-x="600" d="M546 325V251H337V41H263V251H54V325H263V534H337V325H546Z" />
<glyph unicode="," glyph-name="comma" horiz-adv-x="240" d="M180 120V38Q180 -9 164 -47T110 -124L67 -89Q109 -43 115 0H60V120H180Z" />
<glyph unicode="-" glyph-name="hyphen" horiz-adv-x="433" d="M71 228V310H362V228H71Z" />
<glyph unicode="." glyph-name="period" horiz-adv-x="240" d="M60 120H180V0H60V120Z" />
<glyph unicode="/" glyph-name="slash" horiz-adv-x="299" d="M64 -57H-24L234 751H323L64 -57Z" />
<glyph unicode="0" glyph-name="zero" horiz-adv-x="600" d="M176 -8T111 85T46 356Q46 534 111 627T300 720Q424 720 489 628T554 357Q554 178 489 85T300 -8Q176 -8 111 85ZM377 75T413 143T450 357Q450 502 414 569T300 636Q223 636 187 569T150 357Q150 212
186 144T300 75Q377 75 413 143Z" />
<glyph unicode="1" glyph-name="one" horiz-adv-x="600" d="M381 85H537V0H121V85H277V589L132 499V594L321 712H381V85Z" />
<glyph unicode="2" glyph-name="two" horiz-adv-x="600" d="M545 85V0H78V77L323 346Q370 398 391 440T413 525Q413 579 382 607T292 636Q193 636 94 558L57 634Q99 673 164 696T295 720Q397 720 456 669T516 531Q516 469 489 414T399 290L209 85H545Z" />
<glyph unicode="3" glyph-name="three" horiz-adv-x="600" d="M467 348T500 304T533 193Q533 100 468 47T290 -7Q219 -7 155 15T47 79L84 155Q180 77 287 77Q433 77 433 200Q433 260 395 289T280 319H193V403H264Q338 403 377 434T416 524Q416 578 384 607T292
636Q192 636 94 558L57 634Q99 674 163 697T297 720Q397 720 456 671T516 537Q516 476 487 431T405 366Q467 348 500 304Z" />
<glyph unicode="4" glyph-name="four" horiz-adv-x="600" d="M571 231V148H466V0H364V148H45V225L383 712H466V231H571ZM146 231H364V545L146 231Z" />
<glyph unicode="5" glyph-name="five" horiz-adv-x="600" d="M401 451T451 423T529 343T557 224Q557 155 527 103T439 22T306 -7Q240 -7 176 16T70 79L106 155Q205 77 307 77Q378 77 417 115T457 222Q457 287 418 327T312 367Q216 367 158 294H91V712H527V629H193V403Q250
451 334 451Q401 451 451 423Z" />
<glyph unicode="6" glyph-name="six" horiz-adv-x="600" d="M401 451T450 423T528 343T556 224Q556 157 526 105T443 22T323 -8Q191 -8 120 82T48 340Q48 459 81 544T178 675T330 720Q393 720 452 698T556 634L519 558Q425 636 333 636Q246 636 199 560T152 342V341Q175
393 224 422T337 451Q401 451 450 423ZM380 76T418 116T456 222Q456 287 418 327T317 367Q254 367 214 327T173 222Q173 157 213 117T318 76Q380 76 418 116Z" />
<glyph unicode="7" glyph-name="seven" horiz-adv-x="600" d="M59 712H541V635L212 0H101L429 627H59V712Z" />
<glyph unicode="8" glyph-name="eight" horiz-adv-x="600" d="M483 347T521 301T560 190Q560 98 490 46T300 -7Q181 -7 111 45T40 190Q40 256 79 302T188 366Q126 386 92 429T57 530Q57 587 88 630T174 696T300 720Q371 720 426 697T512 630T543 530Q543 472 509
429T414 366Q483 347 521 301ZM156 469T195 437T300 395Q366 404 405 436T444 521Q444 576 406 606T300 637Q233 637 195 607T156 521Q156 469 195 437ZM377 76T419 107T461 197Q461 252 418 284T300 326Q226 317 183 285T139 197Q139 138 181 107T300 76Q377 76
419 107Z" />
<glyph unicode="9" glyph-name="nine" horiz-adv-x="600" d="M410 720T481 630T552 372Q552 253 519 168T422 37T270 -8Q207 -8 148 14T45 78L81 154Q131 113 176 95T267 76Q354 76 401 152T449 370V373Q427 321 378 291T264 261Q200 261 150 289T72 369T44 488Q44
555 74 607T157 690T278 720Q410 720 481 630ZM347 345T387 385T427 490Q427 555 387 595T283 636Q220 636 182 596T144 490Q144 425 182 385T283 345Q347 345 387 385Z" />
<glyph unicode=":" glyph-name="colon" horiz-adv-x="240" d="M60 493H180V373H60V493ZM60 120H180V0H60V120Z" />
<glyph unicode=";" glyph-name="semicolon" horiz-adv-x="240" d="M60 493H180V373H60V493ZM60 120H180V38Q180 -9 164 -47T110 -124L67 -89Q109 -43 115 0H60V120Z" />
<glyph unicode="&lt;" glyph-name="less" horiz-adv-x="600" d="M546 543V462L146 288L546 114V32L54 249V327L546 543Z" />
<glyph unicode="=" glyph-name="equal" horiz-adv-x="600" d="M546 426V352H54V426H546ZM546 224V150H54V224H546Z" />
<glyph unicode="&gt;" glyph-name="greater" horiz-adv-x="600" d="M54 543L546 327V249L54 32V114L454 288L54 462V543Z" />
<glyph unicode="?" glyph-name="question" horiz-adv-x="454" d="M121 701T158 710T233 720Q292 720 338 700T409 644T434 559Q434 506 410 467T339 377Q297 331 275 297T248 220L244 197H185V229Q185 288 206 329T267 421Q299 461 314 488T330 551Q330 590 303
612T227 635Q157 635 88 593V682Q121 701 158 710ZM156 0V120H275V0H156Z" />
<glyph unicode="@" glyph-name="at" horiz-adv-x="939" d="M348 -155T250 -102T100 49T47 274Q47 408 103 509T258 664T480 718Q610 718 703 666T844 529T892 346Q892 250 863 187T788 95T687 65Q633 65 602 88T566 153H564Q509 65 413 65Q344 65 303 112T261
242Q261 312 287 372T362 468T474 504Q520 504 554 483T600 426H602L613 493H691L645 229Q641 209 641 190Q641 158 656 143T701 128Q727 128 753 149T798 220T817 346Q817 427 780 496T666 606T480 648Q379 648 299 603T172 474T125 274Q125 165 167 84T290 -41T480
-86Q562 -86 621 -64T712 0H815Q773 -72 686 -113T480 -155Q348 -155 250 -102ZM477 128T511 157T564 232T582 329Q582 383 557 411T486 439Q441 439 408 411T357 338T339 244Q339 189 364 159T430 128Q477 128 511 157Z" />
<glyph unicode="A" glyph-name="A" horiz-adv-x="741" d="M627 0L551 176H191L115 0H10L327 712H414L732 0H627ZM226 258H516L371 597L226 258Z" />
<glyph unicode="B" glyph-name="B" horiz-adv-x="685" d="M564 350T598 305T632 194Q632 102 569 51T391 0H83V712H381Q491 712 552 663T614 526Q614 469 585 428T502 367Q564 350 598 305ZM185 403H365Q514 403 514 518Q514 629 365 629H185V403ZM459 83T495
111T531 200Q531 261 495 290T381 320H185V83H381Q459 83 495 111Z" />
<glyph unicode="C" glyph-name="C" horiz-adv-x="684" d="M293 -8T217 36T99 163T58 357Q58 468 99 550T216 676T396 720Q469 720 531 698T637 632L601 556Q551 597 503 615T397 634Q286 634 226 562T165 357Q165 223 225 151T397 78Q454 78 502 96T601 156L637
80Q594 37 532 15T396 -8Q293 -8 217 36Z" />
<glyph unicode="D" glyph-name="D" horiz-adv-x="753" d="M83 712H332Q505 712 600 619T695 357Q695 187 600 94T332 0H83V712ZM326 86Q589 86 589 357Q589 626 326 626H186V86H326Z" />
<glyph unicode="E" glyph-name="E" horiz-adv-x="591" d="M83 0V712H545V628H185V404H525V320H185V84H545V0H83Z" />
<glyph unicode="F" glyph-name="F" horiz-adv-x="567" d="M83 0V712H535V627H185V404H515V319H185V0H83Z" />
<glyph unicode="G" glyph-name="G" horiz-adv-x="735" d="M660 378V42Q615 19 547 6T407 -8Q299 -8 220 35T100 161T58 357Q58 469 99 551T218 676T401 720Q476 720 539 698T648 633L611 556Q560 598 511 616T402 634Q286 634 226 563T165 357Q165 218 227 147T410
75Q491 75 566 99V299H400V378H660Z" />
<glyph unicode="H" glyph-name="H" horiz-adv-x="770" d="M584 712H687V0H584V319H185V0H83V712H185V404H584V712Z" />
<glyph unicode="I" glyph-name="I" horiz-adv-x="269" d="M83 0V712H186V0H83Z" />
<glyph unicode="J" glyph-name="J" horiz-adv-x="344" d="M-4 -91Q35 -98 68 -98Q119 -98 138 -72T157 20V712H261V19Q261 -88 221 -137T87 -186Q41 -186 -4 -178V-91Z" />
<glyph unicode="K" glyph-name="K" horiz-adv-x="648" d="M667 0H537L186 336V0H83V712H186V388L522 712H649L290 368L667 0Z" />
<glyph unicode="L" glyph-name="L" horiz-adv-x="552" d="M83 0V712H186V86H532V0H83Z" />
<glyph unicode="M" glyph-name="M" horiz-adv-x="849" d="M682 712H765V0H672V489L461 0H390L176 486L177 0H84V712H167L426 124L682 712Z" />
<glyph unicode="N" glyph-name="N" horiz-adv-x="750" d="M570 712H667V0H588L180 538V0H83V712H161L570 173V712Z" />
<glyph unicode="O" glyph-name="O" horiz-adv-x="779" d="M288 -8T214 36T99 163T58 356Q58 468 98 550T213 676T389 720Q491 720 565 676T680 550T720 357Q720 245 680 163T565 37T389 -8Q288 -8 214 36ZM496 76T555 149T615 357Q615 491 556 563T389 636Q282
636 223 564T164 357Q164 222 223 149T389 76Q496 76 555 149Z" />
<glyph unicode="P" glyph-name="P" horiz-adv-x="658" d="M83 712H379Q491 712 553 658T616 509Q616 415 553 361T379 306H186V0H83V712ZM367 388Q441 388 478 419T516 509Q516 567 479 598T367 629H186V388H367Z" />
<glyph unicode="Q" glyph-name="Q" horiz-adv-x="779" d="M566 -59T653 -131L582 -191Q538 -159 496 -110T422 -7Q411 -8 389 -8Q288 -8 214 36T99 163T58 356Q58 468 98 550T213 676T389 720Q491 720 565 676T680 550T720 357Q720 230 669 142T524 16Q566 -59
653 -131ZM164 222T223 149T389 76Q496 76 555 149T615 357Q615 491 556 563T389 636Q282 636 223 564T164 357Q164 222 223 149Z" />
<glyph unicode="R" glyph-name="R" horiz-adv-x="697" d="M654 0H545L456 237Q442 275 415 289T341 304H185V0H83V712H376Q493 712 555 660T618 511Q618 441 581 392T476 323Q538 312 566 235L654 0ZM364 387Q442 387 480 417T518 509Q518 570 481 599T364 629H185V387H364Z"
/>
<glyph unicode="S" glyph-name="S" horiz-adv-x="633" d="M233 -8T165 14T46 80L83 156Q135 114 191 95T317 76Q397 76 441 106T485 191Q485 237 444 260T314 304Q229 322 175 345T90 408T59 510Q59 572 92 619T185 693T325 720Q400 720 465 697T575 632L538 556Q489
597 437 616T326 636Q249 636 205 604T161 515Q161 467 199 442T323 397Q412 377 467 355T555 295T588 197Q588 135 555 89T461 18T316 -8Q233 -8 165 14Z" />
<glyph unicode="T" glyph-name="T" horiz-adv-x="610" d="M253 0V626H12V712H598V626H357V0H253Z" />
<glyph unicode="U" glyph-name="U" horiz-adv-x="735" d="M226 -8T153 66T79 283V712H180V276Q180 177 227 127T368 76Q460 76 507 127T555 276V712H657V283Q657 140 584 66T368 -8Q226 -8 153 66Z" />
<glyph unicode="V" glyph-name="V" horiz-adv-x="708" d="M606 712H712L398 0H311L-3 712H105L355 130L606 712Z" />
<glyph unicode="W" glyph-name="W" horiz-adv-x="1116" d="M986 712H1087L836 0H750L558 550L365 0H279L29 712H134L325 146L522 712L598 711L792 143L986 712Z" />
<glyph unicode="X" glyph-name="X" horiz-adv-x="661" d="M389 363L660 0H538L330 286L122 0H0L271 364L12 712H133L331 440L528 712H650L389 363Z" />
<glyph unicode="Y" glyph-name="Y" horiz-adv-x="617" d="M644 712L360 286V0H256V288L-27 712H91L309 376L526 712H644Z" />
<glyph unicode="Z" glyph-name="Z" horiz-adv-x="601" d="M164 85H565V0H47V76L436 627H47V712H554V637L164 85Z" />
<glyph unicode="[" glyph-name="bracketleft" horiz-adv-x="334" d="M109 -182V712H324V634H209V-104H324V-182H109Z" />
<glyph unicode="\" glyph-name="backslash" horiz-adv-x="298" d="M233 -57L-24 751H64L323 -57H233Z" />
<glyph unicode="]" glyph-name="bracketright" horiz-adv-x="334" d="M225 -182H10V-104H125V634H10V712H225V-182Z" />
<glyph unicode="^" glyph-name="asciicircum" horiz-adv-x="600" d="M556 142H474L300 542L126 142H45L261 635H339L556 142Z" />
<glyph unicode="_" glyph-name="underscore" horiz-adv-x="505" d="M10 -63V0H495V-63H10Z" />
<glyph unicode="`" glyph-name="grave" horiz-adv-x="300" d="M118 558L-24 763H85L185 558H118Z" />
<glyph unicode="a" glyph-name="a" horiz-adv-x="609" d="M535 504V0H435V86Q413 41 370 17T268 -7Q201 -7 151 25T72 115T44 252Q44 330 72 390T152 483T268 516Q326 516 369 492T435 422V504H535ZM360 73T397 120T435 254Q435 341 398 388T291 435Q223 435 185
387T146 252Q146 167 184 120T292 73Q360 73 397 120Z" />
<glyph unicode="b" glyph-name="b" horiz-adv-x="609" d="M407 516T458 484T537 393T565 256Q565 178 537 119T457 26T341 -7Q283 -7 240 17T174 88V0H74V736H174V421Q196 466 239 491T341 516Q407 516 458 484ZM386 73T424 121T462 256Q462 341 424 388T318 435Q249
435 212 388T174 254Q174 167 211 120T318 73Q386 73 424 121Z" />
<glyph unicode="c" glyph-name="c" horiz-adv-x="499" d="M217 -7T161 25T74 115T44 252Q44 330 75 390T164 483T297 516Q350 516 399 499T478 451L447 378Q376 434 304 434Q231 434 190 387T149 253Q149 167 190 121T304 74Q378 74 447 130L478 57Q446 27 397
10T293 -7Q217 -7 161 25Z" />
<glyph unicode="d" glyph-name="d" horiz-adv-x="609" d="M535 736V0H435V86Q413 41 370 17T268 -7Q203 -7 152 26T73 118T44 256Q44 334 72 393T150 484T268 516Q325 516 368 492T434 424V736H535ZM360 73T397 120T435 254Q435 340 398 387T292 435Q223 435 185
388T146 256Q146 170 184 122T291 73Q360 73 397 120Z" />
<glyph unicode="e" glyph-name="e" horiz-adv-x="546" d="M504 250H144Q149 73 305 73Q392 73 464 130L495 58Q461 28 409 11T303 -7Q182 -7 113 62T44 253Q44 330 74 390T160 483T285 516Q387 516 445 450T504 267V250ZM230 441T194 407T148 310H415Q409 374
376 407T287 441Q230 441 194 407Z" />
<glyph unicode="f" glyph-name="f" horiz-adv-x="351" d="M204 655T204 560V504H322V426H204V0H103V426H6V504H103V568Q103 652 145 696T265 740Q305 740 338 730V647Q311 655 287 655Q204 655 204 560Z" />
<glyph unicode="g" glyph-name="g" horiz-adv-x="613" d="M539 504V9Q539 -106 479 -164T299 -223Q184 -223 98 -173L115 -94Q162 -119 205 -131T298 -143Q439 -143 439 1V110Q416 66 372 41T270 15Q204 15 153 46T73 134T44 265Q44 339 72 396T152 484T270 516Q328
516 372 492T439 422V504H539ZM361 96T400 141T439 265Q439 344 401 389T293 435Q225 435 186 390T146 265Q146 187 185 142T293 96Q361 96 400 141Z" />
<glyph unicode="h" glyph-name="h" horiz-adv-x="593" d="M523 516T523 314V0H422V308Q422 374 397 404T315 434Q251 434 213 394T174 287V0H74V736H174V426Q199 470 243 493T342 516Q523 516 523 314Z" />
<glyph unicode="i" glyph-name="i" horiz-adv-x="248" d="M74 0V504H174V0H74ZM65 724H182V618H65V724Z" />
<glyph unicode="j" glyph-name="j" horiz-adv-x="248" d="M-30 -136T-9 -136Q74 -136 74 -41V504H174V-49Q174 -133 132 -177T14 -221Q-25 -221 -58 -211V-128Q-30 -136 -9 -136ZM65 724H182V618H65V724Z" />
<glyph unicode="k" glyph-name="k" horiz-adv-x="531" d="M544 0H415L174 238V0H74V736H174V276L398 503H523L282 261L544 0Z" />
<glyph unicode="l" glyph-name="l" horiz-adv-x="248" d="M74 0V736H174V0H74Z" />
<glyph unicode="m" glyph-name="m" horiz-adv-x="888" d="M817 516T817 314V0H716V309Q716 374 694 404T621 434Q563 434 530 394T496 285V0H395V309Q395 374 373 404T300 434Q242 434 208 394T174 285V0H74V362Q74 441 66 504H160L169 420Q191 466 232 491T328
516Q445 516 481 419Q504 464 548 490T649 516Q817 516 817 314Z" />
<glyph unicode="n" glyph-name="n" horiz-adv-x="593" d="M523 516T523 314V0H422V308Q422 374 397 404T315 434Q251 434 213 394T174 287V0H74V362Q74 441 66 504H160L169 417Q193 465 238 490T342 516Q523 516 523 314Z" />
<glyph unicode="o" glyph-name="o" horiz-adv-x="581" d="M217 -7T161 25T75 116T44 254Q44 333 74 392T161 484T291 516Q364 516 420 484T506 393T537 254Q537 175 507 116T420 25T291 -7Q217 -7 161 25ZM360 73T397 119T434 254Q434 341 397 388T291 435Q222
435 184 388T146 254Q146 165 183 119T290 73Q360 73 397 119Z" />
<glyph unicode="p" glyph-name="p" horiz-adv-x="609" d="M406 516T457 483T536 390T565 252Q565 174 537 116T458 25T341 -7Q283 -7 240 17T174 88V-216H74V362Q74 441 66 504H160L170 411Q190 461 235 488T341 516Q406 516 457 483ZM386 73T424 120T462 252Q462
338 424 386T318 435Q248 435 211 388T174 254Q174 167 211 120T318 73Q386 73 424 120Z" />
<glyph unicode="q" glyph-name="q" horiz-adv-x="609" d="M543 504Q535 441 535 362V-216H434V84Q411 40 368 17T268 -7Q201 -7 151 25T72 115T44 252Q44 330 72 390T152 483T268 516Q328 516 373 489T439 413L449 504H543ZM360 73T397 120T435 254Q435 341 398
388T291 435Q223 435 185 387T146 252Q146 167 184 120T292 73Q360 73 397 120Z" />
<glyph unicode="r" glyph-name="r" horiz-adv-x="376" d="M348 516T373 509L371 417Q344 427 312 427Q243 427 209 386T174 281V0H74V362Q74 441 66 504H160L169 413Q189 463 231 489T325 516Q348 516 373 509Z" />
<glyph unicode="s" glyph-name="s" horiz-adv-x="498" d="M118 -7T42 57L72 130Q151 70 253 70Q305 70 332 87T359 137Q359 164 341 179T278 206L194 226Q128 240 94 275T59 364Q59 432 113 474T258 516Q312 516 360 499T443 451L412 380Q339 438 258 438Q209
438 182 420T155 368Q155 342 172 326T226 301L312 280Q384 264 418 230T453 140Q453 72 399 33T250 -7Q118 -7 42 57Z" />
<glyph unicode="t" glyph-name="t" horiz-adv-x="363" d="M205 426V173Q205 121 227 100T290 78Q316 78 343 86V4Q310 -7 268 -7Q190 -7 147 37T104 165V426H6V504H104V630L205 665V504H344V426H205Z" />
<glyph unicode="u" glyph-name="u" horiz-adv-x="586" d="M512 504V0H414V84Q390 40 348 17T253 -7Q71 -7 71 195V504H171V196Q171 134 196 105T274 75Q336 75 373 115T411 221V504H512Z" />
<glyph unicode="v" glyph-name="v" horiz-adv-x="536" d="M431 503H532L313 0H222L5 503H112L270 114L431 503Z" />
<glyph unicode="w" glyph-name="w" horiz-adv-x="876" d="M757 504H856L664 0H572L437 365L303 0H211L19 504H124L261 119L400 504H480L619 119L757 504Z" />
<glyph unicode="x" glyph-name="x" horiz-adv-x="541" d="M330 259L539 0H419L270 186L123 0H2L212 259L14 504H135L270 332L406 504H528L330 259Z" />
<glyph unicode="y" glyph-name="y" horiz-adv-x="536" d="M532 504L297 -41Q258 -130 200 -171T55 -227L33 -149Q104 -133 140 -108T199 -31L217 11L5 504H112L270 114L431 504H532Z" />
<glyph unicode="z" glyph-name="z" horiz-adv-x="522" d="M172 78H481V0H50V70L348 426H58V504H470V433L172 78Z" />
<glyph unicode="{" glyph-name="braceleft" horiz-adv-x="371" d="M246 330T223 302T169 266Q200 259 223 230T246 156V-19Q246 -60 265 -82T314 -104H361V-182H301Q225 -182 186 -145T146 -35V135Q146 182 131 203T78 233L47 242V288L78 297Q116 306 131 327T146
395V565Q146 636 187 674T301 712H361V634H314Q284 634 265 612T246 549V375Q246 330 223 302Z" />
<glyph unicode="|" glyph-name="bar" horiz-adv-x="272" d="M88 -182V712H184V-182H88Z" />
<glyph unicode="}" glyph-name="braceright" horiz-adv-x="371" d="M325 288V242L293 233Q254 224 240 203T225 135V-35Q225 -107 185 -144T70 -182H10V-104H58Q88 -104 106 -82T125 -19V156Q125 200 148 229T202 266Q171 273 148 301T125 375V549Q125 590 107
612T58 634H10V712H70Q142 712 183 674T225 565V395Q225 348 239 327T293 297L325 288Z" />
<glyph unicode="~" glyph-name="asciitilde" horiz-adv-x="600" d="M546 316Q528 268 494 241T414 214Q382 214 353 225T281 258Q249 275 230 283T193 291Q137 291 112 226L54 261Q72 309 106 335T186 362Q218 362 247 351T319 318Q351 301 370 293T407 285Q463
285 488 350L546 316Z" />
<glyph unicode="&#xa0;" glyph-name="uni00A0" horiz-adv-x="267" />
<glyph unicode="&#xa1;" glyph-name="exclamdown" horiz-adv-x="240" d="M60 373V493H180V373H60ZM89 293H151L182 -182H57L89 293Z" />
<glyph unicode="&#xa2;" glyph-name="cent" horiz-adv-x="600" d="M521 57Q496 34 460 18T383 -4V-119H299V-5Q203 7 146 76T88 252Q88 358 145 428T299 513V627H383V513Q425 508 461 492T521 451L491 378Q438 420 383 431V77Q440 88 491 130L521 57ZM192 184T220
139T299 80V427Q248 413 220 368T192 253Q192 184 220 139Z" />
<glyph unicode="&#xa3;" glyph-name="sterling" horiz-adv-x="600" d="M238 174T224 140T176 85H566V0H43V70Q94 95 115 126T136 210V322H43V391H136V524Q136 614 191 667T342 720Q408 720 467 698T572 633L534 556Q490 595 443 615T349 636Q296 636 267 606T238
517V391H415V322H238V231Q238 174 224 140Z" />
<glyph unicode="&#xa4;" glyph-name="currency" horiz-adv-x="600" d="M543 163T493 95L546 39L500 -7L447 48Q382 -3 300 -3Q217 -3 151 49L97 -7L51 39L106 96Q56 162 56 247Q56 333 106 399L51 455L98 503L152 447Q217 498 300 498Q380 498 445 448L499 503L547
455L494 399Q543 333 543 247Q543 163 493 95ZM342 79T378 101T435 162T457 247Q457 293 436 331T378 393T299 416Q256 416 220 394T162 332T141 247Q141 201 162 163T219 102T299 79Q342 79 378 101Z" />
<glyph unicode="&#xa5;" glyph-name="yen" horiz-adv-x="600" d="M613 712L389 394H532V325H352V240H532V172H352V0H248V172H68V240H248V325H68V394H211L-13 712H101L300 424L499 712H613Z" />
<glyph unicode="&#xa6;" glyph-name="brokenbar" horiz-adv-x="272" d="M88 375V712H184V375H88ZM88 -182V156H184V-182H88Z" />
<glyph unicode="&#xa7;" glyph-name="section" horiz-adv-x="554" d="M516 167T500 133T455 74Q476 37 476 -8Q476 -92 421 -140T268 -189Q141 -189 62 -125L93 -52Q135 -82 176 -95T263 -109Q317 -109 346 -85T376 -14Q376 22 357 46T293 93L185 144Q107 181
73 223T38 326Q38 364 54 398T99 459Q79 492 79 538Q79 620 135 669T288 719Q341 719 388 703T470 656L439 585Q368 640 293 640Q238 640 208 615T178 544Q178 509 197 485T262 438L368 387Q447 349 481 306T516 204Q516 167 500 133ZM381 150T404 130Q422 157
422 190Q422 224 399 251T323 305L218 359Q181 378 150 401Q131 373 131 340Q131 307 154 281T231 225L337 173Q381 150 404 130Z" />
<glyph unicode="&#xa8;" glyph-name="dieresis" horiz-adv-x="300" d="M10 710H114V610H10V710ZM189 710H293V610H189V710Z" />
<glyph unicode="&#xa9;" glyph-name="copyright" horiz-adv-x="823" d="M312 -5T229 43T99 173T51 357Q51 458 98 540T228 669T412 717Q513 717 595 670T725 540T773 357Q773 256 726 174T595 43T412 -5Q312 -5 229 43ZM499 45T569 86T679 198T720 357Q720 444
680 515T570 626T412 667Q325 667 255 627T144 515T103 357Q103 270 143 199T254 86T412 45Q499 45 569 86ZM325 138T269 197T213 357Q213 456 269 515T422 574Q466 574 506 560T575 521L547 456Q493 500 432 500Q373 500 341 463T308 357Q308 287 340 250T432
212Q493 212 547 256L575 191Q546 166 506 152T422 138Q325 138 269 197Z" />
<glyph unicode="&#xaa;" glyph-name="ordfeminine" horiz-adv-x="336" d="M235 717T267 687T300 590V414H217V464Q206 438 183 424T130 409Q85 409 56 436T26 501Q26 548 64 568T198 588H216V603Q216 630 203 641T162 652Q112 652 64 624L43 686Q69 700 102 708T170
717Q235 717 267 687ZM180 469T198 486T216 533V545H206Q147 545 127 536T107 506Q107 491 120 480T153 469Q180 469 198 486Z" />
<glyph unicode="&#xab;" glyph-name="guillemotleft" horiz-adv-x="469" d="M158 87L25 267L159 449H248L119 268L246 87H158ZM352 87L219 267L353 449H442L313 268L440 87H352Z" />
<glyph unicode="&#xac;" glyph-name="logicalnot" horiz-adv-x="600" d="M546 429V147H472V355H54V429H546Z" />
<glyph unicode="&#xad;" glyph-name="uni00AD" horiz-adv-x="433" d="M71 228V310H362V228H71Z" />
<glyph unicode="&#xae;" glyph-name="registered" horiz-adv-x="823" d="M513 717T595 670T725 540T773 357Q773 256 726 174T595 43T412 -5Q312 -5 229 43T99 173T51 357Q51 458 98 540T228 669T412 717Q513 717 595 670ZM499 45T569 86T679 198T720 357Q720
444 680 515T570 626T412 667Q325 667 255 627T144 515T103 357Q103 270 143 199T254 86T412 45Q499 45 569 86ZM523 308T546 269L618 143H516L440 280Q430 296 419 302T389 309H345V143H254V570H439Q512 570 551 536T591 441Q591 393 564 360T486 317Q523 308
546 269ZM466 377T484 391T502 437Q502 469 484 484T428 499H344V377H428Q466 377 484 391Z" />
<glyph unicode="&#xaf;" glyph-name="overscore" horiz-adv-x="300" d="M-2 624V695H305V624H-2Z" />
<glyph unicode="&#xb0;" glyph-name="degree" horiz-adv-x="370" d="M143 421T109 440T55 493T35 569Q35 611 55 644T109 697T185 717Q226 717 260 698T313 645T333 569Q333 527 314 494T260 441T185 421Q143 421 109 440ZM221 481T245 505T270 569Q270 608 246
632T185 657Q148 657 124 633T100 569Q100 530 124 506T185 481Q221 481 245 505Z" />
<glyph unicode="&#xb1;" glyph-name="plusminus" horiz-adv-x="600" d="M337 369H546V295H337V130H263V295H54V369H263V534H337V369ZM54 0V74H546V0H54Z" />
<glyph unicode="&#xb2;" glyph-name="uni00B2" horiz-adv-x="380" d="M341 357V285H50V351L191 504Q214 530 225 551T237 593Q237 619 221 632T176 646Q150 646 119 635T59 603L35 668Q64 689 105 702T188 716Q252 716 289 684T327 599Q327 562 310 529T251 454L156
357H341Z" />
<glyph unicode="&#xb3;" glyph-name="uni00B3" horiz-adv-x="380" d="M297 494T317 468T338 402Q338 348 297 315T184 281Q142 281 101 294T30 329L53 394Q115 351 178 351Q214 351 233 365T253 408Q253 466 176 466H115V536H165Q241 536 241 594Q241 619 225
632T179 646Q150 646 119 635T59 603L35 668Q64 689 105 702T184 716Q252 716 289 684T327 601Q327 567 309 542T260 505Q297 494 317 468Z" />
<glyph unicode="&#xb4;" glyph-name="acute" horiz-adv-x="300" d="M185 558H118L218 763H327L185 558Z" />
<glyph unicode="&#xb5;" glyph-name="uni00B5" horiz-adv-x="586" d="M512 504V0H414V84Q390 40 348 17T253 -7Q203 -7 171 12V-216H71V504H171V196Q171 134 196 105T274 75Q336 75 373 115T411 221V504H512Z" />
<glyph unicode="&#xb6;" glyph-name="paragraph" horiz-adv-x="602" d="M519 -182H441V642H325V-182H248V300Q186 300 140 326T68 399T42 506Q42 566 67 613T140 686T250 712H519V-182Z" />
<glyph unicode="&#xb7;" glyph-name="middot" horiz-adv-x="240" d="M60 329H180V209H60V329Z" />
<glyph unicode="&#xb8;" glyph-name="cedilla" horiz-adv-x="300" d="M226 -41T248 -59T271 -111Q271 -148 239 -172T149 -196Q127 -196 102 -191T58 -177L71 -129Q108 -143 148 -143Q173 -143 187 -135T201 -111Q201 -86 166 -86Q147 -86 123 -94L104 -77L115
20H179L171 -43Q178 -41 192 -41Q226 -41 248 -59Z" />
<glyph unicode="&#xb9;" glyph-name="uni00B9" horiz-adv-x="380" d="M261 357H338V285H94V357H172V614L99 571V657L195 712H261V357Z" />
<glyph unicode="&#xba;" glyph-name="ordmasculine" horiz-adv-x="354" d="M103 409T62 452T20 564Q20 632 61 674T177 717Q251 717 292 674T334 564Q334 496 293 453T177 409Q103 409 62 452ZM211 478T229 500T248 564Q248 605 230 627T177 649Q143 649 125 627T107
564Q107 523 125 501T177 478Q211 478 229 500Z" />
<glyph unicode="&#xbb;" glyph-name="guillemotright" horiz-adv-x="469" d="M117 87H28L156 268L26 449H116L249 267L117 87ZM311 87H222L350 268L220 449H310L443 267L311 87Z" />
<glyph unicode="&#xbc;" glyph-name="onequarter" horiz-adv-x="943" d="M261 357H338V285H94V357H172V614L99 571V657L195 712H261V357ZM297 -26L226 14L646 738L716 698L297 -26ZM926 146V79H864V0H782V79H589V142L792 427H864V146H926ZM668 146H782V307L668 146Z" />
<glyph unicode="&#xbd;" glyph-name="onehalf" horiz-adv-x="943" d="M261 357H338V285H94V357H172V614L99 571V657L195 712H261V357ZM297 -26L226 14L646 738L716 698L297 -26ZM904 72V0H613V66L754 219Q777 245 788 266T800 308Q800 334 784 347T739 361Q713
361 682 350T622 318L598 383Q627 404 668 417T751 431Q815 431 852 399T890 314Q890 277 873 244T814 169L719 72H904Z" />
<glyph unicode="&#xbe;" glyph-name="threequarters" horiz-adv-x="943" d="M297 494T317 468T338 402Q338 348 297 315T184 281Q142 281 101 294T30 329L53 394Q115 351 178 351Q214 351 233 365T253 408Q253 466 176 466H115V536H165Q241 536 241 594Q241 619
225 632T179 646Q150 646 119 635T59 603L35 668Q64 689 105 702T184 716Q252 716 289 684T327 601Q327 567 309 542T260 505Q297 494 317 468ZM297 -26L226 14L646 738L716 698L297 -26ZM926 146V79H864V0H782V79H589V142L792 427H864V146H926ZM668 146H782V307L668
146Z" />
<glyph unicode="&#xbf;" glyph-name="questiondown" horiz-adv-x="454" d="M179 373V493H299V373H179ZM134 -189T77 -146T20 -29Q20 6 33 34T64 82T114 131Q158 171 180 200T207 273L210 296H270V263Q270 205 249 169T186 91Q154 58 139 35T124 -21Q124 -59 151
-81T227 -104Q297 -104 366 -62V-151Q303 -189 221 -189Q134 -189 77 -146Z" />
<glyph unicode="&#xc0;" glyph-name="Agrave" horiz-adv-x="741" d="M627 0L551 176H191L115 0H10L327 712H414L732 0H627ZM226 258H516L371 597L226 258ZM337 773L198 927H302L404 773H337Z" />
<glyph unicode="&#xc1;" glyph-name="Aacute" horiz-adv-x="741" d="M627 0L551 176H191L115 0H10L327 712H414L732 0H627ZM226 258H516L371 597L226 258ZM404 773H337L439 927H543L404 773Z" />
<glyph unicode="&#xc2;" glyph-name="Acircumflex" horiz-adv-x="741" d="M627 0L551 176H191L115 0H10L327 712H414L732 0H627ZM226 258H516L371 597L226 258ZM300 773H215L339 927H402L526 773H441L371 872L300 773Z" />
<glyph unicode="&#xc3;" glyph-name="Atilde" horiz-adv-x="741" d="M627 0L551 176H191L115 0H10L327 712H414L732 0H627ZM226 258H516L371 597L226 258ZM204 850T230 882T300 914Q320 914 338 906T383 882Q406 869 417 864T440 858Q461 858 473 873T486 911H537Q537
852 511 820T441 787Q421 787 403 795T358 819Q335 832 324 837T301 843Q280 843 268 828T255 790H204Q204 850 230 882Z" />
<glyph unicode="&#xc4;" glyph-name="Adieresis" horiz-adv-x="741" d="M627 0L551 176H191L115 0H10L327 712H414L732 0H627ZM226 258H516L371 597L226 258ZM229 900H333V801H229V900ZM408 900H512V801H408V900Z" />
<glyph unicode="&#xc5;" glyph-name="Aring" horiz-adv-x="741" d="M551 176H191L115 0H10L319 693Q295 707 281 730T267 782Q267 825 297 855T371 885Q414 885 445 855T476 782Q476 753 462 730T422 693L732 0H627L551 176ZM350 831T337 817T323 782Q323 761
336 747T371 732Q391 732 404 746T418 782Q418 802 405 816T371 831Q350 831 337 817ZM226 258H516L371 597L226 258Z" />
<glyph unicode="&#xc6;" glyph-name="AE" horiz-adv-x="1004" d="M958 628H597L617 404H937V320H624L644 84H958V0H556L541 176H206L102 0H-10L427 712H958V628ZM535 258L504 628H475L255 258H535Z" />
<glyph unicode="&#xc7;" glyph-name="Ccedilla" horiz-adv-x="684" d="M597 40T540 18T414 -8L409 -43Q416 -41 430 -41Q464 -41 486 -59T509 -111Q509 -148 477 -172T387 -196Q365 -196 340 -191T296 -177L309 -129Q346 -143 386 -143Q411 -143 425 -135T439
-111Q439 -86 404 -86Q385 -86 361 -94L342 -77L350 -6Q260 4 194 50T93 175T58 357Q58 468 99 550T216 676T396 720Q469 720 531 698T637 632L601 556Q551 597 503 615T397 634Q286 634 226 562T165 357Q165 223 225 151T397 78Q454 78 502 96T601 156L637 80Q597
40 540 18Z" />
<glyph unicode="&#xc8;" glyph-name="Egrave" horiz-adv-x="591" d="M83 0V712H545V628H185V404H525V320H185V84H545V0H83ZM295 773L156 927H260L362 773H295Z" />
<glyph unicode="&#xc9;" glyph-name="Eacute" horiz-adv-x="591" d="M83 0V712H545V628H185V404H525V320H185V84H545V0H83ZM362 773H295L397 927H501L362 773Z" />
<glyph unicode="&#xca;" glyph-name="Ecircumflex" horiz-adv-x="591" d="M83 0V712H545V628H185V404H525V320H185V84H545V0H83ZM258 773H173L297 927H360L484 773H399L329 872L258 773Z" />
<glyph unicode="&#xcb;" glyph-name="Edieresis" horiz-adv-x="591" d="M83 0V712H545V628H185V404H525V320H185V84H545V0H83ZM187 900H291V801H187V900ZM366 900H470V801H366V900Z" />
<glyph unicode="&#xcc;" glyph-name="Igrave" horiz-adv-x="269" d="M83 0V712H186V0H83ZM100 773L-39 927H65L167 773H100Z" />
<glyph unicode="&#xcd;" glyph-name="Iacute" horiz-adv-x="269" d="M83 0V712H186V0H83ZM167 773H100L202 927H306L167 773Z" />
<glyph unicode="&#xce;" glyph-name="Icircumflex" horiz-adv-x="269" d="M83 0V712H186V0H83ZM63 773H-22L102 927H165L289 773H204L134 872L63 773Z" />
<glyph unicode="&#xcf;" glyph-name="Idieresis" horiz-adv-x="269" d="M83 0V712H186V0H83ZM-8 900H96V801H-8V900ZM171 900H275V801H171V900Z" />
<glyph unicode="&#xd0;" glyph-name="Eth" horiz-adv-x="771" d="M523 712T618 619T713 357Q713 187 618 94T351 0H101V320H10V401H101V712H351Q523 712 618 619ZM607 86T607 357Q607 626 345 626H205V401H397V320H205V86H345Q607 86 607 357Z" />
<glyph unicode="&#xd1;" glyph-name="Ntilde" horiz-adv-x="750" d="M570 712H667V0H588L180 538V0H83V712H161L570 173V712ZM208 850T234 882T304 914Q324 914 342 906T387 882Q410 869 421 864T444 858Q465 858 477 873T490 911H541Q541 852 515 820T445 787Q425
787 407 795T362 819Q339 832 328 837T305 843Q284 843 272 828T259 790H208Q208 850 234 882Z" />
<glyph unicode="&#xd2;" glyph-name="Ograve" horiz-adv-x="779" d="M288 -8T214 36T99 163T58 356Q58 468 98 550T213 676T389 720Q491 720 565 676T680 550T720 357Q720 245 680 163T565 37T389 -8Q288 -8 214 36ZM496 76T555 149T615 357Q615 491 556 563T389
636Q282 636 223 564T164 357Q164 222 223 149T389 76Q496 76 555 149ZM355 773L216 927H320L422 773H355Z" />
<glyph unicode="&#xd3;" glyph-name="Oacute" horiz-adv-x="779" d="M288 -8T214 36T99 163T58 356Q58 468 98 550T213 676T389 720Q491 720 565 676T680 550T720 357Q720 245 680 163T565 37T389 -8Q288 -8 214 36ZM496 76T555 149T615 357Q615 491 556 563T389
636Q282 636 223 564T164 357Q164 222 223 149T389 76Q496 76 555 149ZM422 773H355L457 927H561L422 773Z" />
<glyph unicode="&#xd4;" glyph-name="Ocircumflex" horiz-adv-x="779" d="M288 -8T214 36T99 163T58 356Q58 468 98 550T213 676T389 720Q491 720 565 676T680 550T720 357Q720 245 680 163T565 37T389 -8Q288 -8 214 36ZM496 76T555 149T615 357Q615 491 556
563T389 636Q282 636 223 564T164 357Q164 222 223 149T389 76Q496 76 555 149ZM318 773H233L357 927H420L544 773H459L389 872L318 773Z" />
<glyph unicode="&#xd5;" glyph-name="Otilde" horiz-adv-x="779" d="M288 -8T214 36T99 163T58 356Q58 468 98 550T213 676T389 720Q491 720 565 676T680 550T720 357Q720 245 680 163T565 37T389 -8Q288 -8 214 36ZM496 76T555 149T615 357Q615 491 556 563T389
636Q282 636 223 564T164 357Q164 222 223 149T389 76Q496 76 555 149ZM222 850T248 882T318 914Q338 914 356 906T401 882Q424 869 435 864T458 858Q479 858 491 873T504 911H555Q555 852 529 820T459 787Q439 787 421 795T376 819Q353 832 342 837T319 843Q298
843 286 828T273 790H222Q222 850 248 882Z" />
<glyph unicode="&#xd6;" glyph-name="Odieresis" horiz-adv-x="779" d="M288 -8T214 36T99 163T58 356Q58 468 98 550T213 676T389 720Q491 720 565 676T680 550T720 357Q720 245 680 163T565 37T389 -8Q288 -8 214 36ZM496 76T555 149T615 357Q615 491 556 563T389
636Q282 636 223 564T164 357Q164 222 223 149T389 76Q496 76 555 149ZM247 900H351V801H247V900ZM426 900H530V801H426V900Z" />
<glyph unicode="&#xd7;" glyph-name="multiply" horiz-adv-x="600" d="M536 472L352 288L536 104L484 52L300 236L116 52L64 104L248 288L64 472L116 524L300 340L484 524L536 472Z" />
<glyph unicode="&#xd8;" glyph-name="Oslash" horiz-adv-x="779" d="M661 600T690 526T720 357Q720 245 680 163T565 37T389 -8Q305 -8 241 22L197 -53L128 -12L173 65Q118 113 88 187T58 356Q58 468 98 550T213 676T389 720Q473 720 537 690L581 765L650 724L605
648Q661 600 690 526ZM164 225T222 150L493 614Q446 636 389 636Q282 636 223 564T164 357Q164 225 222 150ZM496 76T555 149T615 357Q615 490 556 563L285 99Q331 76 389 76Q496 76 555 149Z" />
<glyph unicode="&#xd9;" glyph-name="Ugrave" horiz-adv-x="735" d="M226 -8T153 66T79 283V712H180V276Q180 177 227 127T368 76Q460 76 507 127T555 276V712H657V283Q657 140 584 66T368 -8Q226 -8 153 66ZM334 773L195 927H299L401 773H334Z" />
<glyph unicode="&#xda;" glyph-name="Uacute" horiz-adv-x="735" d="M226 -8T153 66T79 283V712H180V276Q180 177 227 127T368 76Q460 76 507 127T555 276V712H657V283Q657 140 584 66T368 -8Q226 -8 153 66ZM401 773H334L436 927H540L401 773Z" />
<glyph unicode="&#xdb;" glyph-name="Ucircumflex" horiz-adv-x="735" d="M226 -8T153 66T79 283V712H180V276Q180 177 227 127T368 76Q460 76 507 127T555 276V712H657V283Q657 140 584 66T368 -8Q226 -8 153 66ZM297 773H212L336 927H399L523 773H438L368 872L297 773Z" />
<glyph unicode="&#xdc;" glyph-name="Udieresis" horiz-adv-x="735" d="M226 -8T153 66T79 283V712H180V276Q180 177 227 127T368 76Q460 76 507 127T555 276V712H657V283Q657 140 584 66T368 -8Q226 -8 153 66ZM226 900H330V801H226V900ZM405 900H509V801H405V900Z" />
<glyph unicode="&#xdd;" glyph-name="Yacute" horiz-adv-x="617" d="M644 712L360 286V0H256V288L-27 712H91L309 376L526 712H644ZM341 773H274L376 927H480L341 773Z" />
<glyph unicode="&#xde;" glyph-name="Thorn" horiz-adv-x="658" d="M495 559T555 508T616 363Q616 269 555 217T384 165H185V0H83V712H185V559H384Q495 559 555 508ZM445 248T480 276T516 363Q516 421 481 448T370 476H185V248H370Q445 248 480 276Z" />
<glyph unicode="&#xdf;" glyph-name="germandbls" horiz-adv-x="652" d="M508 343T565 290T623 158Q623 82 570 38T427 -7Q369 -7 320 9T235 57L267 132Q343 72 425 72Q475 72 501 95T528 162Q528 214 473 253T283 327V403Q370 435 404 474T439 568Q439 615 411
640T327 665Q253 665 214 623T174 497V0H74V485Q74 610 139 676T327 742Q424 742 479 697T535 570Q535 506 501 458T384 373Q508 343 565 290Z" />
<glyph unicode="&#xe0;" glyph-name="agrave" horiz-adv-x="609" d="M535 504V0H435V86Q413 41 370 17T268 -7Q201 -7 151 25T72 115T44 252Q44 330 72 390T152 483T268 516Q326 516 369 492T435 422V504H535ZM360 73T397 120T435 254Q435 341 398 388T291 435Q223
435 185 387T146 252Q146 167 184 120T292 73Q360 73 397 120ZM271 569L129 774H238L338 569H271Z" />
<glyph unicode="&#xe1;" glyph-name="aacute" horiz-adv-x="609" d="M535 504V0H435V86Q413 41 370 17T268 -7Q201 -7 151 25T72 115T44 252Q44 330 72 390T152 483T268 516Q326 516 369 492T435 422V504H535ZM360 73T397 120T435 254Q435 341 398 388T291 435Q223
435 185 387T146 252Q146 167 184 120T292 73Q360 73 397 120ZM338 569H271L371 774H480L338 569Z" />
<glyph unicode="&#xe2;" glyph-name="acircumflex" horiz-adv-x="609" d="M535 504V0H435V86Q413 41 370 17T268 -7Q201 -7 151 25T72 115T44 252Q44 330 72 390T152 483T268 516Q326 516 369 492T435 422V504H535ZM360 73T397 120T435 254Q435 341 398 388T291
435Q223 435 185 387T146 252Q146 167 184 120T292 73Q360 73 397 120ZM236 569H149L271 774H338L460 569H373L305 705L236 569Z" />
<glyph unicode="&#xe3;" glyph-name="atilde" horiz-adv-x="609" d="M535 504V0H435V86Q413 41 370 17T268 -7Q201 -7 151 25T72 115T44 252Q44 330 72 390T152 483T268 516Q326 516 369 492T435 422V504H535ZM360 73T397 120T435 254Q435 341 398 388T291 435Q223
435 185 387T146 252Q146 167 184 120T292 73Q360 73 397 120ZM138 671T164 703T234 736Q254 736 272 728T317 704Q338 691 350 685T374 679Q395 679 407 694T420 733H471Q471 673 445 641T375 609Q355 609 337 617T292 641Q269 654 258 659T235 665Q214 665 202
650T189 612H138Q138 671 164 703Z" />
<glyph unicode="&#xe4;" glyph-name="adieresis" horiz-adv-x="609" d="M535 504V0H435V86Q413 41 370 17T268 -7Q201 -7 151 25T72 115T44 252Q44 330 72 390T152 483T268 516Q326 516 369 492T435 422V504H535ZM360 73T397 120T435 254Q435 341 398 388T291
435Q223 435 185 387T146 252Q146 167 184 120T292 73Q360 73 397 120ZM163 721H267V621H163V721ZM342 721H446V621H342V721Z" />
<glyph unicode="&#xe5;" glyph-name="aring" horiz-adv-x="609" d="M535 504V0H435V86Q413 41 370 17T268 -7Q201 -7 151 25T72 115T44 252Q44 330 72 390T152 483T268 516Q326 516 369 492T435 422V504H535ZM360 73T397 120T435 254Q435 341 398 388T291 435Q223
435 185 387T146 252Q146 167 184 120T292 73Q360 73 397 120ZM261 569T231 598T200 672Q200 715 230 744T305 774Q348 774 378 745T409 672Q409 628 379 599T305 569Q261 569 231 598ZM325 622T338 636T352 672Q352 692 339 706T305 720Q284 720 271 706T257 672Q257
650 270 636T305 622Q325 622 338 636Z" />
<glyph unicode="&#xe6;" glyph-name="ae" horiz-adv-x="877" d="M835 250H482Q483 165 523 119T641 73Q721 73 796 130L826 58Q793 28 741 11T637 -7Q562 -7 509 23T427 113Q405 56 358 25T245 -7Q191 -7 148 13T80 69T55 152Q55 209 83 243T175 293T345 310H384V322Q384
382 360 409T282 436Q196 436 107 383L76 454Q116 482 173 499T283 516Q408 516 450 434Q481 474 525 495T624 516Q688 516 735 486T809 399T835 266V250ZM568 441T533 408T486 310H746Q740 374 708 407T623 441Q568 441 533 408ZM314 68T349 108T384 212V251H350Q243
251 200 229T156 158Q156 117 184 93T256 68Q314 68 349 108Z" />
<glyph unicode="&#xe7;" glyph-name="ccedilla" horiz-adv-x="499" d="M448 30T404 13T310 -7L305 -43Q312 -41 326 -41Q360 -41 382 -59T405 -111Q405 -148 373 -172T283 -196Q261 -196 236 -191T192 -177L205 -129Q242 -143 282 -143Q307 -143 321 -135T335
-111Q335 -86 300 -86Q281 -86 257 -94L238 -77L246 -4Q152 10 98 78T44 252Q44 330 75 390T164 483T297 516Q350 516 399 499T478 451L447 378Q376 434 304 434Q231 434 190 387T149 253Q149 167 190 121T304 74Q378 74 447 130L478 57Q448 30 404 13Z" />
<glyph unicode="&#xe8;" glyph-name="egrave" horiz-adv-x="546" d="M504 250H144Q149 73 305 73Q392 73 464 130L495 58Q461 28 409 11T303 -7Q182 -7 113 62T44 253Q44 330 74 390T160 483T285 516Q387 516 445 450T504 267V250ZM230 441T194 407T148 310H415Q409
374 376 407T287 441Q230 441 194 407ZM251 569L109 774H218L318 569H251Z" />
<glyph unicode="&#xe9;" glyph-name="eacute" horiz-adv-x="546" d="M504 250H144Q149 73 305 73Q392 73 464 130L495 58Q461 28 409 11T303 -7Q182 -7 113 62T44 253Q44 330 74 390T160 483T285 516Q387 516 445 450T504 267V250ZM230 441T194 407T148 310H415Q409
374 376 407T287 441Q230 441 194 407ZM318 569H251L351 774H460L318 569Z" />
<glyph unicode="&#xea;" glyph-name="ecircumflex" horiz-adv-x="546" d="M504 250H144Q149 73 305 73Q392 73 464 130L495 58Q461 28 409 11T303 -7Q182 -7 113 62T44 253Q44 330 74 390T160 483T285 516Q387 516 445 450T504 267V250ZM230 441T194 407T148 310H415Q409
374 376 407T287 441Q230 441 194 407ZM216 569H129L251 774H318L440 569H353L285 705L216 569Z" />
<glyph unicode="&#xeb;" glyph-name="edieresis" horiz-adv-x="546" d="M504 250H144Q149 73 305 73Q392 73 464 130L495 58Q461 28 409 11T303 -7Q182 -7 113 62T44 253Q44 330 74 390T160 483T285 516Q387 516 445 450T504 267V250ZM230 441T194 407T148 310H415Q409
374 376 407T287 441Q230 441 194 407ZM143 721H247V621H143V721ZM322 721H426V621H322V721Z" />
<glyph unicode="&#xec;" glyph-name="igrave" horiz-adv-x="248" d="M74 0V504H174V0H74ZM90 569L-52 774H57L157 569H90Z" />
<glyph unicode="&#xed;" glyph-name="iacute" horiz-adv-x="248" d="M74 0V504H174V0H74ZM157 569H90L190 774H299L157 569Z" />
<glyph unicode="&#xee;" glyph-name="icircumflex" horiz-adv-x="248" d="M74 0V504H174V0H74ZM55 569H-32L90 774H157L279 569H192L124 705L55 569Z" />
<glyph unicode="&#xef;" glyph-name="idieresis" horiz-adv-x="248" d="M74 0V504H174V0H74ZM-18 721H86V621H-18V721ZM161 721H265V621H161V721Z" />
<glyph unicode="&#xf0;" glyph-name="eth" horiz-adv-x="586" d="M489 540T515 464T542 299Q542 150 477 72T288 -7Q216 -7 161 22T75 106T44 231Q44 302 74 356T157 440T281 470Q385 470 438 403Q419 501 350 570L182 514L163 573L293 616Q239 653 159 672L184
745Q305 717 389 648L521 692L538 633L438 600Q489 540 515 464ZM358 73T396 115T434 231Q434 307 397 348T291 390Q222 390 184 349T146 231Q146 154 183 114T290 73Q358 73 396 115Z" />
<glyph unicode="&#xf1;" glyph-name="ntilde" horiz-adv-x="593" d="M523 516T523 314V0H422V308Q422 374 397 404T315 434Q251 434 213 394T174 287V0H74V362Q74 441 66 504H160L169 417Q193 465 238 490T342 516Q523 516 523 314ZM131 671T157 703T227 736Q247
736 265 728T310 704Q331 691 343 685T367 679Q388 679 400 694T413 733H464Q464 673 438 641T368 609Q348 609 330 617T285 641Q262 654 251 659T228 665Q207 665 195 650T182 612H131Q131 671 157 703Z" />
<glyph unicode="&#xf2;" glyph-name="ograve" horiz-adv-x="581" d="M217 -7T161 25T75 116T44 254Q44 333 74 392T161 484T291 516Q364 516 420 484T506 393T537 254Q537 175 507 116T420 25T291 -7Q217 -7 161 25ZM360 73T397 119T434 254Q434 341 397 388T291
435Q222 435 184 388T146 254Q146 165 183 119T290 73Q360 73 397 119ZM257 569L115 774H224L324 569H257Z" />
<glyph unicode="&#xf3;" glyph-name="oacute" horiz-adv-x="581" d="M217 -7T161 25T75 116T44 254Q44 333 74 392T161 484T291 516Q364 516 420 484T506 393T537 254Q537 175 507 116T420 25T291 -7Q217 -7 161 25ZM360 73T397 119T434 254Q434 341 397 388T291
435Q222 435 184 388T146 254Q146 165 183 119T290 73Q360 73 397 119ZM324 569H257L357 774H466L324 569Z" />
<glyph unicode="&#xf4;" glyph-name="ocircumflex" horiz-adv-x="581" d="M217 -7T161 25T75 116T44 254Q44 333 74 392T161 484T291 516Q364 516 420 484T506 393T537 254Q537 175 507 116T420 25T291 -7Q217 -7 161 25ZM360 73T397 119T434 254Q434 341 397
388T291 435Q222 435 184 388T146 254Q146 165 183 119T290 73Q360 73 397 119ZM222 569H135L257 774H324L446 569H359L291 705L222 569Z" />
<glyph unicode="&#xf5;" glyph-name="otilde" horiz-adv-x="581" d="M217 -7T161 25T75 116T44 254Q44 333 74 392T161 484T291 516Q364 516 420 484T506 393T537 254Q537 175 507 116T420 25T291 -7Q217 -7 161 25ZM360 73T397 119T434 254Q434 341 397 388T291
435Q222 435 184 388T146 254Q146 165 183 119T290 73Q360 73 397 119ZM124 671T150 703T220 736Q240 736 258 728T303 704Q324 691 336 685T360 679Q381 679 393 694T406 733H457Q457 673 431 641T361 609Q341 609 323 617T278 641Q255 654 244 659T221 665Q200
665 188 650T175 612H124Q124 671 150 703Z" />
<glyph unicode="&#xf6;" glyph-name="odieresis" horiz-adv-x="581" d="M217 -7T161 25T75 116T44 254Q44 333 74 392T161 484T291 516Q364 516 420 484T506 393T537 254Q537 175 507 116T420 25T291 -7Q217 -7 161 25ZM360 73T397 119T434 254Q434 341 397 388T291
435Q222 435 184 388T146 254Q146 165 183 119T290 73Q360 73 397 119ZM149 721H253V621H149V721ZM328 721H432V621H328V721Z" />
<glyph unicode="&#xf7;" glyph-name="divide" horiz-adv-x="600" d="M243 434V537H345V434H243ZM546 325V251H54V325H546ZM243 36V139H345V36H243Z" />
<glyph unicode="&#xf8;" glyph-name="oslash" horiz-adv-x="581" d="M492 429T514 376T537 254Q537 175 507 116T420 25T291 -7Q236 -7 187 12L150 -51L95 -19L132 45Q90 79 67 132T44 254Q44 333 74 392T161 484T291 516Q347 516 395 496L431 559L487 528L450
464Q492 429 514 376ZM145 169T178 124L353 424Q326 436 291 436Q221 436 183 389T145 254Q145 169 178 124ZM361 73T398 119T436 254Q436 336 403 383L229 84Q256 73 290 73Q361 73 398 119Z" />
<glyph unicode="&#xf9;" glyph-name="ugrave" horiz-adv-x="586" d="M512 504V0H414V84Q390 40 348 17T253 -7Q71 -7 71 195V504H171V196Q171 134 196 105T274 75Q336 75 373 115T411 221V504H512ZM259 569L117 774H226L326 569H259Z" />
<glyph unicode="&#xfa;" glyph-name="uacute" horiz-adv-x="586" d="M512 504V0H414V84Q390 40 348 17T253 -7Q71 -7 71 195V504H171V196Q171 134 196 105T274 75Q336 75 373 115T411 221V504H512ZM326 569H259L359 774H468L326 569Z" />
<glyph unicode="&#xfb;" glyph-name="ucircumflex" horiz-adv-x="586" d="M512 504V0H414V84Q390 40 348 17T253 -7Q71 -7 71 195V504H171V196Q171 134 196 105T274 75Q336 75 373 115T411 221V504H512ZM224 569H137L259 774H326L448 569H361L293 705L224 569Z" />
<glyph unicode="&#xfc;" glyph-name="udieresis" horiz-adv-x="586" d="M512 504V0H414V84Q390 40 348 17T253 -7Q71 -7 71 195V504H171V196Q171 134 196 105T274 75Q336 75 373 115T411 221V504H512ZM151 721H255V621H151V721ZM330 721H434V621H330V721Z" />
<glyph unicode="&#xfd;" glyph-name="yacute" horiz-adv-x="536" d="M532 504L297 -41Q258 -130 200 -171T55 -227L33 -149Q104 -133 140 -108T199 -31L217 11L5 504H112L270 114L431 504H532ZM301 569H234L334 774H443L301 569Z" />
<glyph unicode="&#xfe;" glyph-name="thorn" horiz-adv-x="609" d="M406 516T457 484T536 392T565 252Q565 173 537 114T457 24T341 -7Q283 -7 240 17T174 88V-216H74V736H174V421Q196 466 239 491T341 516Q406 516 457 484ZM387 73T424 120T462 252Q462 337 424
386T318 435Q248 435 211 388T174 254Q174 167 211 120T318 73Q387 73 424 120Z" />
<glyph unicode="&#xff;" glyph-name="ydieresis" horiz-adv-x="536" d="M532 504L297 -41Q258 -130 200 -171T55 -227L33 -149Q104 -133 140 -108T199 -31L217 11L5 504H112L270 114L431 504H532ZM126 721H230V621H126V721ZM305 721H409V621H305V721Z" />
<glyph unicode="&#x2013;" glyph-name="endash" horiz-adv-x="505" d="M0 238V301H505V238H0Z" />
<glyph unicode="&#x2014;" glyph-name="emdash" horiz-adv-x="1010" d="M0 238V301H1010V238H0Z" />
<glyph unicode="&#x2018;" glyph-name="quoteleft" horiz-adv-x="240" d="M180 595V475H60V556Q60 603 76 642T129 718L173 684Q130 636 124 595H180Z" />
<glyph unicode="&#x2019;" glyph-name="quoteright" horiz-adv-x="240" d="M180 712V630Q180 583 164 545T110 469L67 503Q109 549 115 592H60V712H180Z" />
<glyph unicode="&#x201a;" glyph-name="quotesinglbase" horiz-adv-x="240" d="M180 120V38Q180 -9 164 -47T110 -124L67 -89Q109 -43 115 0H60V120H180Z" />
<glyph unicode="&#x201c;" glyph-name="quotedblleft" horiz-adv-x="419" d="M180 595V475H60V556Q60 603 76 642T129 718L173 684Q130 636 124 595H180ZM359 595V475H239V556Q239 603 255 642T308 718L352 684Q309 636 303 595H359Z" />
<glyph unicode="&#x201d;" glyph-name="quotedblright" horiz-adv-x="419" d="M180 712V630Q180 583 164 545T110 469L67 503Q109 549 115 592H60V712H180ZM359 712V630Q359 583 343 545T289 469L246 503Q288 549 294 592H239V712H359Z" />
<glyph unicode="&#x201e;" glyph-name="quotedblbase" horiz-adv-x="419" d="M180 120V38Q180 -9 164 -47T110 -124L67 -89Q109 -43 115 0H60V120H180ZM359 120V38Q359 -9 343 -47T289 -124L246 -89Q288 -43 294 0H239V120H359Z" />
<glyph unicode="&#x2022;" glyph-name="bullet" horiz-adv-x="529" d="M216 89T174 112T107 177T82 268Q82 314 106 355T172 422T265 447Q313 447 355 424T422 359T447 268Q447 219 423 178T356 113T265 89Q216 89 174 112Z" />
<glyph unicode="&#x2039;" glyph-name="guilsinglleft" horiz-adv-x="274" d="M158 87L25 267L159 449H248L119 268L246 87H158Z" />
<glyph unicode="&#x203a;" glyph-name="guilsinglright" horiz-adv-x="274" d="M117 87H28L156 268L26 449H116L249 267L117 87Z" />
</font>
</defs>
</svg>
