<?xml version="1.0" standalone="no"?>
<!DOCTYPE svg PUBLIC "-//W3C//DTD SVG 1.1//EN" "http://www.w3.org/Graphics/SVG/1.1/DTD/svg11.dtd">
<svg xmlns="http://www.w3.org/2000/svg">
<defs >
<font id="Muli" horiz-adv-x="588" ><font-face
    font-family="Muli ExtraBold"
    units-per-em="1000"
    panose-1="0 0 9 0 0 0 0 0 0 0"
    ascent="1005"
    descent="-250"
    alphabetic="0" />
<glyph unicode=" " glyph-name="space" horiz-adv-x="281" />
<glyph unicode="!" glyph-name="exclam" horiz-adv-x="262" d="M85 229L37 713L224 712L177 229H85ZM49 161H212V0H49V161Z" />
<glyph unicode="&quot;" glyph-name="quotedbl" horiz-adv-x="473" d="M79 411L41 712H215L180 411H79ZM295 411L257 712H431L396 411H295Z" />
<glyph unicode="#" glyph-name="numbersign" horiz-adv-x="606" d="M557 460H479L440 261H534V167H421L388 0H287L320 167H211L178 0H77L110 167H50V261H129L168 460H72V553H187L218 712H319L288 553H397L428 712H529L498 553H557V460ZM339 261L378 460H269L230 261H339Z" />
<glyph unicode="$" glyph-name="dollar" horiz-adv-x="600" d="M578 126T522 70T371 -3V-116H249V-7Q111 6 28 71L79 183Q161 123 260 114V294Q192 312 146 333T69 394T37 502Q37 583 95 641T249 716V828H371V717Q428 709 479 690T562 641L511 529Q439 581 361
595V409Q427 393 472 373T547 312T578 207Q578 126 522 70ZM193 485T210 468T260 438V592Q228 583 211 563T193 512Q193 485 210 468ZM422 140T422 200Q422 223 407 238T361 266V122Q422 140 422 200Z" />
<glyph unicode="%" glyph-name="percent" horiz-adv-x="964" d="M135 288T86 344T37 507Q37 611 86 667T221 723Q308 723 357 667T406 506Q406 400 357 344T221 288Q135 288 86 344ZM340 0H210L623 712H753L340 0ZM253 383T267 411T282 506Q282 571 267 599T221
628Q191 628 177 600T162 506Q162 440 176 412T221 383Q253 383 267 411ZM655 -7T607 49T558 212Q558 317 606 372T741 428Q829 428 877 373T926 211Q926 105 878 49T741 -7Q655 -7 607 49ZM773 88T787 116T802 211Q802 276 787 304T741 333Q711 333 697 305T682
211Q682 145 696 117T741 88Q773 88 787 116Z" />
<glyph unicode="&amp;" glyph-name="ampersand" horiz-adv-x="698" d="M653 -10Q559 19 499 72Q405 -8 286 -8Q211 -8 154 17T64 87T32 191Q32 255 66 304T173 395Q104 468 104 545Q104 596 130 635T202 697T310 719Q395 719 446 676T497 559Q497 503 466 459T369
377L492 256Q530 337 536 435H661Q653 281 582 168Q644 115 725 94L653 -10ZM279 618T259 599T239 546Q239 526 250 506T292 454Q338 479 357 502T377 553Q377 583 359 600T312 618Q279 618 259 599ZM179 157T209 132T290 107Q358 107 415 155L251 317Q214 293
197 265T179 200Q179 157 209 132Z" />
<glyph unicode="&apos;" glyph-name="quotesingle" horiz-adv-x="257" d="M79 411L41 712H215L180 411H79Z" />
<glyph unicode="(" glyph-name="parenleft" horiz-adv-x="378" d="M160 -59T130 45T100 266Q100 383 130 490T232 712H352Q297 574 277 473T256 266Q256 161 276 60T350 -182H231Q160 -59 130 45Z" />
<glyph unicode=")" glyph-name="parenright" horiz-adv-x="378" d="M27 -182Q81 -42 101 59T122 266Q122 372 102 473T26 712H145Q216 597 246 490T277 266Q277 149 247 45T146 -182H27Z" />
<glyph unicode="*" glyph-name="asterisk" horiz-adv-x="459" d="M154 336L71 397L159 505L23 540L56 639L185 588L178 727H281L272 589L403 639L435 540L299 505L388 397L304 336L229 453L154 336Z" />
<glyph unicode="+" glyph-name="plus" horiz-adv-x="600" d="M546 341V238H352V43H248V238H54V341H248V536H352V341H546Z" />
<glyph unicode="," glyph-name="comma" horiz-adv-x="262" d="M212 161V58Q212 -1 192 -48T122 -144L63 -98Q112 -47 124 0H49V161H212Z" />
<glyph unicode="-" glyph-name="hyphen" horiz-adv-x="444" d="M67 211V330H378V211H67Z" />
<glyph unicode="." glyph-name="period" horiz-adv-x="262" d="M49 161H212V0H49V161Z" />
<glyph unicode="/" glyph-name="slash" horiz-adv-x="333" d="M97 -61H-27L235 755H360L97 -61Z" />
<glyph unicode="0" glyph-name="zero" horiz-adv-x="600" d="M171 -9T103 85T34 357Q34 533 102 626T300 719Q429 719 497 626T566 357Q566 179 498 85T300 -9Q171 -9 103 85ZM359 111T386 169T413 357Q413 484 386 541T300 599Q241 599 214 542T187 357Q187 227
214 169T300 111Q359 111 386 169Z" />
<glyph unicode="1" glyph-name="one" horiz-adv-x="600" d="M413 125H567V0H103V125H257V538L113 453V590L322 712H413V125Z" />
<glyph unicode="2" glyph-name="two" horiz-adv-x="601" d="M554 125V0H65V115L302 367Q376 447 376 513Q376 555 352 576T280 598Q189 598 91 529L41 641Q84 678 151 699T287 721Q398 721 463 668T529 524Q529 462 504 410T418 293L257 125H554Z" />
<glyph unicode="3" glyph-name="three" horiz-adv-x="600" d="M480 348T513 304T547 194Q547 100 476 46T283 -8Q209 -8 141 13T31 72L81 184Q176 115 276 115Q341 115 370 137T400 209Q400 256 371 277T276 299H174V421H259Q321 421 351 442T381 508Q381 552
355 575T279 598Q233 598 185 581T91 529L41 641Q84 678 151 699T289 721Q361 721 415 697T499 630T529 529Q529 471 500 429T418 366Q480 348 513 304Z" />
<glyph unicode="4" glyph-name="four" horiz-adv-x="600" d="M582 251V130H485V0H332V130H33V246L360 712H485V251H582ZM176 251H332V475L176 251Z" />
<glyph unicode="5" glyph-name="five" horiz-adv-x="600" d="M409 461T460 433T540 352T569 232Q569 160 536 106T440 22T294 -8Q226 -8 160 14T52 72L102 184Q197 115 296 115Q421 115 421 226Q421 279 389 309T300 340Q265 340 230 327T166 291H77V712H534V592H229V433Q276
461 343 461Q409 461 460 433Z" />
<glyph unicode="6" glyph-name="six" horiz-adv-x="600" d="M414 463T463 434T540 352T568 232Q568 163 537 108T450 22T324 -9Q185 -9 110 83T35 345Q35 462 71 546T174 676T334 721Q400 721 462 700T568 641L517 529Q427 598 341 598Q271 598 232 542T189 376Q212
416 255 439T352 463Q414 463 463 434ZM363 113T391 144T420 226Q420 279 392 309T315 340Q267 340 238 309T208 226Q208 176 238 145T315 113Q363 113 391 144Z" />
<glyph unicode="7" glyph-name="seven" horiz-adv-x="600" d="M45 712H556V596L239 0H72L388 587H45V712Z" />
<glyph unicode="8" glyph-name="eight" horiz-adv-x="600" d="M497 349T535 304T573 194Q573 132 539 87T442 17T300 -8Q220 -8 158 16T62 86T27 194Q27 259 65 304T172 367Q112 387 78 429T44 528Q44 586 77 630T168 697T300 721Q373 721 431 698T523 630T556
528Q556 470 522 427T428 367Q497 349 535 304ZM250 601T221 578T191 511Q191 469 220 444T300 408Q350 418 379 443T409 511Q409 555 380 578T300 601Q250 601 221 578ZM359 112T393 136T428 206Q428 249 394 276T300 312Q241 303 207 276T172 206Q172 160 206
136T300 112Q359 112 393 136Z" />
<glyph unicode="9" glyph-name="nine" horiz-adv-x="600" d="M415 721T490 629T565 367Q565 250 529 166T426 36T266 -9Q200 -9 138 12T32 71L83 183Q174 114 259 114Q329 114 367 170T410 336Q387 296 344 273T248 249Q186 249 137 278T60 360T32 480Q32 549
63 604T150 690T276 721Q415 721 490 629ZM333 372T362 403T392 486Q392 536 362 567T285 599Q237 599 209 568T180 486Q180 433 208 403T285 372Q333 372 362 403Z" />
<glyph unicode=":" glyph-name="colon" horiz-adv-x="262" d="M49 496H212V335H49V496ZM49 161H212V0H49V161Z" />
<glyph unicode=";" glyph-name="semicolon" horiz-adv-x="262" d="M49 496H212V335H49V496ZM49 161H212V58Q212 -1 192 -48T122 -144L63 -98Q112 -47 124 0H49V161Z" />
<glyph unicode="&lt;" glyph-name="less" horiz-adv-x="600" d="M546 547V434L186 289L546 144V31L54 233V347L546 547Z" />
<glyph unicode="=" glyph-name="equal" horiz-adv-x="600" d="M546 442V339H54V442H546ZM546 240V137H54V240H546Z" />
<glyph unicode="&gt;" glyph-name="greater" horiz-adv-x="600" d="M54 547L546 347V233L54 31V144L414 289L54 434V547Z" />
<glyph unicode="?" glyph-name="question" horiz-adv-x="473" d="M155 721T242 721Q307 721 357 700T435 639T463 550Q463 497 437 460T361 375Q322 338 303 313T278 258L273 225H184V275Q184 327 202 361T257 437Q283 467 296 488T309 536Q309 566 289 582T230
598Q158 598 89 555V680Q155 721 242 721ZM149 0V161H312V0H149Z" />
<glyph unicode="@" glyph-name="at" horiz-adv-x="948" d="M349 -160T249 -106T95 45T41 268Q41 407 98 509T257 665T486 719Q618 719 713 670T857 536T907 343Q907 255 880 192T806 97T698 64Q645 64 612 87T570 149H568Q541 109 507 87T421 64Q346 64 305 113T263
246Q263 318 290 377T365 471T475 505Q516 505 547 488T592 439H595L605 496H713L671 258Q666 228 666 210Q666 180 678 165T717 150Q736 150 756 169T791 232T805 343Q805 428 769 492T661 591T486 627Q389 627 313 585T193 461T150 268Q150 167 190 91T305 -26T484
-68Q558 -68 611 -50T691 0H831Q792 -72 702 -116T484 -160Q349 -160 249 -106ZM486 150T515 175T558 240T573 325Q573 371 552 394T494 418Q456 418 429 393T387 328T373 246Q373 203 392 177T445 150Q486 150 515 175Z" />
<glyph unicode="A" glyph-name="A" horiz-adv-x="759" d="M615 0L547 158H214L146 0H-11L316 712H442L769 0H615ZM266 277H496L381 544L266 277Z" />
<glyph unicode="B" glyph-name="B" horiz-adv-x="696" d="M590 350T624 305T658 195Q658 105 591 53T409 0H71V712H399Q510 712 574 663T639 527Q639 471 610 429T528 368Q590 350 624 305ZM223 422H373Q433 422 462 442T492 506Q492 550 463 571T373 592H223V422ZM454
120T482 141T511 210Q511 258 483 280T391 302H223V120H391Q454 120 482 141Z" />
<glyph unicode="C" glyph-name="C" horiz-adv-x="685" d="M297 -9T217 36T93 164T50 357Q50 466 93 548T216 676T405 721Q476 721 540 700T646 639L597 527Q549 563 504 579T408 596Q312 596 261 535T210 357Q210 239 261 178T408 116Q458 116 503 132T597 185L646
73Q605 34 541 13T405 -9Q297 -9 217 36Z" />
<glyph unicode="D" glyph-name="D" horiz-adv-x="771" d="M71 712H346Q463 712 547 670T675 548T720 357Q720 245 676 165T548 43T346 0H71V712ZM336 126Q564 126 564 357Q564 586 336 586H227V126H336Z" />
<glyph unicode="E" glyph-name="E" horiz-adv-x="599" d="M71 0V712H562V591H223V423H541V301H223V121H562V0H71Z" />
<glyph unicode="F" glyph-name="F" horiz-adv-x="578" d="M71 0V712H551V589H225V424H531V300H225V0H71Z" />
<glyph unicode="G" glyph-name="G" horiz-adv-x="745" d="M682 393V44Q630 19 561 5T418 -9Q305 -9 222 35T95 161T50 357Q50 468 94 550T220 676T411 721Q488 721 554 700T664 641L614 529Q564 565 517 581T415 597Q209 597 209 357Q209 112 424 112Q483 112
542 127V284H402V393H682Z" />
<glyph unicode="H" glyph-name="H" horiz-adv-x="779" d="M554 712H707V0H554V299H224V0H71V712H224V424H554V712Z" />
<glyph unicode="I" glyph-name="I" horiz-adv-x="299" d="M71 0V712H227V0H71Z" />
<glyph unicode="J" glyph-name="J" horiz-adv-x="381" d="M0 -53Q42 -59 71 -59Q119 -59 136 -38T153 40V712H309V42Q309 -77 262 -132T102 -188Q57 -188 0 -179V-53Z" />
<glyph unicode="K" glyph-name="K" horiz-adv-x="685" d="M725 0H537L227 329V0H71V712H227V399L526 712H712L381 372L725 0Z" />
<glyph unicode="L" glyph-name="L" horiz-adv-x="569" d="M71 0V712H227V127H545V0H71Z" />
<glyph unicode="M" glyph-name="M" horiz-adv-x="851" d="M655 712H778V0H640V389L476 0H375L210 384V0H73V712H197L427 187L655 712Z" />
<glyph unicode="N" glyph-name="N" horiz-adv-x="760" d="M541 712H688V0H572L217 454V0H71V712H186L541 259V712Z" />
<glyph unicode="O" glyph-name="O" horiz-adv-x="795" d="M292 -9T214 35T93 163T50 357Q50 468 92 550T213 676T398 721Q504 721 582 677T702 550T744 357Q744 246 702 163T582 36T398 -9Q292 -9 214 35ZM488 113T538 176T589 357Q589 475 539 537T398 599Q308
599 258 537T207 357Q207 238 257 176T398 113Q488 113 538 176Z" />
<glyph unicode="P" glyph-name="P" horiz-adv-x="675" d="M71 712H394Q512 712 577 655T643 500Q643 403 577 346T394 288H227V0H71V712ZM374 407Q496 407 496 499Q496 592 374 592H227V407H374Z" />
<glyph unicode="Q" glyph-name="Q" horiz-adv-x="795" d="M590 -10T622 -43T697 -111L592 -191Q487 -120 423 -8Q414 -9 398 -9Q292 -9 214 35T93 163T50 357Q50 468 92 550T213 676T398 721Q504 721 582 677T702 550T744 357Q744 240 698 155T568 28Q590 -10
622 -43ZM207 238T257 176T398 113Q488 113 538 176T589 357Q589 475 539 537T398 599Q308 599 258 537T207 357Q207 238 257 176Z" />
<glyph unicode="R" glyph-name="R" horiz-adv-x="708" d="M672 0H507L416 237Q405 265 383 276T326 287H225V0H71V712H388Q512 712 576 658T640 503Q640 432 603 381T495 308Q558 295 586 221L672 0ZM365 406Q432 406 463 428T494 499Q494 547 463 569T365 592H223V406H365Z"
/>
<glyph unicode="S" glyph-name="S" horiz-adv-x="657" d="M239 -9T165 12T41 73L91 185Q194 113 321 113Q389 113 425 134T462 195Q462 229 429 248T311 286Q217 305 162 332T81 399T55 498Q55 562 90 613T190 692T338 721Q414 721 484 699T596 639L546 527Q452
599 339 599Q279 599 243 575T207 510Q207 486 220 470T266 442T357 417Q494 387 554 339T615 208Q615 108 537 50T320 -9Q239 -9 165 12Z" />
<glyph unicode="T" glyph-name="T" horiz-adv-x="628" d="M235 0V585H12V712H616V585H393V0H235Z" />
<glyph unicode="U" glyph-name="U" horiz-adv-x="746" d="M223 -9T145 68T67 294V712H220V287Q220 202 259 158T373 113Q447 113 486 157T525 287V712H679V294Q679 146 601 69T373 -9Q223 -9 145 68Z" />
<glyph unicode="V" glyph-name="V" horiz-adv-x="735" d="M593 712H750L430 0H305L-15 712H147L369 195L593 712Z" />
<glyph unicode="W" glyph-name="W" horiz-adv-x="1126" d="M958 712H1107L854 0H729L563 471L396 0H271L18 712H177L341 220L513 712H622L790 213L958 712Z" />
<glyph unicode="X" glyph-name="X" horiz-adv-x="681" d="M428 361L700 0H518L340 246L162 0H-20L251 361L-12 712H170L340 475L512 712H694L428 361Z" />
<glyph unicode="Y" glyph-name="Y" horiz-adv-x="642" d="M694 712L399 276V0H243V277L-51 712H126L320 408L516 712H694Z" />
<glyph unicode="Z" glyph-name="Z" horiz-adv-x="615" d="M223 123H580V0H51V114L394 589H51V712H569V599L223 123Z" />
<glyph unicode="[" glyph-name="bracketleft" horiz-adv-x="376" d="M105 -182V712H362V599H254V-69H362V-182H105Z" />
<glyph unicode="\" glyph-name="backslash" horiz-adv-x="332" d="M234 -61L-27 755H97L359 -61H234Z" />
<glyph unicode="]" glyph-name="bracketright" horiz-adv-x="376" d="M271 -182H14V-69H122V599H14V712H271V-182Z" />
<glyph unicode="^" glyph-name="asciicircum" horiz-adv-x="600" d="M559 144H445L300 504L155 144H41L243 637H357L559 144Z" />
<glyph unicode="_" glyph-name="underscore" horiz-adv-x="505" d="M14 -88V0H491V-88H14Z" />
<glyph unicode="`" glyph-name="grave" horiz-adv-x="300" d="M105 561L-49 767H99L198 561H105Z" />
<glyph unicode="a" glyph-name="a" horiz-adv-x="630" d="M569 507V0H420V75Q397 36 355 14T260 -8Q194 -8 144 24T65 115T36 253Q36 331 64 392T144 486T260 520Q313 520 355 497T420 435V507H569ZM360 107T390 145T420 255Q420 327 390 365T304 404Q248 404
217 364T186 253Q186 182 216 145T304 107Q360 107 390 145Z" />
<glyph unicode="b" glyph-name="b" horiz-adv-x="631" d="M437 520T488 488T567 396T595 258Q595 180 567 120T487 26T371 -8Q318 -8 276 14T211 76V0H61V736H212V436Q234 475 276 497T371 520Q437 520 488 488ZM384 107T414 146T444 258Q444 328 414 366T328
404Q272 404 242 366T211 256Q211 184 241 146T328 107Q384 107 414 146Z" />
<glyph unicode="c" glyph-name="c" horiz-adv-x="509" d="M177 -8T107 62T36 253Q36 332 70 392T165 486T308 520Q363 520 415 503T498 457L458 352Q428 376 392 389T322 403Q260 403 226 366T191 256Q191 183 225 146T322 108Q356 108 392 121T458 159L498 54Q465
25 412 9T301 -8Q177 -8 107 62Z" />
<glyph unicode="d" glyph-name="d" horiz-adv-x="630" d="M569 736V0H420V75Q397 36 355 14T260 -8Q195 -8 144 25T65 119T36 258Q36 336 64 395T143 487T260 520Q311 520 353 499T418 439V736H569ZM360 107T390 145T420 256Q420 327 390 365T304 404Q248 404
217 366T186 258Q186 186 217 147T304 107Q360 107 390 145Z" />
<glyph unicode="e" glyph-name="e" horiz-adv-x="550" d="M516 241H182Q186 170 219 138T317 105Q356 105 395 118T467 156L507 54Q471 25 418 9T310 -8Q182 -8 109 62T36 255Q36 332 67 392T156 486T285 520Q392 520 454 451T516 263V241ZM246 414T220 389T185
316H386Q374 414 289 414Q246 414 220 389Z" />
<glyph unicode="f" glyph-name="f" horiz-adv-x="385" d="M292 617T271 598T250 535V507H356V394H250V0H99V394H4V507H99V539Q99 635 148 688T290 741Q342 741 376 728V610Q347 617 327 617Q292 617 271 598Z" />
<glyph unicode="g" glyph-name="g" horiz-adv-x="634" d="M574 507V23Q574 -98 504 -161T300 -224Q179 -224 90 -177L113 -65Q205 -111 295 -111Q360 -111 392 -81T424 12V100Q400 63 357 39T262 14Q196 14 145 45T65 134T36 267Q36 342 65 399T145 488T262 520Q315
520 358 497T424 435V507H574ZM361 129T392 165T424 267Q424 331 393 367T306 404Q250 404 218 368T186 267Q186 203 218 166T306 129Q361 129 392 165Z" />
<glyph unicode="h" glyph-name="h" horiz-adv-x="613" d="M554 520T554 307V0H403V300Q403 353 384 377T322 402Q272 402 242 370T212 284V0H61V736H212V438Q239 478 281 499T374 520Q554 520 554 307Z" />
<glyph unicode="i" glyph-name="i" horiz-adv-x="274" d="M61 0V507H212V0H61ZM56 745H217V603H56V745Z" />
<glyph unicode="j" glyph-name="j" horiz-adv-x="274" d="M-36 -100T-16 -100Q18 -100 39 -80T61 -18V507H212V-22Q212 -118 163 -171T21 -224Q-31 -224 -65 -211V-93Q-36 -100 -16 -100ZM55 745H216V603H55V745Z" />
<glyph unicode="k" glyph-name="k" horiz-adv-x="573" d="M596 0H411L212 227V0H61V736H212V289L402 506H583L368 263L596 0Z" />
<glyph unicode="l" glyph-name="l" horiz-adv-x="274" d="M61 0V736H212V0H61Z" />
<glyph unicode="m" glyph-name="m" horiz-adv-x="911" d="M768 520T810 468T853 307V0H702V302Q702 355 685 378T629 402Q583 402 558 370T533 280V0H382V302Q382 354 365 378T309 402Q263 402 238 370T212 280V0H61V362Q61 443 53 507H195L204 431Q227 474 268
497T364 520Q477 520 514 426Q539 469 583 494T681 520Q768 520 810 468Z" />
<glyph unicode="n" glyph-name="n" horiz-adv-x="613" d="M554 520T554 307V0H403V300Q403 353 384 377T322 402Q272 402 242 370T212 284V0H61V362Q61 443 53 507H195L205 427Q232 472 275 496T374 520Q554 520 554 307Z" />
<glyph unicode="o" glyph-name="o" horiz-adv-x="604" d="M222 -8T162 24T69 116T36 256Q36 336 68 396T161 488T303 520Q383 520 443 488T535 396T568 256Q568 176 536 116T443 24T303 -8Q222 -8 162 24ZM359 107T388 144T418 256Q418 330 389 367T303 405Q246
405 216 368T186 256Q186 107 303 107Q359 107 388 144Z" />
<glyph unicode="p" glyph-name="p" horiz-adv-x="631" d="M436 520T487 487T566 392T595 253Q595 175 567 116T488 24T371 -8Q318 -8 276 14T212 75V-216H61V362Q61 443 53 507H195L205 423Q225 468 269 494T371 520Q436 520 487 487ZM384 107T414 144T444 253Q444
324 414 364T328 404Q272 404 242 366T211 255Q211 183 241 145T328 107Q384 107 414 144Z" />
<glyph unicode="q" glyph-name="q" horiz-adv-x="630" d="M578 507Q569 445 569 362V-216H418V72Q395 34 354 13T260 -8Q194 -8 144 24T65 115T36 253Q36 331 64 392T144 486T260 520Q317 520 361 494T426 424L436 507H578ZM360 107T390 145T420 255Q420 327 390
365T304 404Q248 404 217 364T186 253Q186 182 216 145T304 107Q360 107 390 145Z" />
<glyph unicode="r" glyph-name="r" horiz-adv-x="410" d="M388 519T410 509L409 371Q372 388 335 388Q275 388 244 356T212 265V0H61V362Q61 443 53 507H195L205 420Q224 468 264 493T356 519Q388 519 410 509Z" />
<glyph unicode="s" glyph-name="s" horiz-adv-x="503" d="M111 -8T28 54L68 159Q108 130 157 115T257 99Q296 99 317 111T338 146Q338 165 323 176T270 195L187 214Q114 230 80 265T45 358Q45 405 72 442T149 499T262 520Q316 520 368 504T461 457L419 356Q380
383 340 397T261 411Q224 411 203 398T182 362Q182 345 194 335T239 317L324 298Q402 280 437 244T472 148Q472 76 414 34T255 -8Q111 -8 28 54Z" />
<glyph unicode="t" glyph-name="t" horiz-adv-x="396" d="M251 394V197Q251 155 273 136T330 116Q352 116 380 123V6Q344 -8 293 -8Q199 -8 150 45T100 194V394H4V507H100V626L251 675V507H380V394H251Z" />
<glyph unicode="u" glyph-name="u" horiz-adv-x="606" d="M545 507V0H398V74Q374 34 335 13T247 -8Q152 -8 105 45T58 205V507H209V202Q209 110 288 110Q335 110 364 142T393 226V507H545Z" />
<glyph unicode="v" glyph-name="v" horiz-adv-x="550" d="M412 506H561L338 0H210L-10 506H148L278 178L412 506Z" />
<glyph unicode="w" glyph-name="w" horiz-adv-x="891" d="M744 507H890L685 0H558L443 294L333 0H205L0 507H154L276 180L397 507H500L622 177L744 507Z" />
<glyph unicode="x" glyph-name="x" horiz-adv-x="557" d="M365 261L579 0H401L278 155L155 0H-22L192 261L-9 507H169L278 366L387 507H566L365 261Z" />
<glyph unicode="y" glyph-name="y" horiz-adv-x="550" d="M561 507L327 -27Q284 -124 219 -169T58 -228L23 -112Q93 -97 128 -74T184 -7L199 26L-10 507H148L278 178L412 507H561Z" />
<glyph unicode="z" glyph-name="z" horiz-adv-x="530" d="M225 113H495V0H48V106L304 394H52V507H485V405L225 113Z" />
<glyph unicode="{" glyph-name="braceleft" horiz-adv-x="413" d="M291 337T266 305T207 265Q240 257 265 225T291 146V24Q291 -20 311 -44T362 -69H399V-182H335Q242 -182 192 -138T142 -8V109Q142 161 129 183T82 216L40 230V300L82 313Q116 324 129 346T142
420V538Q142 623 192 667T335 712H399V599H362Q332 599 312 575T291 506V383Q291 337 266 305Z" />
<glyph unicode="|" glyph-name="bar" horiz-adv-x="293" d="M76 -182V712H216V-182H76Z" />
<glyph unicode="}" glyph-name="braceright" horiz-adv-x="413" d="M373 300V230L331 216Q297 205 284 183T271 109V-8Q271 -93 221 -137T78 -182H14V-69H52Q81 -69 101 -45T122 24V146Q122 192 147 224T206 265Q172 273 147 305T122 383V506Q122 551 102 575T52
599H14V712H78Q171 712 221 668T271 538V420Q271 368 284 346T331 313L373 300Z" />
<glyph unicode="~" glyph-name="asciitilde" horiz-adv-x="600" d="M546 315Q530 265 492 236T408 206Q378 206 351 216T283 247Q250 263 234 269T202 276Q152 276 131 214L54 265Q70 315 108 344T192 374Q222 374 250 364T317 334Q350 318 366 312T398 305Q449
305 469 365L546 315Z" />
<glyph unicode="&#xa0;" glyph-name="uni00A0" horiz-adv-x="281" />
<glyph unicode="&#xa1;" glyph-name="exclamdown" horiz-adv-x="262" d="M49 335V496H212V335H49ZM85 266H177L224 -181L37 -182L85 266Z" />
<glyph unicode="&#xa2;" glyph-name="cent" horiz-adv-x="600" d="M540 54Q496 16 421 0V-119H300V-5Q198 7 138 76T78 253Q78 359 138 430T300 516V630H421V513Q495 497 540 457L499 352Q465 380 421 394V117Q465 130 499 159L540 54ZM233 153T300 121V390Q267
373 250 339T233 256Q233 153 300 121Z" />
<glyph unicode="&#xa3;" glyph-name="sterling" horiz-adv-x="600" d="M268 204T258 175T223 125H572V0H39V105Q82 127 97 153T113 230V310H39V403H113V520Q113 579 141 625T222 696T343 721Q412 721 474 701T582 641L531 529Q485 563 440 580T356 598Q268 598
268 509V403H430V310H268V251Q268 204 258 175Z" />
<glyph unicode="&#xa4;" glyph-name="currency" horiz-adv-x="600" d="M542 167T496 100L550 43L496 -11L441 45Q377 -3 298 -3Q218 -3 155 44L101 -11L46 43L100 100Q53 164 53 247Q53 288 65 326T100 395L46 451L102 507L156 452Q219 498 298 498Q375 498 438
453L493 509L553 449L498 392Q542 328 542 247Q542 167 496 100ZM331 115T359 133T405 181T422 247Q422 283 405 313T359 362T296 380Q263 380 235 362T190 313T173 247Q173 192 209 154T298 115Q331 115 359 133Z" />
<glyph unicode="&#xa5;" glyph-name="yen" horiz-adv-x="600" d="M625 712L418 406H536V314H378V252H536V160H378V0H221V160H64V252H221V314H64V406H182L-25 712H142L300 467L458 712H625Z" />
<glyph unicode="&#xa6;" glyph-name="brokenbar" horiz-adv-x="293" d="M76 375V712H216V375H76ZM76 -182V156H216V-182H76Z" />
<glyph unicode="&#xa7;" glyph-name="section" horiz-adv-x="585" d="M554 142T487 86Q513 48 513 4Q513 -88 452 -138T280 -189Q140 -189 58 -127L97 -23Q183 -78 270 -78Q314 -78 340 -60T366 -10Q366 15 352 31T302 65L170 124Q98 156 65 199T31 304Q31 387
98 445Q72 483 72 526Q72 615 136 667T312 719Q428 719 508 660L469 559Q434 583 395 596T318 609Q271 609 245 591T219 540Q219 517 234 499T283 466L414 406Q486 374 520 330T554 227Q554 142 487 86ZM381 174L409 159Q419 179 419 195Q419 255 338 294L205 360L177
375Q165 351 165 335Q165 278 246 237L381 174Z" />
<glyph unicode="&#xa8;" glyph-name="dieresis" horiz-adv-x="300" d="M-14 729H125V597H-14V729ZM178 729H317V597H178V729Z" />
<glyph unicode="&#xa9;" glyph-name="copyright" horiz-adv-x="823" d="M311 -5T229 43T99 173T51 357Q51 458 98 540T228 669T412 717Q513 717 595 670T725 540T773 357Q773 256 726 174T595 43T412 -5Q311 -5 229 43ZM496 57T563 96T669 203T707 357Q707 441
669 509T564 616T412 655Q327 655 260 616T154 509T116 357Q116 272 154 204T259 96T412 57Q496 57 563 96ZM325 138T266 197T207 357Q207 456 266 515T426 574Q473 574 513 562T583 525L549 433Q529 447 501 458T447 469Q398 469 371 440T344 357Q344 302 371
273T447 243Q473 243 501 254T549 279L583 187Q522 138 426 138Q325 138 266 197Z" />
<glyph unicode="&#xaa;" glyph-name="ordfeminine" horiz-adv-x="342" d="M248 717T284 683T320 577V410H204V461Q194 434 172 420T119 405Q75 405 46 434T16 502Q16 546 53 567T179 588H202V599Q202 614 192 620T158 627Q108 627 62 604L39 690Q93 717 173 717Q248
717 284 683ZM178 485T190 495T202 526V533H193Q155 533 142 526T128 507Q128 498 136 492T159 485Q178 485 190 495Z" />
<glyph unicode="&#xab;" glyph-name="guillemotleft" horiz-adv-x="529" d="M157 85L21 267L157 451H283L152 268L282 85H157ZM381 85L245 267L381 451H507L376 268L506 85H381Z" />
<glyph unicode="&#xac;" glyph-name="logicalnot" horiz-adv-x="600" d="M546 442V136H440V339H54V442H546Z" />
<glyph unicode="&#xad;" glyph-name="uni00AD" horiz-adv-x="444" d="M67 211V330H378V211H67Z" />
<glyph unicode="&#xae;" glyph-name="registered" horiz-adv-x="823" d="M513 717T595 670T725 540T773 357Q773 256 726 174T595 43T412 -5Q311 -5 229 43T99 173T51 357Q51 458 98 540T228 669T412 717Q513 717 595 670ZM666 188T686 241T707 357Q707 441 669
509T564 616T412 655Q327 655 260 616T154 509T116 357Q116 272 154 204T259 96T412 57Q475 57 529 79T624 143H482L414 281Q405 297 393 297H369V143H236V571H440Q518 571 560 534T602 435Q602 388 576 354T500 306Q522 304 541 291T573 256L628 148Q666 188 686
241ZM450 389T462 398T475 428Q475 451 463 460T423 470H368V389H423Q450 389 462 398Z" />
<glyph unicode="&#xaf;" glyph-name="overscore" horiz-adv-x="300" d="M-6 615V709H309V615H-6Z" />
<glyph unicode="&#xb0;" glyph-name="degree" horiz-adv-x="372" d="M143 413T108 433T52 487T31 565Q31 608 51 642T107 697T186 717Q229 717 264 697T319 643T340 565Q340 522 320 488T264 433T186 413Q143 413 108 433ZM216 490T237 511T258 565Q258 598 237
619T186 640Q155 640 134 619T113 565Q113 532 134 511T186 490Q216 490 237 511Z" />
<glyph unicode="&#xb1;" glyph-name="plusminus" horiz-adv-x="600" d="M352 392H546V288H352V143H248V288H54V392H248V536H352V392ZM54 0V104H546V0H54Z" />
<glyph unicode="&#xb2;" glyph-name="uni00B2" horiz-adv-x="380" d="M351 386V285H43V380L177 520Q211 559 211 584Q211 618 164 618Q110 618 51 583L30 677Q59 694 103 705T187 716Q257 716 299 683T341 593Q341 557 324 525T260 450L190 386H351Z" />
<glyph unicode="&#xb3;" glyph-name="uni00B3" horiz-adv-x="380" d="M312 494T333 468T354 403Q354 350 310 315T183 280Q141 280 97 291T24 319L44 413Q104 378 172 378Q232 378 232 414Q232 451 177 451H105V549H165Q194 549 207 557T220 585Q220 618 170 618Q142
618 111 609T51 583L30 677Q59 694 101 705T180 716Q257 716 299 682T341 597Q341 565 324 541T275 505Q312 494 333 468Z" />
<glyph unicode="&#xb4;" glyph-name="acute" horiz-adv-x="300" d="M198 561H105L204 767H352L198 561Z" />
<glyph unicode="&#xb5;" glyph-name="uni00B5" horiz-adv-x="606" d="M545 507V0H398V74Q374 34 335 13T247 -8Q227 -8 209 -5V-216H58V507H209V202Q209 110 288 110Q335 110 364 142T393 226V507H545Z" />
<glyph unicode="&#xb6;" glyph-name="paragraph" horiz-adv-x="637" d="M565 -182H464V622H356V-182H255V269Q189 269 139 296T60 374T32 491Q32 556 60 606T139 684T258 712H565V-182Z" />
<glyph unicode="&#xb7;" glyph-name="middot" horiz-adv-x="262" d="M49 351H212V190H49V351Z" />
<glyph unicode="&#xb8;" glyph-name="cedilla" horiz-adv-x="300" d="M227 -40T250 -59T274 -110Q274 -150 238 -174T137 -199Q116 -199 90 -195T43 -181L55 -122Q101 -136 134 -136Q180 -136 180 -110Q180 -101 172 -96T147 -90Q134 -90 111 -97L91 -76L103 20H185L176
-41Q181 -40 189 -40Q227 -40 250 -59Z" />
<glyph unicode="&#xb9;" glyph-name="uni00B9" horiz-adv-x="380" d="M282 386H363V285H72V386H152V575L77 534V651L191 712H282V386Z" />
<glyph unicode="&#xba;" glyph-name="ordmasculine" horiz-adv-x="377" d="M104 405T60 450T16 562Q16 628 60 672T189 717Q274 717 318 673T362 562Q362 495 318 450T189 405Q104 405 60 450ZM212 502T226 518T240 562Q240 591 227 605T189 620Q165 620 152 606T138
562Q138 534 152 518T189 502Q212 502 226 518Z" />
<glyph unicode="&#xbb;" glyph-name="guillemotright" horiz-adv-x="529" d="M149 85H24L154 268L22 451H149L284 267L149 85ZM373 85H248L378 268L246 451H373L508 267L373 85Z" />
<glyph unicode="&#xbc;" glyph-name="onequarter" horiz-adv-x="962" d="M282 386H363V285H72V386H152V575L77 534V651L191 712H282V386ZM322 -30L224 26L640 742L737 686L322 -30ZM957 158V65H896V0H782V65H594V154L795 427H896V158H957ZM699 158H782V270L699 158Z" />
<glyph unicode="&#xbd;" glyph-name="onehalf" horiz-adv-x="962" d="M282 386H363V285H72V386H152V575L77 534V651L191 712H282V386ZM322 -30L224 26L640 742L737 686L322 -30ZM933 101V0H625V95L759 235Q793 274 793 299Q793 333 746 333Q692 333 633 298L612
392Q641 409 685 420T769 431Q839 431 881 398T923 308Q923 272 906 240T842 165L772 101H933Z" />
<glyph unicode="&#xbe;" glyph-name="threequarters" horiz-adv-x="962" d="M312 494T333 468T354 403Q354 350 310 315T183 280Q141 280 97 291T24 319L44 413Q104 378 172 378Q232 378 232 414Q232 451 177 451H105V549H165Q194 549 207 557T220 585Q220 618
170 618Q142 618 111 609T51 583L30 677Q59 694 101 705T180 716Q257 716 299 682T341 597Q341 565 324 541T275 505Q312 494 333 468ZM322 -30L224 26L640 742L737 686L322 -30ZM957 158V65H896V0H782V65H594V154L795 427H896V158H957ZM699 158H782V270L699 158Z"
/>
<glyph unicode="&#xbf;" glyph-name="questiondown" horiz-adv-x="473" d="M161 335V496H323V335H161ZM170 -190T120 -170T40 -111T10 -19Q10 15 24 42T58 88T111 134Q148 163 168 185T194 237L200 271H289V220Q289 169 270 138T214 75Q188 51 176 35T164 -5Q164
-33 183 -50T242 -67Q311 -67 384 -24V-148Q317 -190 230 -190Q170 -190 120 -170Z" />
<glyph unicode="&#xc0;" glyph-name="Agrave" horiz-adv-x="759" d="M615 0L547 158H214L146 0H-11L316 712H442L769 0H615ZM266 277H496L381 544L266 277ZM332 773L182 930H322L425 773H332Z" />
<glyph unicode="&#xc1;" glyph-name="Aacute" horiz-adv-x="759" d="M615 0L547 158H214L146 0H-11L316 712H442L769 0H615ZM266 277H496L381 544L266 277ZM425 773H332L435 930H575L425 773Z" />
<glyph unicode="&#xc2;" glyph-name="Acircumflex" horiz-adv-x="759" d="M615 0L547 158H214L146 0H-11L316 712H442L769 0H615ZM266 277H496L381 544L266 277ZM316 773H202L335 930H422L555 773H441L379 859L316 773Z" />
<glyph unicode="&#xc3;" glyph-name="Atilde" horiz-adv-x="759" d="M615 0L547 158H214L146 0H-11L316 712H442L769 0H615ZM266 277H496L381 544L266 277ZM203 853T233 890T312 927Q331 927 349 919T389 897Q411 885 422 880T446 874Q465 874 476 887T490 924H554Q554
851 524 814T445 777Q426 777 408 785T368 807Q346 819 335 824T311 830Q292 830 281 817T267 780H203Q203 853 233 890Z" />
<glyph unicode="&#xc4;" glyph-name="Adieresis" horiz-adv-x="759" d="M615 0L547 158H214L146 0H-11L316 712H442L769 0H615ZM266 277H496L381 544L266 277ZM213 918H352V786H213V918ZM405 918H544V786H405V918Z" />
<glyph unicode="&#xc5;" glyph-name="Aring" horiz-adv-x="759" d="M547 158H214L146 0H-11L311 700Q292 715 281 737T270 786Q270 831 302 862T380 894Q426 894 458 863T490 786Q490 759 479 737T448 699L769 0H615L547 158ZM361 831T349 818T336 786Q336 766
348 753T380 739Q399 739 411 752T423 786Q423 805 411 818T380 831Q361 831 349 818ZM266 277H496L381 544L266 277Z" />
<glyph unicode="&#xc6;" glyph-name="AE" horiz-adv-x="1010" d="M973 590H649L661 423H952V301H669L682 122H973V0H549L538 158H233L139 0H-31L417 712H973V590ZM530 277L509 590H489L303 277H530Z" />
<glyph unicode="&#xc7;" glyph-name="Ccedilla" horiz-adv-x="685" d="M608 37T550 16T427 -8L422 -41Q427 -40 435 -40Q473 -40 496 -59T520 -110Q520 -150 484 -174T383 -199Q361 -199 336 -195T289 -181L301 -122Q347 -136 380 -136Q426 -136 426 -110Q426
-101 418 -96T393 -90Q380 -90 357 -97L337 -76L346 -5Q255 7 188 55T86 180T50 357Q50 466 93 548T216 676T405 721Q476 721 540 700T646 639L597 527Q549 563 504 579T408 596Q312 596 261 535T210 357Q210 239 261 178T408 116Q458 116 503 132T597 185L646
73Q608 37 550 16Z" />
<glyph unicode="&#xc8;" glyph-name="Egrave" horiz-adv-x="599" d="M71 0V712H562V591H223V423H541V301H223V121H562V0H71ZM286 773L136 930H276L379 773H286Z" />
<glyph unicode="&#xc9;" glyph-name="Eacute" horiz-adv-x="599" d="M71 0V712H562V591H223V423H541V301H223V121H562V0H71ZM379 773H286L389 930H529L379 773Z" />
<glyph unicode="&#xca;" glyph-name="Ecircumflex" horiz-adv-x="599" d="M71 0V712H562V591H223V423H541V301H223V121H562V0H71ZM270 773H156L289 930H376L509 773H395L333 859L270 773Z" />
<glyph unicode="&#xcb;" glyph-name="Edieresis" horiz-adv-x="599" d="M71 0V712H562V591H223V423H541V301H223V121H562V0H71ZM167 918H306V786H167V918ZM359 918H498V786H359V918Z" />
<glyph unicode="&#xcc;" glyph-name="Igrave" horiz-adv-x="299" d="M71 0V712H227V0H71ZM101 773L-49 930H91L194 773H101Z" />
<glyph unicode="&#xcd;" glyph-name="Iacute" horiz-adv-x="299" d="M71 0V712H227V0H71ZM194 773H101L204 930H344L194 773Z" />
<glyph unicode="&#xce;" glyph-name="Icircumflex" horiz-adv-x="299" d="M71 0V712H227V0H71ZM85 773H-29L104 930H191L324 773H210L148 859L85 773Z" />
<glyph unicode="&#xcf;" glyph-name="Idieresis" horiz-adv-x="299" d="M71 0V712H227V0H71ZM-18 918H121V786H-18V918ZM174 918H313V786H174V918Z" />
<glyph unicode="&#xd0;" glyph-name="Eth" horiz-adv-x="801" d="M493 712T577 670T705 548T750 357Q750 245 706 165T578 43T377 0H101V300H14V419H101V712H377Q493 712 577 670ZM594 126T594 357Q594 586 366 586H258V419H444V300H258V126H366Q594 126 594 357Z" />
<glyph unicode="&#xd1;" glyph-name="Ntilde" horiz-adv-x="760" d="M541 712H688V0H572L217 454V0H71V712H186L541 259V712ZM203 853T233 890T312 927Q331 927 349 919T389 897Q411 885 422 880T446 874Q465 874 476 887T490 924H554Q554 851 524 814T445 777Q426
777 408 785T368 807Q346 819 335 824T311 830Q292 830 281 817T267 780H203Q203 853 233 890Z" />
<glyph unicode="&#xd2;" glyph-name="Ograve" horiz-adv-x="795" d="M292 -9T214 35T93 163T50 357Q50 468 92 550T213 676T398 721Q504 721 582 677T702 550T744 357Q744 246 702 163T582 36T398 -9Q292 -9 214 35ZM488 113T538 176T589 357Q589 475 539 537T398
599Q308 599 258 537T207 357Q207 238 257 176T398 113Q488 113 538 176ZM350 773L200 930H340L443 773H350Z" />
<glyph unicode="&#xd3;" glyph-name="Oacute" horiz-adv-x="795" d="M292 -9T214 35T93 163T50 357Q50 468 92 550T213 676T398 721Q504 721 582 677T702 550T744 357Q744 246 702 163T582 36T398 -9Q292 -9 214 35ZM488 113T538 176T589 357Q589 475 539 537T398
599Q308 599 258 537T207 357Q207 238 257 176T398 113Q488 113 538 176ZM443 773H350L453 930H593L443 773Z" />
<glyph unicode="&#xd4;" glyph-name="Ocircumflex" horiz-adv-x="795" d="M292 -9T214 35T93 163T50 357Q50 468 92 550T213 676T398 721Q504 721 582 677T702 550T744 357Q744 246 702 163T582 36T398 -9Q292 -9 214 35ZM488 113T538 176T589 357Q589 475 539
537T398 599Q308 599 258 537T207 357Q207 238 257 176T398 113Q488 113 538 176ZM334 773H220L353 930H440L573 773H459L397 859L334 773Z" />
<glyph unicode="&#xd5;" glyph-name="Otilde" horiz-adv-x="795" d="M292 -9T214 35T93 163T50 357Q50 468 92 550T213 676T398 721Q504 721 582 677T702 550T744 357Q744 246 702 163T582 36T398 -9Q292 -9 214 35ZM488 113T538 176T589 357Q589 475 539 537T398
599Q308 599 258 537T207 357Q207 238 257 176T398 113Q488 113 538 176ZM221 853T251 890T330 927Q349 927 367 919T407 897Q429 885 440 880T464 874Q483 874 494 887T508 924H572Q572 851 542 814T463 777Q444 777 426 785T386 807Q364 819 353 824T329 830Q310
830 299 817T285 780H221Q221 853 251 890Z" />
<glyph unicode="&#xd6;" glyph-name="Odieresis" horiz-adv-x="795" d="M292 -9T214 35T93 163T50 357Q50 468 92 550T213 676T398 721Q504 721 582 677T702 550T744 357Q744 246 702 163T582 36T398 -9Q292 -9 214 35ZM488 113T538 176T589 357Q589 475 539 537T398
599Q308 599 258 537T207 357Q207 238 257 176T398 113Q488 113 538 176ZM231 918H370V786H231V918ZM423 918H562V786H423V918Z" />
<glyph unicode="&#xd7;" glyph-name="multiply" horiz-adv-x="600" d="M536 452L373 289L536 126L463 54L300 217L137 54L64 126L227 289L64 452L137 526L300 363L463 526L536 452Z" />
<glyph unicode="&#xd8;" glyph-name="Oslash" horiz-adv-x="795" d="M686 595T715 522T744 357Q744 246 702 163T582 36T398 -9Q325 -9 265 12L218 -68L118 -8L164 71Q109 119 80 192T50 357Q50 468 92 550T213 676T398 721Q472 721 530 700L577 780L677 720L631
642Q686 595 715 522ZM207 263T240 202L465 588Q434 599 398 599Q308 599 258 537T207 357Q207 263 240 202ZM488 113T538 176T589 357Q589 451 556 512L330 124Q361 113 398 113Q488 113 538 176Z" />
<glyph unicode="&#xd9;" glyph-name="Ugrave" horiz-adv-x="746" d="M223 -9T145 68T67 294V712H220V287Q220 202 259 158T373 113Q447 113 486 157T525 287V712H679V294Q679 146 601 69T373 -9Q223 -9 145 68ZM326 773L176 930H316L419 773H326Z" />
<glyph unicode="&#xda;" glyph-name="Uacute" horiz-adv-x="746" d="M223 -9T145 68T67 294V712H220V287Q220 202 259 158T373 113Q447 113 486 157T525 287V712H679V294Q679 146 601 69T373 -9Q223 -9 145 68ZM419 773H326L429 930H569L419 773Z" />
<glyph unicode="&#xdb;" glyph-name="Ucircumflex" horiz-adv-x="746" d="M223 -9T145 68T67 294V712H220V287Q220 202 259 158T373 113Q447 113 486 157T525 287V712H679V294Q679 146 601 69T373 -9Q223 -9 145 68ZM310 773H196L329 930H416L549 773H435L373
859L310 773Z" />
<glyph unicode="&#xdc;" glyph-name="Udieresis" horiz-adv-x="746" d="M223 -9T145 68T67 294V712H220V287Q220 202 259 158T373 113Q447 113 486 157T525 287V712H679V294Q679 146 601 69T373 -9Q223 -9 145 68ZM207 918H346V786H207V918ZM399 918H538V786H399V918Z" />
<glyph unicode="&#xdd;" glyph-name="Yacute" horiz-adv-x="642" d="M694 712L399 276V0H243V277L-51 712H126L320 408L516 712H694ZM366 773H273L376 930H516L366 773Z" />
<glyph unicode="&#xde;" glyph-name="Thorn" horiz-adv-x="676" d="M514 569T578 514T643 362Q643 265 578 210T399 155H224V0H71V712H224V569H399Q514 569 578 514ZM437 275T466 295T496 362Q496 407 467 427T374 448H224V275H374Q437 275 466 295Z" />
<glyph unicode="&#xdf;" glyph-name="germandbls" horiz-adv-x="697" d="M566 346T620 295T675 164Q675 86 617 39T461 -8Q399 -8 347 8T258 54L299 162Q373 103 462 103Q500 103 518 122T537 171Q537 213 484 246T308 310V421Q385 445 415 475T446 550Q446 635
347 635Q281 635 247 598T212 484V0H61V462Q61 601 134 673T347 745Q459 745 523 696T588 557Q588 499 558 455T450 376Q566 346 620 295Z" />
<glyph unicode="&#xe0;" glyph-name="agrave" horiz-adv-x="630" d="M569 507V0H420V75Q397 36 355 14T260 -8Q194 -8 144 24T65 115T36 253Q36 331 64 392T144 486T260 520Q313 520 355 497T420 435V507H569ZM360 107T390 145T420 255Q420 327 390 365T304 404Q248
404 217 364T186 253Q186 182 216 145T304 107Q360 107 390 145ZM268 572L114 778H262L361 572H268Z" />
<glyph unicode="&#xe1;" glyph-name="aacute" horiz-adv-x="630" d="M569 507V0H420V75Q397 36 355 14T260 -8Q194 -8 144 24T65 115T36 253Q36 331 64 392T144 486T260 520Q313 520 355 497T420 435V507H569ZM360 107T390 145T420 255Q420 327 390 365T304 404Q248
404 217 364T186 253Q186 182 216 145T304 107Q360 107 390 145ZM361 572H268L367 778H515L361 572Z" />
<glyph unicode="&#xe2;" glyph-name="acircumflex" horiz-adv-x="630" d="M569 507V0H420V75Q397 36 355 14T260 -8Q194 -8 144 24T65 115T36 253Q36 331 64 392T144 486T260 520Q313 520 355 497T420 435V507H569ZM360 107T390 145T420 255Q420 327 390 365T304
404Q248 404 217 364T186 253Q186 182 216 145T304 107Q360 107 390 145ZM256 572H138L269 778H360L491 572H373L315 689L256 572Z" />
<glyph unicode="&#xe3;" glyph-name="atilde" horiz-adv-x="630" d="M569 507V0H420V75Q397 36 355 14T260 -8Q194 -8 144 24T65 115T36 253Q36 331 64 392T144 486T260 520Q313 520 355 497T420 435V507H569ZM360 107T390 145T420 255Q420 327 390 365T304 404Q248
404 217 364T186 253Q186 182 216 145T304 107Q360 107 390 145ZM139 677T169 713T248 750Q267 750 284 743T325 721Q347 709 358 704T382 698Q401 698 412 711T426 747H490Q490 675 460 638T381 601Q362 601 345 608T304 630Q282 642 271 647T247 653Q228 653
217 640T203 604H139Q139 677 169 713Z" />
<glyph unicode="&#xe4;" glyph-name="adieresis" horiz-adv-x="630" d="M569 507V0H420V75Q397 36 355 14T260 -8Q194 -8 144 24T65 115T36 253Q36 331 64 392T144 486T260 520Q313 520 355 497T420 435V507H569ZM360 107T390 145T420 255Q420 327 390 365T304
404Q248 404 217 364T186 253Q186 182 216 145T304 107Q360 107 390 145ZM149 740H288V608H149V740ZM341 740H480V608H341V740Z" />
<glyph unicode="&#xe5;" glyph-name="aring" horiz-adv-x="630" d="M569 507V0H420V75Q397 36 355 14T260 -8Q194 -8 144 24T65 115T36 253Q36 331 64 392T144 486T260 520Q313 520 355 497T420 435V507H569ZM360 107T390 145T420 255Q420 327 390 365T304 404Q248
404 217 364T186 253Q186 182 216 145T304 107Q360 107 390 145ZM268 567T236 598T204 676Q204 721 236 752T315 784Q361 784 393 753T425 676Q425 630 393 599T315 567Q268 567 236 598ZM334 629T346 642T358 676Q358 695 346 708T315 721Q296 721 284 708T271
676Q271 656 283 643T315 629Q334 629 346 642Z" />
<glyph unicode="&#xe6;" glyph-name="ae" horiz-adv-x="866" d="M831 241H503Q505 177 538 141T637 105Q673 105 711 118T783 156L822 54Q787 25 734 9T627 -8Q555 -8 502 18T418 94Q395 45 350 19T242 -8Q184 -8 139 13T67 71T41 158Q41 241 106 278T322 316H359V320Q359
366 340 386T276 406Q234 406 189 393T102 354L62 457Q104 484 167 502T284 520Q400 520 449 453Q480 486 522 503T614 520Q678 520 727 488T804 397T831 262V241ZM527 414T508 316H702Q697 364 674 389T610 414Q527 414 508 316ZM308 97T333 128T359 209V243H330Q254
243 221 224T187 164Q187 134 208 116T262 97Q308 97 333 128Z" />
<glyph unicode="&#xe7;" glyph-name="ccedilla" horiz-adv-x="509" d="M468 28T422 12T323 -7L318 -41Q323 -40 331 -40Q369 -40 392 -59T416 -110Q416 -150 380 -174T279 -199Q257 -199 232 -195T185 -181L197 -122Q243 -136 276 -136Q322 -136 322 -110Q322
-101 314 -96T289 -90Q276 -90 253 -97L233 -76L242 -3Q145 13 91 80T36 253Q36 332 70 392T165 486T308 520Q363 520 415 503T498 457L458 352Q428 376 392 389T322 403Q260 403 226 366T191 256Q191 183 225 146T322 108Q356 108 392 121T458 159L498 54Q468
28 422 12Z" />
<glyph unicode="&#xe8;" glyph-name="egrave" horiz-adv-x="550" d="M516 241H182Q186 170 219 138T317 105Q356 105 395 118T467 156L507 54Q471 25 418 9T310 -8Q182 -8 109 62T36 255Q36 332 67 392T156 486T285 520Q392 520 454 451T516 263V241ZM246 414T220
389T185 316H386Q374 414 289 414Q246 414 220 389ZM238 572L84 778H232L331 572H238Z" />
<glyph unicode="&#xe9;" glyph-name="eacute" horiz-adv-x="550" d="M516 241H182Q186 170 219 138T317 105Q356 105 395 118T467 156L507 54Q471 25 418 9T310 -8Q182 -8 109 62T36 255Q36 332 67 392T156 486T285 520Q392 520 454 451T516 263V241ZM246 414T220
389T185 316H386Q374 414 289 414Q246 414 220 389ZM331 572H238L337 778H485L331 572Z" />
<glyph unicode="&#xea;" glyph-name="ecircumflex" horiz-adv-x="550" d="M516 241H182Q186 170 219 138T317 105Q356 105 395 118T467 156L507 54Q471 25 418 9T310 -8Q182 -8 109 62T36 255Q36 332 67 392T156 486T285 520Q392 520 454 451T516 263V241ZM246
414T220 389T185 316H386Q374 414 289 414Q246 414 220 389ZM226 572H108L239 778H330L461 572H343L285 689L226 572Z" />
<glyph unicode="&#xeb;" glyph-name="edieresis" horiz-adv-x="550" d="M516 241H182Q186 170 219 138T317 105Q356 105 395 118T467 156L507 54Q471 25 418 9T310 -8Q182 -8 109 62T36 255Q36 332 67 392T156 486T285 520Q392 520 454 451T516 263V241ZM246 414T220
389T185 316H386Q374 414 289 414Q246 414 220 389ZM119 740H258V608H119V740ZM311 740H450V608H311V740Z" />
<glyph unicode="&#xec;" glyph-name="igrave" horiz-adv-x="274" d="M61 0V507H212V0H61ZM90 572L-64 778H84L183 572H90Z" />
<glyph unicode="&#xed;" glyph-name="iacute" horiz-adv-x="274" d="M61 0V507H212V0H61ZM183 572H90L189 778H337L183 572Z" />
<glyph unicode="&#xee;" glyph-name="icircumflex" horiz-adv-x="274" d="M61 0V507H212V0H61ZM78 572H-40L91 778H182L313 572H195L137 689L78 572Z" />
<glyph unicode="&#xef;" glyph-name="idieresis" horiz-adv-x="274" d="M61 0V507H212V0H61ZM-29 740H110V608H-29V740ZM163 740H302V608H163V740Z" />
<glyph unicode="&#xf0;" glyph-name="eth" horiz-adv-x="612" d="M529 521T552 451T576 306Q576 155 504 74T297 -8Q220 -8 161 22T69 106T36 232Q36 301 67 355T155 440T283 470Q372 470 423 422Q402 494 354 543L175 493L153 571L273 604Q220 632 153 643L187
748Q324 728 421 645L550 681L570 604L484 580Q529 521 552 451ZM358 107T388 139T418 232Q418 294 389 326T303 358Q246 358 216 326T186 232Q186 171 216 139T303 107Q358 107 388 139Z" />
<glyph unicode="&#xf1;" glyph-name="ntilde" horiz-adv-x="613" d="M554 520T554 307V0H403V300Q403 353 384 377T322 402Q272 402 242 370T212 284V0H61V362Q61 443 53 507H195L205 427Q232 472 275 496T374 520Q554 520 554 307ZM132 677T162 713T241 750Q260
750 277 743T318 721Q340 709 351 704T375 698Q394 698 405 711T419 747H483Q483 675 453 638T374 601Q355 601 338 608T297 630Q275 642 264 647T240 653Q221 653 210 640T196 604H132Q132 677 162 713Z" />
<glyph unicode="&#xf2;" glyph-name="ograve" horiz-adv-x="604" d="M222 -8T162 24T69 116T36 256Q36 336 68 396T161 488T303 520Q383 520 443 488T535 396T568 256Q568 176 536 116T443 24T303 -8Q222 -8 162 24ZM359 107T388 144T418 256Q418 330 389 367T303
405Q246 405 216 368T186 256Q186 107 303 107Q359 107 388 144ZM256 572L102 778H250L349 572H256Z" />
<glyph unicode="&#xf3;" glyph-name="oacute" horiz-adv-x="604" d="M222 -8T162 24T69 116T36 256Q36 336 68 396T161 488T303 520Q383 520 443 488T535 396T568 256Q568 176 536 116T443 24T303 -8Q222 -8 162 24ZM359 107T388 144T418 256Q418 330 389 367T303
405Q246 405 216 368T186 256Q186 107 303 107Q359 107 388 144ZM349 572H256L355 778H503L349 572Z" />
<glyph unicode="&#xf4;" glyph-name="ocircumflex" horiz-adv-x="604" d="M222 -8T162 24T69 116T36 256Q36 336 68 396T161 488T303 520Q383 520 443 488T535 396T568 256Q568 176 536 116T443 24T303 -8Q222 -8 162 24ZM359 107T388 144T418 256Q418 330 389
367T303 405Q246 405 216 368T186 256Q186 107 303 107Q359 107 388 144ZM244 572H126L257 778H348L479 572H361L303 689L244 572Z" />
<glyph unicode="&#xf5;" glyph-name="otilde" horiz-adv-x="604" d="M222 -8T162 24T69 116T36 256Q36 336 68 396T161 488T303 520Q383 520 443 488T535 396T568 256Q568 176 536 116T443 24T303 -8Q222 -8 162 24ZM359 107T388 144T418 256Q418 330 389 367T303
405Q246 405 216 368T186 256Q186 107 303 107Q359 107 388 144ZM127 677T157 713T236 750Q255 750 272 743T313 721Q335 709 346 704T370 698Q389 698 400 711T414 747H478Q478 675 448 638T369 601Q350 601 333 608T292 630Q270 642 259 647T235 653Q216 653
205 640T191 604H127Q127 677 157 713Z" />
<glyph unicode="&#xf6;" glyph-name="odieresis" horiz-adv-x="604" d="M222 -8T162 24T69 116T36 256Q36 336 68 396T161 488T303 520Q383 520 443 488T535 396T568 256Q568 176 536 116T443 24T303 -8Q222 -8 162 24ZM359 107T388 144T418 256Q418 330 389 367T303
405Q246 405 216 368T186 256Q186 107 303 107Q359 107 388 144ZM137 740H276V608H137V740ZM329 740H468V608H329V740Z" />
<glyph unicode="&#xf7;" glyph-name="divide" horiz-adv-x="600" d="M234 422V541H354V422H234ZM546 341V238H54V341H546ZM234 32V152H354V32H234Z" />
<glyph unicode="&#xf8;" glyph-name="oslash" horiz-adv-x="604" d="M519 433T543 379T568 256Q568 176 536 116T443 24T303 -8Q252 -8 205 6L164 -64L93 -22L131 44Q85 78 61 132T36 256Q36 336 68 396T161 488T303 520Q355 520 400 506L440 574L512 532L474
468Q519 433 543 379ZM183 199T201 163L340 402Q324 406 303 406Q183 406 183 256Q183 199 201 163ZM421 106T421 256Q421 311 404 347L266 110Q281 106 303 106Q421 106 421 256Z" />
<glyph unicode="&#xf9;" glyph-name="ugrave" horiz-adv-x="606" d="M545 507V0H398V74Q374 34 335 13T247 -8Q152 -8 105 45T58 205V507H209V202Q209 110 288 110Q335 110 364 142T393 226V507H545ZM256 572L102 778H250L349 572H256Z" />
<glyph unicode="&#xfa;" glyph-name="uacute" horiz-adv-x="606" d="M545 507V0H398V74Q374 34 335 13T247 -8Q152 -8 105 45T58 205V507H209V202Q209 110 288 110Q335 110 364 142T393 226V507H545ZM349 572H256L355 778H503L349 572Z" />
<glyph unicode="&#xfb;" glyph-name="ucircumflex" horiz-adv-x="606" d="M545 507V0H398V74Q374 34 335 13T247 -8Q152 -8 105 45T58 205V507H209V202Q209 110 288 110Q335 110 364 142T393 226V507H545ZM244 572H126L257 778H348L479 572H361L303 689L244 572Z" />
<glyph unicode="&#xfc;" glyph-name="udieresis" horiz-adv-x="606" d="M545 507V0H398V74Q374 34 335 13T247 -8Q152 -8 105 45T58 205V507H209V202Q209 110 288 110Q335 110 364 142T393 226V507H545ZM137 740H276V608H137V740ZM329 740H468V608H329V740Z" />
<glyph unicode="&#xfd;" glyph-name="yacute" horiz-adv-x="550" d="M561 507L327 -27Q284 -124 219 -169T58 -228L23 -112Q93 -97 128 -74T184 -7L199 26L-10 507H148L278 178L412 507H561ZM321 572H228L327 778H475L321 572Z" />
<glyph unicode="&#xfe;" glyph-name="thorn" horiz-adv-x="631" d="M436 520T487 487T566 392T595 253Q595 175 567 116T487 24T371 -8Q318 -8 276 14T212 75V-216H61V736H212V436Q234 475 276 497T371 520Q436 520 487 487ZM384 107T414 144T444 253Q444 324
414 364T328 404Q272 404 242 366T211 255Q211 183 241 145T328 107Q384 107 414 144Z" />
<glyph unicode="&#xff;" glyph-name="ydieresis" horiz-adv-x="550" d="M561 507L327 -27Q284 -124 219 -169T58 -228L23 -112Q93 -97 128 -74T184 -7L199 26L-10 507H148L278 178L412 507H561ZM109 740H248V608H109V740ZM301 740H440V608H301V740Z" />
<glyph unicode="&#x2013;" glyph-name="endash" horiz-adv-x="505" d="M0 226V314H505V226H0Z" />
<glyph unicode="&#x2014;" glyph-name="emdash" horiz-adv-x="1010" d="M0 226V314H1010V226H0Z" />
<glyph unicode="&#x2018;" glyph-name="quoteleft" horiz-adv-x="262" d="M212 575V414H49V518Q49 576 70 623T140 720L199 673Q149 622 138 575H212Z" />
<glyph unicode="&#x2019;" glyph-name="quoteright" horiz-adv-x="262" d="M212 712V609Q212 550 192 503T122 406L63 453Q113 504 124 551H49V712H212Z" />
<glyph unicode="&#x201a;" glyph-name="quotesinglbase" horiz-adv-x="262" d="M212 161V58Q212 -1 192 -48T122 -144L63 -98Q112 -47 124 0H49V161H212Z" />
<glyph unicode="&#x201c;" glyph-name="quotedblleft" horiz-adv-x="471" d="M212 575V414H49V518Q49 576 70 623T140 720L199 673Q149 622 138 575H212ZM421 575V414H258V518Q258 576 279 623T349 720L408 673Q358 622 347 575H421Z" />
<glyph unicode="&#x201d;" glyph-name="quotedblright" horiz-adv-x="471" d="M212 712V609Q212 550 192 503T122 406L63 453Q113 504 124 551H49V712H212ZM421 712V609Q421 550 401 503T331 406L272 453Q322 504 333 551H258V712H421Z" />
<glyph unicode="&#x201e;" glyph-name="quotedblbase" horiz-adv-x="471" d="M212 161V58Q212 -1 192 -48T122 -144L63 -98Q112 -47 124 0H49V161H212ZM421 161V58Q421 -1 401 -48T331 -144L272 -98Q321 -47 333 0H258V161H421Z" />
<glyph unicode="&#x2022;" glyph-name="bullet" horiz-adv-x="529" d="M216 89T174 112T107 177T82 268Q82 314 106 355T172 422T265 447Q313 447 355 424T422 359T447 268Q447 219 423 178T356 113T265 89Q216 89 174 112Z" />
<glyph unicode="&#x2039;" glyph-name="guilsinglleft" horiz-adv-x="305" d="M157 85L21 267L157 451H283L152 268L282 85H157Z" />
<glyph unicode="&#x203a;" glyph-name="guilsinglright" horiz-adv-x="305" d="M149 85H24L154 268L22 451H149L284 267L149 85Z" />
</font>
</defs>
</svg>
