<?xml version="1.0" standalone="no"?>
<!DOCTYPE svg PUBLIC "-//W3C//DTD SVG 1.1//EN" "http://www.w3.org/Graphics/SVG/1.1/DTD/svg11.dtd">
<svg xmlns="http://www.w3.org/2000/svg">
<defs >
<font id="Muli" horiz-adv-x="560" ><font-face
    font-family="Muli Light"
    units-per-em="1000"
    panose-1="0 0 4 0 0 0 0 0 0 0"
    ascent="1005"
    descent="-250"
    alphabetic="0" />
<glyph unicode=" " glyph-name="space" horiz-adv-x="255" />
<glyph unicode="!" glyph-name="exclam" horiz-adv-x="222" d="M86 175L108 712H186L124 175H86ZM56 87H141L135 0H50L56 87Z" />
<glyph unicode="&quot;" glyph-name="quotedbl" horiz-adv-x="410" d="M102 438L106 712H181L143 438H102ZM300 438L304 712H379L341 438H300Z" />
<glyph unicode="#" glyph-name="numbersign" horiz-adv-x="606" d="M594 482H487L421 238H555L550 188H407L356 0H302L353 188H178L127 0H74L125 188H26L30 238H139L205 482H70L74 532H219L268 712H321L272 532H448L497 712H549L500 532H598L594 482ZM367 238L434
482H258L192 238H367Z" />
<glyph unicode="$" glyph-name="dollar" horiz-adv-x="600" d="M409 349T449 330T516 278T543 192Q543 136 516 92T437 22T318 -8L309 -116H254L262 -8Q120 3 36 88L67 137Q112 94 159 73T267 48L289 324Q225 344 184 364T114 421T86 514Q86 573 115 619T198 692T319
720L328 828H384L376 718Q501 704 572 627L540 578Q477 650 370 662L347 368Q409 349 449 330ZM150 466T187 437T294 385L316 665Q239 663 195 624T150 518Q150 466 187 437ZM396 53T437 90T479 189Q479 235 444 261T342 308L321 48Q396 53 437 90Z" />
<glyph unicode="%" glyph-name="percent" horiz-adv-x="932" d="M165 285T123 334T81 477Q81 591 127 655T256 720Q336 720 377 671T419 527Q419 413 373 349T244 285Q165 285 123 334ZM274 0H210L677 712H740L274 0ZM300 333T330 385T360 534Q360 604 335 638T256
673Q200 673 170 621T140 470Q140 400 165 367T244 333Q300 333 330 385ZM616 -7T574 42T532 184Q532 299 578 363T707 428Q787 428 828 379T870 235Q870 121 824 57T695 -7Q616 -7 574 42ZM752 41T781 92T810 242Q810 312 785 346T707 380Q650 380 621 329T592
178Q592 107 617 74T696 41Q752 41 781 92Z" />
<glyph unicode="&amp;" glyph-name="ampersand" horiz-adv-x="663" d="M580 77T666 34L629 -8Q546 35 495 91Q453 43 399 18T280 -7Q215 -7 165 16T87 80T59 175Q59 240 98 291T229 399Q229 399 229 399T230 400Q181 458 163 494T145 569Q145 637 190 678T310
719Q380 719 421 682T462 582Q462 546 449 518T403 459T312 390L491 180Q541 274 544 413H602Q596 245 528 137Q580 77 666 34ZM206 538T220 510T278 430Q351 476 377 508T404 577Q404 618 379 643T311 668Q263 668 235 641T206 569Q206 538 220 510ZM336 45T381
67T460 132L264 360Q184 309 152 268T119 176Q119 116 163 81T282 45Q336 45 381 67Z" />
<glyph unicode="&apos;" glyph-name="quotesingle" horiz-adv-x="212" d="M102 438L106 712H181L143 438H102Z" />
<glyph unicode="(" glyph-name="parenleft" horiz-adv-x="300" d="M105 -4T105 185Q105 226 108 266Q126 495 249 712H305Q241 590 210 482T171 266Q168 224 168 182Q168 5 233 -182H181Q105 -4 105 185Z" />
<glyph unicode=")" glyph-name="parenright" horiz-adv-x="300" d="M-2 -182Q61 -60 92 49T133 266Q136 307 136 347Q136 524 71 712H124Q199 535 199 346Q199 307 196 266Q187 150 152 40T52 -182H-2Z" />
<glyph unicode="*" glyph-name="asterisk" horiz-adv-x="453" d="M143 369L105 399L214 527L63 574L81 622L230 568L238 730H289L272 568L429 622L441 574L282 526L371 399L328 369L248 504L143 369Z" />
<glyph unicode="+" glyph-name="plus" horiz-adv-x="600" d="M551 312L547 261H326L309 40H259L276 261H55L59 312H281L298 533H348L331 312H551Z" />
<glyph unicode="," glyph-name="comma" horiz-adv-x="222" d="M141 87L136 20Q133 -18 119 -48T74 -107L43 -82Q81 -44 90 0H50L56 87H141Z" />
<glyph unicode="-" glyph-name="hyphen" horiz-adv-x="424" d="M75 242L80 295H353L349 242H75Z" />
<glyph unicode="." glyph-name="period" horiz-adv-x="222" d="M56 87H141L135 0H50L56 87Z" />
<glyph unicode="/" glyph-name="slash" horiz-adv-x="272" d="M15 -54H-44L274 748H333L15 -54Z" />
<glyph unicode="0" glyph-name="zero" horiz-adv-x="600" d="M180 -8T121 71T62 302Q62 434 93 527T182 670T322 720Q437 720 497 641T557 410Q557 211 489 102T295 -8Q180 -8 121 71ZM392 47T442 142T492 421Q492 545 450 605T322 665Q226 665 176 570T126 291Q126
167 168 107T297 47Q392 47 442 142Z" />
<glyph unicode="1" glyph-name="one" horiz-adv-x="600" d="M339 54H498L493 0H116L121 54H277L323 630L169 535L174 598L357 712H392L339 54Z" />
<glyph unicode="2" glyph-name="two" horiz-adv-x="600" d="M158 54H523L518 0H69L73 46L349 327Q414 393 441 442T468 543Q468 599 432 632T336 666Q279 666 227 645T122 580L101 629Q146 672 208 696T336 720Q425 720 477 673T530 544Q530 480 498 421T389 284L158 54Z" />
<glyph unicode="3" glyph-name="three" horiz-adv-x="600" d="M455 348T486 307T518 204Q518 141 489 93T407 19T281 -7Q213 -7 154 16T48 84L77 133Q127 89 177 68T284 47Q364 47 410 87T456 202Q456 334 290 334H214L219 389H289Q371 389 419 432T468 548Q468
601 432 633T334 666Q278 666 227 645T122 580L101 629Q146 672 209 696T337 720Q425 720 477 674T530 549Q530 486 494 436T397 364Q455 348 486 307Z" />
<glyph unicode="4" glyph-name="four" horiz-adv-x="600" d="M561 215L556 162H445L432 0H371L384 162H47L51 209L437 712H489L449 215H561ZM122 215H388L418 600L122 215Z" />
<glyph unicode="5" glyph-name="five" horiz-adv-x="600" d="M198 659L176 378Q205 408 247 425T336 442Q431 442 489 386T547 237Q547 165 516 110T430 24T303 -7Q237 -7 178 16T72 84L102 133Q153 89 202 68T305 47Q387 47 435 98T484 234Q484 304 442 346T331
388Q217 388 155 296H107L139 712H558L554 659H198Z" />
<glyph unicode="6" glyph-name="six" horiz-adv-x="600" d="M259 666T200 585T129 351L127 316Q153 374 205 408T325 442Q391 442 441 416T518 340T546 227Q546 160 516 107T434 23T315 -8Q195 -8 130 71T65 296Q65 424 101 520T202 668T356 720Q417 720 474 697T578
629L547 580Q501 622 453 644T357 666Q259 666 200 585ZM268 388T229 365T167 302T144 210Q144 137 191 92T315 46Q390 46 436 96T483 227Q483 300 438 344T318 388Q268 388 229 365Z" />
<glyph unicode="7" glyph-name="seven" horiz-adv-x="600" d="M108 712H566L563 666L177 0H110L492 658H104L108 712Z" />
<glyph unicode="8" glyph-name="eight" horiz-adv-x="600" d="M472 347T509 301T546 191Q546 131 514 87T423 18T283 -7Q209 -7 155 16T72 81T43 177Q43 247 86 297T207 366Q152 385 120 427T87 531Q87 619 151 669T332 720Q434 720 495 673T557 545Q557 481 518
433T409 365Q472 347 509 301ZM150 467T192 430T310 384Q395 392 444 434T493 539Q493 600 451 633T332 666Q243 666 197 631T150 529Q150 467 192 430ZM379 47T431 85T483 191Q483 255 439 293T307 338Q205 329 156 290T107 184Q107 118 154 83T287 47Q379 47
431 85Z" />
<glyph unicode="9" glyph-name="nine" horiz-adv-x="600" d="M424 720T489 641T555 416Q555 288 519 192T417 44T264 -8Q202 -8 145 15T41 83L71 132Q166 46 263 46Q360 46 419 127T490 361L492 397Q466 338 413 304T294 270Q228 270 178 297T101 372T73 485Q73
552 103 605T185 689T304 720Q424 720 489 641ZM351 324T390 347T452 410T475 502Q475 575 428 620T304 666Q229 666 183 616T136 485Q136 412 181 368T301 324Q351 324 390 347Z" />
<glyph unicode=":" glyph-name="colon" horiz-adv-x="223" d="M88 490H174L167 404H81L88 490ZM56 87H141L135 0H50L56 87Z" />
<glyph unicode=";" glyph-name="semicolon" horiz-adv-x="222" d="M88 490H174L167 404H81L88 490ZM56 87H141L136 20Q133 -18 119 -48T74 -107L43 -82Q81 -44 90 0H50L56 87Z" />
<glyph unicode="&lt;" glyph-name="less" horiz-adv-x="600" d="M570 540L566 484L120 287L534 89L530 33L56 262L59 312L570 540Z" />
<glyph unicode="=" glyph-name="equal" horiz-adv-x="600" d="M560 413L556 362H63L67 413H560ZM543 211L540 160H48L51 211H543Z" />
<glyph unicode="&gt;" glyph-name="greater" horiz-adv-x="600" d="M77 540L551 312L548 262L37 33L41 89L486 287L73 484L77 540Z" />
<glyph unicode="?" glyph-name="question" horiz-adv-x="440" d="M180 192Q185 259 212 306T289 408Q333 457 353 492T374 572Q374 615 343 640T257 666Q185 666 117 625L121 686Q154 703 191 711T262 720Q344 720 391 682T438 579Q438 538 424 504T389 444T333
380Q282 325 255 285T219 188L216 175H179L180 192ZM141 0L148 87H234L227 0H141Z" />
<glyph unicode="@" glyph-name="at" horiz-adv-x="931" d="M353 -151T257 -98T109 53T57 278Q57 409 112 508T264 662T481 717Q610 717 701 663T839 525T885 348Q885 246 855 183T779 93T683 65Q628 65 599 88T568 156H566Q541 114 501 90T411 65Q347 65 306 110T265
239Q265 307 291 368T367 466T479 503Q529 503 565 479T611 417H612L624 490H678L629 207Q626 188 626 172Q626 138 642 124T693 110Q724 110 756 133T809 210T831 348Q831 426 793 499T675 619T481 666Q376 666 292 619T159 483T110 278Q110 163 154 78T283 -53T482
-100Q569 -100 634 -74T735 0H807Q764 -71 679 -111T482 -151Q353 -151 257 -98ZM475 110T514 142T574 225T595 333Q595 393 565 425T484 457Q433 457 395 426T337 346T317 243Q317 179 347 145T422 110Q475 110 514 142Z" />
<glyph unicode="A" glyph-name="A" horiz-adv-x="727" d="M618 0L552 190H169L73 0H7L372 712H428L682 0H618ZM196 244H533L395 638L196 244Z" />
<glyph unicode="B" glyph-name="B" horiz-adv-x="677" d="M548 347T578 307T609 206Q609 109 546 55T369 0H74L129 712H394Q504 712 561 667T619 538Q619 475 586 430T488 363Q548 347 578 307ZM188 659L167 389H380Q464 389 510 427T557 536Q557 597 516 628T392
659H188ZM456 53T501 90T546 201Q546 268 506 301T381 334H162L140 53H369Q456 53 501 90Z" />
<glyph unicode="C" glyph-name="C" horiz-adv-x="684" d="M280 -8T213 32T110 147T73 325Q73 445 113 534T230 671T409 720Q488 720 552 697T661 627L630 579Q581 625 530 645T407 665Q323 665 262 624T169 507T137 324Q137 191 200 119T381 47Q501 47 596 134L618
85Q519 -8 369 -8Q280 -8 213 32Z" />
<glyph unicode="D" glyph-name="D" horiz-adv-x="740" d="M129 712H353Q513 712 598 628T684 387Q684 267 643 180T521 47T328 0H74L129 712ZM326 54Q471 54 545 140T619 388Q619 658 351 658H188L140 54H326Z" />
<glyph unicode="E" glyph-name="E" horiz-adv-x="586" d="M566 659H188L167 389H524L519 334H162L140 53H518L513 0H74L129 712H569L566 659Z" />
<glyph unicode="F" glyph-name="F" horiz-adv-x="559" d="M555 659H188L167 389H513L509 334H162L136 0H74L129 712H559L555 659Z" />
<glyph unicode="G" glyph-name="G" horiz-adv-x="726" d="M408 365H652L627 40Q583 19 518 6T394 -8Q238 -8 156 77T73 315Q73 438 115 529T237 669T422 719Q572 719 667 627L636 578Q585 624 535 644T422 665Q333 665 269 624T171 504T137 319Q137 188 202 117T394
46Q438 46 486 55T574 79L591 312H404L408 365Z" />
<glyph unicode="H" glyph-name="H" horiz-adv-x="762" d="M645 712H707L651 0H590L616 334H162L135 0H74L129 712H192L166 389H620L645 712Z" />
<glyph unicode="I" glyph-name="I" horiz-adv-x="246" d="M74 0L129 712H192L136 0H74Z" />
<glyph unicode="J" glyph-name="J" horiz-adv-x="314" d="M-36 -123Q4 -131 30 -131Q82 -131 108 -100T140 3L196 712H259L202 1Q194 -97 154 -141T36 -186Q5 -186 -40 -178L-36 -123Z" />
<glyph unicode="K" glyph-name="K" horiz-adv-x="619" d="M637 712L224 365L603 0H524L163 343L136 0H74L129 712H192L166 385L551 712H637Z" />
<glyph unicode="L" glyph-name="L" horiz-adv-x="538" d="M74 0L129 712H192L140 54H508L504 0H74Z" />
<glyph unicode="M" glyph-name="M" horiz-adv-x="848" d="M740 712H793L737 0H679L723 565L430 0H384L177 565L133 0H74L129 712H183L412 72L740 712Z" />
<glyph unicode="N" glyph-name="N" horiz-adv-x="742" d="M628 712H687L631 0H583L180 608L132 0H74L129 712H179L581 106L628 712Z" />
<glyph unicode="O" glyph-name="O" horiz-adv-x="765" d="M287 -8T217 32T110 147T73 325Q73 444 113 533T227 671T399 720Q495 720 565 680T672 565T709 387Q709 267 669 178T555 41T382 -8Q287 -8 217 32ZM463 48T522 88T612 205T644 387Q644 521 581 592T399
664Q318 664 259 623T169 506T137 324Q137 191 200 120T383 48Q463 48 522 88Z" />
<glyph unicode="P" glyph-name="P" horiz-adv-x="645" d="M500 712T558 662T617 529Q617 428 550 374T367 320H161L136 0H74L129 712H392Q500 712 558 662ZM458 374T506 412T555 527Q555 588 514 623T390 659H187L165 374H366Q458 374 506 412Z" />
<glyph unicode="Q" glyph-name="Q" horiz-adv-x="765" d="M709 236T646 135T472 3Q514 -82 586 -146L539 -191Q503 -161 466 -111T403 -7Q396 -8 382 -8Q287 -8 217 32T110 147T73 325Q73 444 113 533T227 671T399 720Q495 720 565 680T672 565T709 387Q709 236
646 135ZM463 48T522 88T612 205T644 387Q644 521 581 592T399 664Q318 664 259 623T169 506T137 324Q137 191 200 120T383 48Q463 48 522 88Z" />
<glyph unicode="R" glyph-name="R" horiz-adv-x="688" d="M499 323T520 299T553 230L621 0H557L486 237Q472 284 439 301T347 318H161L136 0H74L129 712H408Q516 712 574 665T632 531Q632 452 591 401T469 332Q499 323 520 299ZM384 372Q478 372 524 410T571 527Q571
659 407 659H188L165 372H384Z" />
<glyph unicode="S" glyph-name="S" horiz-adv-x="613" d="M221 -8T157 14T37 85L67 134Q122 88 178 67T305 46Q398 46 448 82T498 184Q498 223 474 248T415 287T317 319Q242 340 196 359T117 418T84 522Q84 582 115 626T205 695T340 720Q414 720 477 696T588 627L558
578Q459 666 340 666Q247 666 197 629T147 524Q147 480 173 452T237 409T340 375Q413 354 457 336T531 281T562 187Q562 97 493 45T305 -8Q221 -8 157 14Z" />
<glyph unicode="T" glyph-name="T" horiz-adv-x="596" d="M248 0L300 658H45L49 712H621L617 658H362L310 0H248Z" />
<glyph unicode="U" glyph-name="U" horiz-adv-x="726" d="M220 -8T154 55T88 237Q88 249 90 275L123 712H186L151 278Q150 266 150 244Q150 47 348 47Q456 47 514 101T580 267L614 712H676L641 274Q630 133 556 63T348 -8Q220 -8 154 55Z" />
<glyph unicode="V" glyph-name="V" horiz-adv-x="687" d="M651 712H717L352 0H296L43 712H108L330 78L651 712Z" />
<glyph unicode="W" glyph-name="W" horiz-adv-x="1107" d="M1044 712H1106L803 0H748L583 614L320 0H267L75 712H136L301 87L567 712L615 711L780 88L1044 712Z" />
<glyph unicode="X" glyph-name="X" horiz-adv-x="644" d="M650 712L367 365L609 0H535L329 317L72 0H-3L296 367L68 712H140L335 413L576 712H650Z" />
<glyph unicode="Y" glyph-name="Y" horiz-adv-x="597" d="M640 712L333 294L310 0H247L271 293L28 712H98L305 345L569 712H640Z" />
<glyph unicode="Z" glyph-name="Z" horiz-adv-x="590" d="M579 712L576 667L105 53H538L533 0H24L28 45L500 659H77L81 712H579Z" />
<glyph unicode="[" glyph-name="bracketleft" horiz-adv-x="300" d="M79 -182L149 712H330L327 662H206L143 -131H265L261 -182H79Z" />
<glyph unicode="\" glyph-name="backslash" horiz-adv-x="272" d="M210 -54L18 748H78L270 -54H210Z" />
<glyph unicode="]" glyph-name="bracketright" horiz-adv-x="300" d="M153 -182H-27L-24 -131H97L160 662H38L42 712H224L153 -182Z" />
<glyph unicode="^" glyph-name="asciicircum" horiz-adv-x="600" d="M544 141H491L326 568L95 141H39L306 634H356L544 141Z" />
<glyph unicode="_" glyph-name="underscore" horiz-adv-x="505" d="M-17 -43L-13 0H480L477 -43H-17Z" />
<glyph unicode="`" glyph-name="grave" horiz-adv-x="300" d="M153 556L39 759H112L199 556H153Z" />
<glyph unicode="a" glyph-name="a" horiz-adv-x="591" d="M528 501L488 0H429L436 87Q412 43 366 18T265 -7Q201 -7 153 23T79 108T52 236Q52 319 81 381T163 478T286 513Q348 513 393 486T461 410L468 501H528ZM357 46T403 107T450 274Q450 365 408 413T288 461Q206
461 161 401T115 233Q115 144 157 95T277 46Q357 46 403 107Z" />
<glyph unicode="b" glyph-name="b" horiz-adv-x="591" d="M389 513T437 484T513 399T540 271Q540 188 511 125T428 28T306 -7Q245 -7 199 20T132 96L124 0H63L122 736H182L157 422Q182 465 227 489T326 513Q389 513 437 484ZM386 46T432 106T478 273Q478 362 435
411T316 461Q235 461 189 400T142 232Q142 141 184 94T306 46Q386 46 432 106Z" />
<glyph unicode="c" glyph-name="c" horiz-adv-x="490" d="M207 -7T157 23T79 107T51 234Q51 318 81 381T167 478T299 513Q352 513 398 496T477 447L450 400Q410 432 374 446T296 461Q210 461 162 400T114 232Q114 145 157 96T280 46Q320 46 354 60T427 106L447
60Q415 29 370 11T274 -7Q207 -7 157 23Z" />
<glyph unicode="d" glyph-name="d" horiz-adv-x="591" d="M545 736L487 0H428L435 86Q411 42 365 18T264 -7Q201 -7 153 23T78 107T51 234Q51 317 80 380T163 478T285 513Q347 513 392 486T460 409L486 736H545ZM356 46T402 107T449 274Q449 365 407 413T287 461Q206
461 160 401T114 235Q114 145 156 96T276 46Q356 46 402 107Z" />
<glyph unicode="e" glyph-name="e" horiz-adv-x="543" d="M115 258Q114 250 114 232Q114 145 157 96T283 46Q329 46 373 61T453 106L473 60Q443 30 390 12T282 -7Q175 -7 113 58T51 234Q51 317 81 380T166 478T296 513Q390 513 444 459T499 304Q499 282 496 258H115ZM227
464T181 423T120 305H443Q445 381 406 422T300 464Q227 464 181 423Z" />
<glyph unicode="f" glyph-name="f" horiz-adv-x="324" d="M247 686T222 663T192 580L186 501H336L331 452H182L147 0H87L122 452H24L29 501H126L133 592Q139 666 178 703T280 740Q308 740 340 732L336 678Q309 686 288 686Q247 686 222 663Z" />
<glyph unicode="g" glyph-name="g" horiz-adv-x="595" d="M531 501L491 -2Q473 -223 266 -223Q155 -223 70 -168L87 -115Q134 -146 174 -158T267 -170Q418 -170 432 -4L442 110Q418 65 372 40T270 15Q170 15 111 78T52 247Q52 326 81 386T163 480T287 513Q350
513 396 486T464 410L471 501H531ZM360 69T407 126T454 283Q454 368 411 414T290 461Q208 461 162 404T115 245Q115 159 157 114T279 69Q360 69 407 126Z" />
<glyph unicode="h" glyph-name="h" horiz-adv-x="578" d="M413 513T457 471T502 344Q502 326 501 317L476 0H416L441 313Q442 321 442 337Q442 400 412 430T321 460Q244 460 199 415T147 290L124 0H63L121 736H182L157 421Q182 466 227 489T329 513Q413 513 457 471Z" />
<glyph unicode="i" glyph-name="i" horiz-adv-x="228" d="M64 0L104 501H165L125 0H64ZM109 708H190L184 630H103L109 708Z" />
<glyph unicode="j" glyph-name="j" horiz-adv-x="228" d="M-58 -165T-37 -165Q4 -165 29 -142T59 -59L103 501H163L118 -71Q112 -145 73 -182T-29 -219Q-57 -219 -89 -211L-85 -157Q-58 -165 -37 -165ZM109 708H190L184 630H103L109 708Z" />
<glyph unicode="k" glyph-name="k" horiz-adv-x="498" d="M494 501L213 259L481 0H403L143 249L123 0H63L121 736H181L144 268L412 501H494Z" />
<glyph unicode="l" glyph-name="l" horiz-adv-x="228" d="M63 0L122 736H183L124 0H63Z" />
<glyph unicode="m" glyph-name="m" horiz-adv-x="869" d="M714 513T754 472T794 349Q794 328 793 317L768 0H709L733 313Q734 324 734 343Q734 403 708 431T627 460Q557 460 516 416T469 289L446 0H386L411 313Q412 323 412 340Q412 401 386 430T305 460Q235 460
194 416T147 289L124 0H63L92 362Q96 426 96 462Q96 488 95 501H152L153 416Q176 464 217 488T315 513Q435 513 465 418Q490 464 534 488T637 513Q714 513 754 472Z" />
<glyph unicode="n" glyph-name="n" horiz-adv-x="578" d="M413 513T457 471T502 344Q502 326 501 317L476 0H416L441 313Q442 321 442 337Q442 400 412 430T321 460Q244 460 199 415T147 290L124 0H63L92 362Q96 403 96 455Q96 486 95 501H152L153 414Q178 462
224 487T329 513Q413 513 457 471Z" />
<glyph unicode="o" glyph-name="o" horiz-adv-x="562" d="M207 -7T157 23T79 107T51 235Q51 318 80 381T164 478T288 513Q355 513 405 483T483 399T511 271Q511 188 482 125T398 28T274 -7Q207 -7 157 23ZM358 46T403 107T449 274Q449 362 406 411T288 461Q207
461 161 400T114 232Q114 141 156 94T278 46Q358 46 403 107Z" />
<glyph unicode="p" glyph-name="p" horiz-adv-x="591" d="M389 513T437 484T513 399T540 271Q540 188 511 125T428 28T306 -7Q244 -7 198 20T131 98L106 -216H46L92 362Q96 403 96 455Q96 486 95 501H152L153 415Q177 461 224 487T326 513Q389 513 437 484ZM386
46T431 106T477 273Q477 362 435 411T316 461Q235 461 189 400T142 232Q142 141 184 94T306 46Q386 46 431 106Z" />
<glyph unicode="q" glyph-name="q" horiz-adv-x="591" d="M534 501Q520 422 515 362L469 -216H409L433 84Q408 41 363 17T263 -7Q200 -7 152 23T77 108T50 236Q50 318 79 381T162 478T284 513Q348 513 394 485T462 403L477 501H534ZM355 46T401 107T448 274Q448
364 406 412T286 461Q205 461 159 400T112 233Q112 144 155 95T275 46Q355 46 401 107Z" />
<glyph unicode="r" glyph-name="r" horiz-adv-x="349" d="M345 513T362 509L356 455Q337 459 311 459Q234 459 193 410T148 294L124 0H63L92 362Q96 428 96 462Q96 488 95 501H152L153 419Q177 463 222 488T319 513Q345 513 362 509Z" />
<glyph unicode="s" glyph-name="s" horiz-adv-x="494" d="M175 -7T125 10T38 60L65 106Q106 74 145 60T232 45Q298 45 332 66T367 131Q367 158 351 175T309 202T242 225Q189 241 157 255T103 296T80 367Q80 435 131 474T271 513Q324 513 370 496T445 447L418 400Q350
461 272 461Q209 461 175 438T141 370Q141 343 157 326T198 300T266 277Q318 262 350 248T406 207T429 134Q429 69 375 31T231 -7Q175 -7 125 10Z" />
<glyph unicode="t" glyph-name="t" horiz-adv-x="337" d="M160 154Q159 147 159 134Q159 85 180 66T242 47Q272 47 296 56L292 2Q262 -6 228 -6Q167 -6 133 26T98 122Q98 134 99 141L123 452H24L28 501H127L137 634L199 657L187 501H335L331 452H183L160 154Z" />
<glyph unicode="u" glyph-name="u" horiz-adv-x="569" d="M506 501L467 0H408L415 88Q389 42 345 18T245 -7Q163 -7 119 36T74 163Q74 180 75 189L100 501H160L136 194Q135 186 135 170Q135 46 253 46Q327 46 372 91T423 217L446 501H506Z" />
<glyph unicode="v" glyph-name="v" horiz-adv-x="525" d="M464 501H527L274 0H211L37 501H99L247 60L464 501Z" />
<glyph unicode="w" glyph-name="w" horiz-adv-x="863" d="M784 501H848L627 0H564L444 423L258 0H195L54 501H116L233 72L420 501H481L600 72L784 501Z" />
<glyph unicode="x" glyph-name="x" horiz-adv-x="528" d="M515 501L302 257L487 0H413L262 214L76 0H1L228 259L52 501H127L266 304L440 501H515Z" />
<glyph unicode="y" glyph-name="y" horiz-adv-x="525" d="M527 501L246 -52Q204 -135 150 -173T16 -227L7 -178Q79 -161 117 -134T186 -50L212 -2L37 501H99L247 60L464 501H527Z" />
<glyph unicode="z" glyph-name="z" horiz-adv-x="515" d="M477 501L475 456L116 49H453L449 0H31L34 41L397 452H80L83 501H477Z" />
<glyph unicode="{" glyph-name="braceleft" horiz-adv-x="337" d="M368 712L365 662H308Q278 662 259 642T237 584L220 368Q216 324 194 299T141 266Q170 259 188 233T204 164L187 -54Q184 -92 199 -111T245 -131H302L298 -182H240Q179 -182 150 -150T125 -57L141
156Q142 162 142 174Q142 206 127 223T75 247L53 252L55 280L79 284Q121 292 139 312T160 375L176 587Q180 647 217 679T310 712H368Z" />
<glyph unicode="|" glyph-name="bar" horiz-adv-x="255" d="M64 -182L134 712H195L124 -182H64Z" />
<glyph unicode="}" glyph-name="braceright" horiz-adv-x="337" d="M289 280L287 252L262 247Q220 239 203 219T181 156L165 -57Q160 -118 126 -150T30 -182H-27L-24 -131H32Q63 -131 81 -112T103 -54L121 164Q124 207 147 233T200 266Q171 273 153 298T137 368L154
584Q157 622 141 642T95 662H38L42 712H100Q156 712 187 680T215 587L199 375Q196 333 210 313T266 284L289 280Z" />
<glyph unicode="~" glyph-name="asciitilde" horiz-adv-x="600" d="M553 316Q502 220 416 220Q383 220 354 232T283 268Q252 286 231 295T190 304Q156 304 134 286T96 235L55 258Q103 353 190 353Q223 353 252 341T324 306Q357 287 377 279T417 270Q450 270 472
288T511 337L553 316Z" />
<glyph unicode="&#xa0;" glyph-name="uni00A0" horiz-adv-x="255" />
<glyph unicode="&#xa1;" glyph-name="exclamdown" horiz-adv-x="222" d="M81 404L88 490H173L167 404H81ZM97 315H135L116 -182H38L97 315Z" />
<glyph unicode="&#xa2;" glyph-name="cent" horiz-adv-x="620" d="M434 452T372 459L339 46Q375 48 406 62T475 106L495 60Q465 31 424 14T335 -7L326 -119H272L281 -4Q197 9 148 72T98 234Q98 354 158 429T322 512L331 625H385L376 512Q464 503 525 447L498 400Q434
452 372 459ZM161 158T193 111T285 50L318 459Q242 450 202 391T161 232Q161 158 193 111Z" />
<glyph unicode="&#xa3;" glyph-name="sterling" horiz-adv-x="600" d="M442 720T497 696T593 627L563 578Q525 620 477 643T377 666Q315 666 279 629T237 523L226 382H414L410 331H222L213 215Q208 151 189 114T128 54H545L541 0H27L31 43Q90 69 117 104T150 195L161
331H54L58 382H165L176 528Q184 618 238 669T380 720Q442 720 497 696Z" />
<glyph unicode="&#xa4;" glyph-name="currency" horiz-adv-x="600" d="M544 335T544 247Q544 160 491 91L544 36L504 -4L451 51Q420 25 382 11T302 -3Q217 -3 149 52L95 -4L56 36L111 92Q59 160 59 247Q59 334 111 402L56 459L95 499L149 442Q216 498 302 498Q343
498 381 484T451 444L504 499L544 459L491 404Q544 335 544 247ZM351 50T393 76T461 148T486 247Q486 301 461 346T394 417T301 444Q250 444 208 418T141 346T116 247Q116 193 140 148T207 77T301 50Q351 50 393 76Z" />
<glyph unicode="&#xa5;" glyph-name="yen" horiz-adv-x="600" d="M639 712L375 384H539L535 334H338L330 232H527L523 182H326L312 0H250L264 182H67L71 232H268L276 334H79L83 384H247L33 712H105L310 391L568 712H639Z" />
<glyph unicode="&#xa6;" glyph-name="brokenbar" horiz-adv-x="255" d="M108 375L134 712H195L169 375H108ZM65 -182L91 156H151L125 -182H65Z" />
<glyph unicode="&#xa7;" glyph-name="section" horiz-adv-x="529" d="M481 152T463 116T414 55Q424 29 424 -4Q424 -89 372 -138T233 -188Q175 -188 127 -173T36 -123L65 -76Q109 -108 147 -121T233 -134Q295 -134 329 -102T364 -11Q364 28 343 57T275 114L191
163Q117 207 85 247T53 338Q53 380 70 418T117 479Q108 505 108 535Q108 619 161 669T301 719Q348 719 395 701T472 653L445 606Q409 637 374 651T296 666Q239 666 205 632T170 540Q170 502 190 475T258 418L341 368Q417 322 449 282T481 190Q481 152 463 116ZM419
137T419 188Q419 221 396 249T316 312L237 360Q174 398 146 432Q113 396 113 344Q113 311 136 283T216 220L295 172Q356 134 387 99Q419 137 419 188Z" />
<glyph unicode="&#xa8;" glyph-name="dieresis" horiz-adv-x="300" d="M66 695H141L135 621H60L66 695ZM233 695H309L303 621H227L233 695Z" />
<glyph unicode="&#xa9;" glyph-name="copyright" horiz-adv-x="823" d="M312 -5T229 43T99 173T51 357Q51 458 98 540T228 669T412 717Q513 717 595 670T725 540T773 357Q773 256 726 174T595 43T412 -5Q312 -5 229 43ZM501 35T573 77T688 193T730 357Q730 446
688 519T574 635T412 677Q323 677 250 635T135 520T93 357Q93 267 135 194T250 78T412 35Q501 35 573 77ZM326 138T272 197T217 357Q217 457 271 515T418 574Q459 574 499 559T568 518L546 475Q514 501 484 513T420 525Q352 525 316 482T279 357Q279 275 315 231T420
187Q454 187 484 199T546 237L568 194Q539 168 499 153T418 138Q326 138 272 197Z" />
<glyph unicode="&#xaa;" glyph-name="ordfeminine" horiz-adv-x="331" d="M256 717T284 691T312 614L311 599L297 417H241L244 461Q230 437 207 425T155 412Q111 412 83 436T55 499Q55 548 95 568T234 588H255L256 606Q260 672 197 672Q144 672 97 640L82 682Q107
698 139 707T203 717Q256 717 284 691ZM200 455T223 478T251 538L252 555H234Q164 555 138 544T111 502Q111 482 126 469T165 455Q200 455 223 478Z" />
<glyph unicode="&#xab;" glyph-name="guillemotleft" horiz-adv-x="420" d="M146 89L30 267L177 447H237L95 268L206 89H146ZM317 89L201 267L348 447H408L266 268L377 89H317Z" />
<glyph unicode="&#xac;" glyph-name="logicalnot" horiz-adv-x="600" d="M560 418L539 156H490L507 368H64L67 418H560Z" />
<glyph unicode="&#xad;" glyph-name="uni00AD" horiz-adv-x="424" d="M75 242L80 295H353L349 242H75Z" />
<glyph unicode="&#xae;" glyph-name="registered" horiz-adv-x="823" d="M522 717T604 670T734 540T782 357Q782 256 735 174T604 43T421 -5Q321 -5 238 43T108 173T60 357Q60 458 107 540T237 669T421 717Q522 717 604 670ZM510 35T582 77T697 193T739 357Q739
446 697 519T583 635T421 677Q332 677 259 635T144 520T102 357Q102 267 144 194T259 78T421 35Q510 35 582 77ZM508 315T527 279L600 143H535L463 279Q450 302 435 310T392 319H331L317 143H260L293 569H455Q526 569 562 539T599 451Q599 399 567 366T478 325Q508
315 527 279ZM540 368T540 449Q540 488 518 504T446 521H347L334 368H446Q540 368 540 449Z" />
<glyph unicode="&#xaf;" glyph-name="overscore" horiz-adv-x="300" d="M32 632L37 684H335L331 632H32Z" />
<glyph unicode="&#xb0;" glyph-name="degree" horiz-adv-x="368" d="M170 427T137 446T85 498T66 572Q66 613 85 646T137 698T210 717Q250 717 283 698T336 646T355 572Q355 531 336 498T284 446T210 427Q170 427 137 446ZM252 474T278 501T304 572Q304 615 278
643T210 671Q169 671 143 643T116 572Q116 529 142 502T210 474Q252 474 278 501Z" />
<glyph unicode="&#xb1;" glyph-name="plusminus" horiz-adv-x="600" d="M333 351H555L551 301H330L315 119H265L280 301H59L62 351H283L298 533H348L333 351ZM34 0L38 51H531L527 0H34Z" />
<glyph unicode="&#xb2;" glyph-name="uni00B2" horiz-adv-x="380" d="M135 333H340L336 285H58L61 328L222 491Q257 526 272 552T287 605Q287 636 268 652T217 668Q189 668 156 655T96 619L73 661Q103 686 141 701T221 716Q280 716 312 687T345 608Q345 572 326
537T264 461L135 333Z" />
<glyph unicode="&#xb3;" glyph-name="uni00B3" horiz-adv-x="380" d="M302 494T320 470T338 408Q338 349 298 316T192 282Q150 282 111 297T42 338L72 379Q130 330 190 330Q232 330 257 349T282 407Q282 445 260 461T194 478H142L146 525H190Q236 525 262 546T288
607Q288 637 269 652T217 668Q189 668 157 655T96 619L73 661Q103 686 141 701T221 716Q279 716 312 688T345 615Q345 574 325 545T269 503Q302 494 320 470Z" />
<glyph unicode="&#xb4;" glyph-name="acute" horiz-adv-x="300" d="M199 556H153L268 759H349L199 556Z" />
<glyph unicode="&#xb5;" glyph-name="uni00B5" horiz-adv-x="569" d="M506 501L467 0H408L415 88Q389 42 345 18T245 -7Q167 -7 124 33L104 -216H45L100 501H160L136 194Q135 186 135 170Q135 46 253 46Q327 46 372 91T423 217L446 501H506Z" />
<glyph unicode="&#xb6;" glyph-name="paragraph" horiz-adv-x="573" d="M447 -182H390L456 659H334L268 -182H210L250 326Q169 328 120 376T70 505Q70 597 125 654T282 712H518L447 -182Z" />
<glyph unicode="&#xb7;" glyph-name="middot" horiz-adv-x="223" d="M74 311H160L152 224H67L74 311Z" />
<glyph unicode="&#xb8;" glyph-name="cedilla" horiz-adv-x="300" d="M199 -41T219 -59T240 -109Q240 -147 210 -170T126 -193Q105 -193 81 -189T38 -174L53 -135Q91 -149 127 -149Q157 -149 173 -140T189 -111Q189 -97 180 -90T153 -82Q134 -82 106 -92L88 -77L106
20H157L144 -44Q156 -41 167 -41Q199 -41 219 -59Z" />
<glyph unicode="&#xb9;" glyph-name="uni00B9" horiz-adv-x="380" d="M251 333H326L322 285H116L119 333H195L220 645L145 600L150 661L235 712H282L251 333Z" />
<glyph unicode="&#xba;" glyph-name="ordmasculine" horiz-adv-x="336" d="M122 412T85 450T48 551Q48 625 90 671T203 717Q264 717 301 679T338 579Q338 504 296 458T183 412Q122 412 85 450ZM230 459T255 490T280 578Q280 623 260 647T201 671Q155 671 131 639T106
551Q106 506 126 483T184 459Q230 459 255 490Z" />
<glyph unicode="&#xbb;" glyph-name="guillemotright" horiz-adv-x="420" d="M79 89H19L160 268L45 447H106L224 267L79 89ZM250 89H190L331 268L216 447H277L395 267L250 89Z" />
<glyph unicode="&#xbc;" glyph-name="onequarter" horiz-adv-x="928" d="M251 333H326L322 285H116L119 333H195L220 645L145 600L150 661L235 712H282L251 333ZM256 -23L211 7L689 735L733 705L256 -23ZM894 137L889 90H827L820 0H762L769 90H574L577 133L806
427H853L831 137H894ZM636 137H773L788 335L636 137Z" />
<glyph unicode="&#xbd;" glyph-name="onehalf" horiz-adv-x="928" d="M251 333H326L322 285H116L119 333H195L220 645L145 600L150 661L235 712H282L251 333ZM256 -23L211 7L689 735L733 705L256 -23ZM660 48H865L861 0H583L586 43L747 206Q782 241 797 267T812
320Q812 351 793 367T742 383Q714 383 681 370T621 334L598 376Q628 401 666 416T746 431Q805 431 837 402T870 323Q870 287 851 252T789 176L660 48Z" />
<glyph unicode="&#xbe;" glyph-name="threequarters" horiz-adv-x="928" d="M302 494T320 470T338 408Q338 349 298 316T192 282Q150 282 111 297T42 338L72 379Q130 330 190 330Q232 330 257 349T282 407Q282 445 260 461T194 478H142L146 525H190Q236 525 262
546T288 607Q288 637 269 652T217 668Q189 668 157 655T96 619L73 661Q103 686 141 701T221 716Q279 716 312 688T345 615Q345 574 325 545T269 503Q302 494 320 470ZM256 -23L211 7L689 735L733 705L256 -23ZM894 137L889 90H827L820 0H762L769 90H574L577 133L806
427H853L831 137H894ZM636 137H773L788 335L636 137Z" />
<glyph unicode="&#xbf;" glyph-name="questiondown" horiz-adv-x="440" d="M205 404L212 490H298L291 404H205ZM256 -189T185 -189Q102 -189 54 -150T5 -47Q5 -9 18 21T52 75T107 129Q157 176 184 212T220 302L222 316H260L259 298Q254 234 227 192T151 102Q109
61 89 31T69 -41Q69 -84 100 -109T187 -134Q259 -134 325 -95L321 -155Q256 -189 185 -189Z" />
<glyph unicode="&#xc0;" glyph-name="Agrave" horiz-adv-x="727" d="M618 0L552 190H169L73 0H7L372 712H428L682 0H618ZM196 244H533L395 638L196 244ZM382 773L267 924H336L428 773H382Z" />
<glyph unicode="&#xc1;" glyph-name="Aacute" horiz-adv-x="727" d="M618 0L552 190H169L73 0H7L372 712H428L682 0H618ZM196 244H533L395 638L196 244ZM428 773H382L493 924H573L428 773Z" />
<glyph unicode="&#xc2;" glyph-name="Acircumflex" horiz-adv-x="727" d="M618 0L552 190H169L73 0H7L372 712H428L682 0H618ZM196 244H533L395 638L196 244ZM329 773H266L394 924H440L544 773H483L416 882L329 773Z" />
<glyph unicode="&#xc3;" glyph-name="Atilde" horiz-adv-x="727" d="M618 0L552 190H169L73 0H7L372 712H428L682 0H618ZM196 244H533L395 638L196 244ZM250 850T275 877T341 905Q361 905 379 897T424 871Q446 857 458 851T483 845Q506 845 519 861T534 902H574Q572
850 547 823T481 796Q461 796 443 804T399 829Q379 841 366 847T340 854Q317 854 304 839T288 799H248Q250 850 275 877Z" />
<glyph unicode="&#xc4;" glyph-name="Adieresis" horiz-adv-x="727" d="M618 0L552 190H169L73 0H7L372 712H428L682 0H618ZM196 244H533L395 638L196 244ZM293 886H369L362 813H287L293 886ZM460 886H536L530 813H454L460 886Z" />
<glyph unicode="&#xc5;" glyph-name="Aring" horiz-adv-x="727" d="M552 190H169L73 0H7L361 691Q335 702 320 725T304 779Q304 820 333 848T403 877Q445 877 474 849T503 779Q503 747 485 722T437 687L682 0H618L552 190ZM382 831T368 816T353 779Q353 757 367
742T403 727Q425 727 439 742T453 779Q453 801 439 816T403 831Q382 831 368 816ZM196 244H533L395 638L196 244Z" />
<glyph unicode="&#xc6;" glyph-name="AE" horiz-adv-x="999" d="M979 658H589L593 389H936L932 334H594L598 54H931L926 0H542L540 190H185L58 0H-13L472 712H982L979 658ZM539 244L533 658H498L221 244H539Z" />
<glyph unicode="&#xc7;" glyph-name="Ccedilla" horiz-adv-x="684" d="M323 665T262 624T169 507T137 324Q137 191 200 119T381 47Q501 47 596 134L618 85Q523 -4 383 -8L376 -44Q388 -41 399 -41Q431 -41 451 -59T472 -109Q472 -147 442 -170T358 -193Q337 -193
313 -189T270 -174L285 -135Q323 -149 359 -149Q389 -149 405 -140T421 -111Q421 -97 412 -90T385 -82Q366 -82 338 -92L320 -77L333 -6Q254 2 196 44T105 157T73 325Q73 445 113 534T230 671T409 720Q488 720 552 697T661 627L630 579Q581 625 530 645T407 665Q323
665 262 624Z" />
<glyph unicode="&#xc8;" glyph-name="Egrave" horiz-adv-x="586" d="M566 659H188L167 389H524L519 334H162L140 53H518L513 0H74L129 712H569L566 659ZM345 773L230 924H299L391 773H345Z" />
<glyph unicode="&#xc9;" glyph-name="Eacute" horiz-adv-x="586" d="M566 659H188L167 389H524L519 334H162L140 53H518L513 0H74L129 712H569L566 659ZM391 773H345L456 924H536L391 773Z" />
<glyph unicode="&#xca;" glyph-name="Ecircumflex" horiz-adv-x="586" d="M566 659H188L167 389H524L519 334H162L140 53H518L513 0H74L129 712H569L566 659ZM292 773H229L357 924H403L507 773H446L379 882L292 773Z" />
<glyph unicode="&#xcb;" glyph-name="Edieresis" horiz-adv-x="586" d="M566 659H188L167 389H524L519 334H162L140 53H518L513 0H74L129 712H569L566 659ZM256 886H332L325 813H250L256 886ZM423 886H499L493 813H417L423 886Z" />
<glyph unicode="&#xcc;" glyph-name="Igrave" horiz-adv-x="246" d="M74 0L129 712H192L136 0H74ZM143 773L28 924H97L189 773H143Z" />
<glyph unicode="&#xcd;" glyph-name="Iacute" horiz-adv-x="246" d="M74 0L129 712H192L136 0H74ZM189 773H143L254 924H334L189 773Z" />
<glyph unicode="&#xce;" glyph-name="Icircumflex" horiz-adv-x="246" d="M74 0L129 712H192L136 0H74ZM90 773H27L155 924H201L305 773H244L177 882L90 773Z" />
<glyph unicode="&#xcf;" glyph-name="Idieresis" horiz-adv-x="246" d="M74 0L129 712H192L136 0H74ZM54 886H130L123 813H48L54 886ZM221 886H297L291 813H215L221 886Z" />
<glyph unicode="&#xd0;" glyph-name="Eth" horiz-adv-x="748" d="M522 712T607 628T692 387Q692 205 599 103T336 0H82L108 335H12L17 387H112L137 712H362Q522 712 607 628ZM479 54T553 140T627 388Q627 522 561 590T360 658H196L174 387H371L366 335H170L148
54H334Q479 54 553 140Z" />
<glyph unicode="&#xd1;" glyph-name="Ntilde" horiz-adv-x="742" d="M628 712H687L631 0H583L180 608L132 0H74L129 712H179L581 106L628 712ZM259 850T284 877T350 905Q370 905 388 897T433 871Q455 857 467 851T492 845Q515 845 528 861T543 902H583Q581 850
556 823T490 796Q470 796 452 804T408 829Q388 841 375 847T349 854Q326 854 313 839T297 799H257Q259 850 284 877Z" />
<glyph unicode="&#xd2;" glyph-name="Ograve" horiz-adv-x="765" d="M287 -8T217 32T110 147T73 325Q73 444 113 533T227 671T399 720Q495 720 565 680T672 565T709 387Q709 267 669 178T555 41T382 -8Q287 -8 217 32ZM463 48T522 88T612 205T644 387Q644 521
581 592T399 664Q318 664 259 623T169 506T137 324Q137 191 200 120T383 48Q463 48 522 88ZM400 773L285 924H354L446 773H400Z" />
<glyph unicode="&#xd3;" glyph-name="Oacute" horiz-adv-x="765" d="M287 -8T217 32T110 147T73 325Q73 444 113 533T227 671T399 720Q495 720 565 680T672 565T709 387Q709 267 669 178T555 41T382 -8Q287 -8 217 32ZM463 48T522 88T612 205T644 387Q644 521
581 592T399 664Q318 664 259 623T169 506T137 324Q137 191 200 120T383 48Q463 48 522 88ZM446 773H400L511 924H591L446 773Z" />
<glyph unicode="&#xd4;" glyph-name="Ocircumflex" horiz-adv-x="765" d="M287 -8T217 32T110 147T73 325Q73 444 113 533T227 671T399 720Q495 720 565 680T672 565T709 387Q709 267 669 178T555 41T382 -8Q287 -8 217 32ZM463 48T522 88T612 205T644 387Q644
521 581 592T399 664Q318 664 259 623T169 506T137 324Q137 191 200 120T383 48Q463 48 522 88ZM347 773H284L412 924H458L562 773H501L434 882L347 773Z" />
<glyph unicode="&#xd5;" glyph-name="Otilde" horiz-adv-x="765" d="M287 -8T217 32T110 147T73 325Q73 444 113 533T227 671T399 720Q495 720 565 680T672 565T709 387Q709 267 669 178T555 41T382 -8Q287 -8 217 32ZM463 48T522 88T612 205T644 387Q644 521
581 592T399 664Q318 664 259 623T169 506T137 324Q137 191 200 120T383 48Q463 48 522 88ZM268 850T293 877T359 905Q379 905 397 897T442 871Q464 857 476 851T501 845Q524 845 537 861T552 902H592Q590 850 565 823T499 796Q479 796 461 804T417 829Q397 841
384 847T358 854Q335 854 322 839T306 799H266Q268 850 293 877Z" />
<glyph unicode="&#xd6;" glyph-name="Odieresis" horiz-adv-x="765" d="M287 -8T217 32T110 147T73 325Q73 444 113 533T227 671T399 720Q495 720 565 680T672 565T709 387Q709 267 669 178T555 41T382 -8Q287 -8 217 32ZM463 48T522 88T612 205T644 387Q644 521
581 592T399 664Q318 664 259 623T169 506T137 324Q137 191 200 120T383 48Q463 48 522 88ZM311 886H387L380 813H305L311 886ZM478 886H554L548 813H472L478 886Z" />
<glyph unicode="&#xd7;" glyph-name="multiply" horiz-adv-x="600" d="M535 487L338 287L523 86L485 51L301 250L105 51L71 86L268 286L83 487L122 523L305 323L502 523L535 487Z" />
<glyph unicode="&#xd8;" glyph-name="Oslash" horiz-adv-x="765" d="M660 600T684 535T709 387Q709 267 669 178T555 41T382 -8Q281 -8 210 36L159 -41L115 -13L169 67Q122 111 98 176T73 325Q73 444 113 533T227 671T399 720Q500 720 573 675L625 753L669 725L615
643Q660 600 684 535ZM137 189T202 118L541 627Q482 664 399 664Q318 664 259 623T169 506T137 324Q137 189 202 118ZM463 48T522 88T612 205T644 387Q644 521 581 593L242 84Q299 48 383 48Q463 48 522 88Z" />
<glyph unicode="&#xd9;" glyph-name="Ugrave" horiz-adv-x="726" d="M220 -8T154 55T88 237Q88 249 90 275L123 712H186L151 278Q150 266 150 244Q150 47 348 47Q456 47 514 101T580 267L614 712H676L641 274Q630 133 556 63T348 -8Q220 -8 154 55ZM382 773L267
924H336L428 773H382Z" />
<glyph unicode="&#xda;" glyph-name="Uacute" horiz-adv-x="726" d="M220 -8T154 55T88 237Q88 249 90 275L123 712H186L151 278Q150 266 150 244Q150 47 348 47Q456 47 514 101T580 267L614 712H676L641 274Q630 133 556 63T348 -8Q220 -8 154 55ZM428 773H382L493
924H573L428 773Z" />
<glyph unicode="&#xdb;" glyph-name="Ucircumflex" horiz-adv-x="726" d="M220 -8T154 55T88 237Q88 249 90 275L123 712H186L151 278Q150 266 150 244Q150 47 348 47Q456 47 514 101T580 267L614 712H676L641 274Q630 133 556 63T348 -8Q220 -8 154 55ZM329 773H266L394
924H440L544 773H483L416 882L329 773Z" />
<glyph unicode="&#xdc;" glyph-name="Udieresis" horiz-adv-x="726" d="M220 -8T154 55T88 237Q88 249 90 275L123 712H186L151 278Q150 266 150 244Q150 47 348 47Q456 47 514 101T580 267L614 712H676L641 274Q630 133 556 63T348 -8Q220 -8 154 55ZM293 886H369L362
813H287L293 886ZM460 886H536L530 813H454L460 886Z" />
<glyph unicode="&#xdd;" glyph-name="Yacute" horiz-adv-x="597" d="M640 712L333 294L310 0H247L271 293L28 712H98L305 345L569 712H640ZM362 773H316L427 924H507L362 773Z" />
<glyph unicode="&#xde;" glyph-name="Thorn" horiz-adv-x="644" d="M494 551T549 506T605 373Q605 279 545 226T369 173H149L135 0H74L129 712H192L179 551H391Q494 551 549 506ZM456 226T499 262T542 372Q542 437 504 467T388 498H175L153 226H366Q456 226 499 262Z" />
<glyph unicode="&#xdf;" glyph-name="germandbls" horiz-adv-x="616" d="M461 341T517 289T574 157Q574 110 550 73T483 14T385 -7Q334 -7 285 11T201 60L228 106Q268 74 306 60T388 45Q446 45 479 75T512 156Q512 220 456 262T271 341L275 389Q369 426 414 473T460
583Q460 689 342 689Q258 689 215 646T165 508L124 0H63L104 503Q124 740 342 740Q424 740 471 699T518 583Q518 515 473 461T341 370Q461 341 517 289Z" />
<glyph unicode="&#xe0;" glyph-name="agrave" horiz-adv-x="591" d="M528 501L488 0H429L436 87Q412 43 366 18T265 -7Q201 -7 153 23T79 108T52 236Q52 319 81 381T163 478T286 513Q348 513 393 486T461 410L468 501H528ZM357 46T403 107T450 274Q450 365 408
413T288 461Q206 461 161 401T115 233Q115 144 157 95T277 46Q357 46 403 107ZM299 567L185 770H258L345 567H299Z" />
<glyph unicode="&#xe1;" glyph-name="aacute" horiz-adv-x="591" d="M528 501L488 0H429L436 87Q412 43 366 18T265 -7Q201 -7 153 23T79 108T52 236Q52 319 81 381T163 478T286 513Q348 513 393 486T461 410L468 501H528ZM357 46T403 107T450 274Q450 365 408
413T288 461Q206 461 161 401T115 233Q115 144 157 95T277 46Q357 46 403 107ZM345 567H299L414 770H495L345 567Z" />
<glyph unicode="&#xe2;" glyph-name="acircumflex" horiz-adv-x="591" d="M528 501L488 0H429L436 87Q412 43 366 18T265 -7Q201 -7 153 23T79 108T52 236Q52 319 81 381T163 478T286 513Q348 513 393 486T461 410L468 501H528ZM357 46T403 107T450 274Q450 365
408 413T288 461Q206 461 161 401T115 233Q115 144 157 95T277 46Q357 46 403 107ZM247 567H182L314 770H362L461 567H400L335 719L247 567Z" />
<glyph unicode="&#xe3;" glyph-name="atilde" horiz-adv-x="591" d="M528 501L488 0H429L436 87Q412 43 366 18T265 -7Q201 -7 153 23T79 108T52 236Q52 319 81 381T163 478T286 513Q348 513 393 486T461 410L468 501H528ZM357 46T403 107T450 274Q450 365 408
413T288 461Q206 461 161 401T115 233Q115 144 157 95T277 46Q357 46 403 107ZM169 670T194 697T259 724Q280 724 299 716T343 691Q362 678 376 672T402 665Q425 665 438 680T454 721H493Q490 669 465 642T401 615Q380 615 362 623T317 648Q280 674 259 674Q236
674 223 659T207 618H167Q169 670 194 697Z" />
<glyph unicode="&#xe4;" glyph-name="adieresis" horiz-adv-x="591" d="M528 501L488 0H429L436 87Q412 43 366 18T265 -7Q201 -7 153 23T79 108T52 236Q52 319 81 381T163 478T286 513Q348 513 393 486T461 410L468 501H528ZM357 46T403 107T450 274Q450 365
408 413T288 461Q206 461 161 401T115 233Q115 144 157 95T277 46Q357 46 403 107ZM212 706H287L281 632H206L212 706ZM379 706H455L449 632H373L379 706Z" />
<glyph unicode="&#xe5;" glyph-name="aring" horiz-adv-x="591" d="M528 501L488 0H429L436 87Q412 43 366 18T265 -7Q201 -7 153 23T79 108T52 236Q52 319 81 381T163 478T286 513Q348 513 393 486T461 410L468 501H528ZM357 46T403 107T450 274Q450 365 408
413T288 461Q206 461 161 401T115 233Q115 144 157 95T277 46Q357 46 403 107ZM288 571T259 599T230 669Q230 709 259 737T330 765Q371 765 400 737T430 669Q430 627 401 599T330 571Q288 571 259 599ZM352 616T366 631T380 669Q380 690 366 705T330 720Q309 720
295 705T280 669Q280 646 294 631T330 616Q352 616 366 631Z" />
<glyph unicode="&#xe6;" glyph-name="ae" horiz-adv-x="886" d="M466 258Q465 250 465 232Q465 145 508 96T635 46Q676 46 718 61T795 106L816 60Q786 30 734 12T634 -7Q555 -7 502 29T427 132Q403 67 351 30T228 -7Q153 -7 106 33T59 137Q59 222 129 263T357
305H409L411 324Q412 333 412 349Q412 406 385 433T299 461Q210 461 123 406L103 453Q140 481 194 497T300 513Q427 513 461 420Q492 465 538 489T645 513Q736 513 788 459T841 302Q841 273 839 258H466ZM577 464T531 423T471 305H787Q789 380 751 422T648 464Q577
464 531 423ZM302 45T349 92T402 215L406 258H361Q265 258 213 244T142 205T122 140Q122 98 153 72T235 45Q302 45 349 92Z" />
<glyph unicode="&#xe7;" glyph-name="ccedilla" horiz-adv-x="490" d="M210 461T162 400T114 232Q114 145 157 96T280 46Q320 46 354 60T427 106L447 60Q416 29 372 12T278 -7L271 -44Q283 -41 294 -41Q326 -41 346 -59T367 -109Q367 -147 337 -170T253 -193Q232
-193 208 -189T165 -174L180 -135Q218 -149 254 -149Q284 -149 300 -140T316 -111Q316 -97 307 -90T280 -82Q261 -82 233 -92L215 -77L229 -3Q146 11 99 74T51 234Q51 318 81 381T167 478T299 513Q352 513 398 496T477 447L450 400Q410 432 374 446T296 461Q210
461 162 400Z" />
<glyph unicode="&#xe8;" glyph-name="egrave" horiz-adv-x="543" d="M115 258Q114 250 114 232Q114 145 157 96T283 46Q329 46 373 61T453 106L473 60Q443 30 390 12T282 -7Q175 -7 113 58T51 234Q51 317 81 380T166 478T296 513Q390 513 444 459T499 304Q499
282 496 258H115ZM227 464T181 423T120 305H443Q445 381 406 422T300 464Q227 464 181 423ZM287 567L173 770H246L333 567H287Z" />
<glyph unicode="&#xe9;" glyph-name="eacute" horiz-adv-x="543" d="M115 258Q114 250 114 232Q114 145 157 96T283 46Q329 46 373 61T453 106L473 60Q443 30 390 12T282 -7Q175 -7 113 58T51 234Q51 317 81 380T166 478T296 513Q390 513 444 459T499 304Q499
282 496 258H115ZM227 464T181 423T120 305H443Q445 381 406 422T300 464Q227 464 181 423ZM333 567H287L402 770H483L333 567Z" />
<glyph unicode="&#xea;" glyph-name="ecircumflex" horiz-adv-x="543" d="M115 258Q114 250 114 232Q114 145 157 96T283 46Q329 46 373 61T453 106L473 60Q443 30 390 12T282 -7Q175 -7 113 58T51 234Q51 317 81 380T166 478T296 513Q390 513 444 459T499 304Q499
282 496 258H115ZM227 464T181 423T120 305H443Q445 381 406 422T300 464Q227 464 181 423ZM235 567H170L302 770H350L449 567H388L323 719L235 567Z" />
<glyph unicode="&#xeb;" glyph-name="edieresis" horiz-adv-x="543" d="M115 258Q114 250 114 232Q114 145 157 96T283 46Q329 46 373 61T453 106L473 60Q443 30 390 12T282 -7Q175 -7 113 58T51 234Q51 317 81 380T166 478T296 513Q390 513 444 459T499 304Q499
282 496 258H115ZM227 464T181 423T120 305H443Q445 381 406 422T300 464Q227 464 181 423ZM200 706H275L269 632H194L200 706ZM367 706H443L437 632H361L367 706Z" />
<glyph unicode="&#xec;" glyph-name="igrave" horiz-adv-x="228" d="M64 0L104 501H165L125 0H64ZM116 567L2 770H75L162 567H116Z" />
<glyph unicode="&#xed;" glyph-name="iacute" horiz-adv-x="228" d="M64 0L104 501H165L125 0H64ZM162 567H116L231 770H312L162 567Z" />
<glyph unicode="&#xee;" glyph-name="icircumflex" horiz-adv-x="228" d="M64 0L104 501H165L125 0H64ZM64 567H-1L131 770H179L278 567H217L152 719L64 567Z" />
<glyph unicode="&#xef;" glyph-name="idieresis" horiz-adv-x="228" d="M64 0L104 501H165L125 0H64ZM29 706H104L98 632H23L29 706ZM196 706H272L266 632H190L196 706Z" />
<glyph unicode="&#xf0;" glyph-name="eth" horiz-adv-x="566" d="M429 614Q521 507 521 333Q521 161 454 77T273 -7Q171 -7 111 53T50 215Q50 291 79 348T162 438T286 470Q350 470 396 444T464 373Q456 506 375 593L210 530L197 574L338 627Q282 672 200 698L220
742Q327 710 395 649L532 701L544 658L429 614ZM357 46T403 101T449 253Q449 329 406 372T286 416Q205 416 159 362T112 213Q112 131 154 89T277 46Q357 46 403 101Z" />
<glyph unicode="&#xf1;" glyph-name="ntilde" horiz-adv-x="578" d="M413 513T457 471T502 344Q502 326 501 317L476 0H416L441 313Q442 321 442 337Q442 400 412 430T321 460Q244 460 199 415T147 290L124 0H63L92 362Q96 403 96 455Q96 486 95 501H152L153 414Q178
462 224 487T329 513Q413 513 457 471ZM161 670T186 697T251 724Q272 724 291 716T335 691Q354 678 368 672T394 665Q417 665 430 680T446 721H485Q482 669 457 642T393 615Q372 615 354 623T309 648Q272 674 251 674Q228 674 215 659T199 618H159Q161 670 186
697Z" />
<glyph unicode="&#xf2;" glyph-name="ograve" horiz-adv-x="562" d="M207 -7T157 23T79 107T51 235Q51 318 80 381T164 478T288 513Q355 513 405 483T483 399T511 271Q511 188 482 125T398 28T274 -7Q207 -7 157 23ZM358 46T403 107T449 274Q449 362 406 411T288
461Q207 461 161 400T114 232Q114 141 156 94T278 46Q358 46 403 107ZM284 567L170 770H243L330 567H284Z" />
<glyph unicode="&#xf3;" glyph-name="oacute" horiz-adv-x="562" d="M207 -7T157 23T79 107T51 235Q51 318 80 381T164 478T288 513Q355 513 405 483T483 399T511 271Q511 188 482 125T398 28T274 -7Q207 -7 157 23ZM358 46T403 107T449 274Q449 362 406 411T288
461Q207 461 161 400T114 232Q114 141 156 94T278 46Q358 46 403 107ZM330 567H284L399 770H480L330 567Z" />
<glyph unicode="&#xf4;" glyph-name="ocircumflex" horiz-adv-x="562" d="M207 -7T157 23T79 107T51 235Q51 318 80 381T164 478T288 513Q355 513 405 483T483 399T511 271Q511 188 482 125T398 28T274 -7Q207 -7 157 23ZM358 46T403 107T449 274Q449 362 406
411T288 461Q207 461 161 400T114 232Q114 141 156 94T278 46Q358 46 403 107ZM232 567H167L299 770H347L446 567H385L320 719L232 567Z" />
<glyph unicode="&#xf5;" glyph-name="otilde" horiz-adv-x="562" d="M207 -7T157 23T79 107T51 235Q51 318 80 381T164 478T288 513Q355 513 405 483T483 399T511 271Q511 188 482 125T398 28T274 -7Q207 -7 157 23ZM358 46T403 107T449 274Q449 362 406 411T288
461Q207 461 161 400T114 232Q114 141 156 94T278 46Q358 46 403 107ZM154 670T179 697T244 724Q265 724 284 716T328 691Q347 678 361 672T387 665Q410 665 423 680T439 721H478Q475 669 450 642T386 615Q365 615 347 623T302 648Q265 674 244 674Q221 674 208
659T192 618H152Q154 670 179 697Z" />
<glyph unicode="&#xf6;" glyph-name="odieresis" horiz-adv-x="562" d="M207 -7T157 23T79 107T51 235Q51 318 80 381T164 478T288 513Q355 513 405 483T483 399T511 271Q511 188 482 125T398 28T274 -7Q207 -7 157 23ZM358 46T403 107T449 274Q449 362 406 411T288
461Q207 461 161 400T114 232Q114 141 156 94T278 46Q358 46 403 107ZM197 706H272L266 632H191L197 706ZM364 706H440L434 632H358L364 706Z" />
<glyph unicode="&#xf7;" glyph-name="divide" horiz-adv-x="600" d="M267 444L274 534H361L354 444H267ZM551 312L547 261H55L59 312H551ZM234 39L241 129H328L321 39H234Z" />
<glyph unicode="&#xf8;" glyph-name="oslash" horiz-adv-x="562" d="M476 423T493 376T511 271Q511 188 482 125T398 28T274 -7Q208 -7 158 22L116 -42L75 -17L120 51Q87 83 69 130T51 235Q51 318 80 381T164 478T288 513Q355 513 405 484L447 547L488 524L443
455Q476 423 493 376ZM113 146T151 99L375 438Q338 461 288 461Q206 461 160 400T113 232Q113 146 151 99ZM358 46T403 107T449 274Q449 358 411 407L188 67Q224 46 278 46Q358 46 403 107Z" />
<glyph unicode="&#xf9;" glyph-name="ugrave" horiz-adv-x="569" d="M506 501L467 0H408L415 88Q389 42 345 18T245 -7Q163 -7 119 36T74 163Q74 180 75 189L100 501H160L136 194Q135 186 135 170Q135 46 253 46Q327 46 372 91T423 217L446 501H506ZM287 567L173
770H246L333 567H287Z" />
<glyph unicode="&#xfa;" glyph-name="uacute" horiz-adv-x="569" d="M506 501L467 0H408L415 88Q389 42 345 18T245 -7Q163 -7 119 36T74 163Q74 180 75 189L100 501H160L136 194Q135 186 135 170Q135 46 253 46Q327 46 372 91T423 217L446 501H506ZM333 567H287L402
770H483L333 567Z" />
<glyph unicode="&#xfb;" glyph-name="ucircumflex" horiz-adv-x="569" d="M506 501L467 0H408L415 88Q389 42 345 18T245 -7Q163 -7 119 36T74 163Q74 180 75 189L100 501H160L136 194Q135 186 135 170Q135 46 253 46Q327 46 372 91T423 217L446 501H506ZM235
567H170L302 770H350L449 567H388L323 719L235 567Z" />
<glyph unicode="&#xfc;" glyph-name="udieresis" horiz-adv-x="569" d="M506 501L467 0H408L415 88Q389 42 345 18T245 -7Q163 -7 119 36T74 163Q74 180 75 189L100 501H160L136 194Q135 186 135 170Q135 46 253 46Q327 46 372 91T423 217L446 501H506ZM200 706H275L269
632H194L200 706ZM367 706H443L437 632H361L367 706Z" />
<glyph unicode="&#xfd;" glyph-name="yacute" horiz-adv-x="525" d="M527 501L246 -52Q204 -135 150 -173T16 -227L7 -178Q79 -161 117 -134T186 -50L212 -2L37 501H99L247 60L464 501H527ZM311 567H265L380 770H461L311 567Z" />
<glyph unicode="&#xfe;" glyph-name="thorn" horiz-adv-x="591" d="M389 513T437 484T513 399T540 271Q540 188 511 125T428 28T306 -7Q245 -7 199 20T132 96L107 -216H47L122 728H182L157 422Q182 465 227 489T326 513Q389 513 437 484ZM386 46T432 106T478 273Q478
362 435 411T316 461Q235 461 189 400T142 232Q142 141 184 94T306 46Q386 46 432 106Z" />
<glyph unicode="&#xff;" glyph-name="ydieresis" horiz-adv-x="525" d="M527 501L246 -52Q204 -135 150 -173T16 -227L7 -178Q79 -161 117 -134T186 -50L212 -2L37 501H99L247 60L464 501H527ZM178 706H253L247 632H172L178 706ZM345 706H421L415 632H339L345 706Z" />
<glyph unicode="&#x2013;" glyph-name="endash" horiz-adv-x="505" d="M0 246L3 290H508L505 246H0Z" />
<glyph unicode="&#x2014;" glyph-name="emdash" horiz-adv-x="1010" d="M0 246L3 290H1013L1010 246H0Z" />
<glyph unicode="&#x2018;" glyph-name="quoteleft" horiz-adv-x="222" d="M166 671T156 652T142 610H183L176 524H90L95 588Q98 626 112 657T158 717L188 693Q166 671 156 652Z" />
<glyph unicode="&#x2019;" glyph-name="quoteright" horiz-adv-x="222" d="M191 712L186 648Q183 610 169 579T123 518L93 543Q131 581 138 625H98L105 712H191Z" />
<glyph unicode="&#x201a;" glyph-name="quotesinglbase" horiz-adv-x="222" d="M141 87L136 20Q133 -18 119 -48T74 -107L43 -82Q81 -44 90 0H50L56 87H141Z" />
<glyph unicode="&#x201c;" glyph-name="quotedblleft" horiz-adv-x="378" d="M166 671T156 652T142 610H183L176 524H90L95 588Q98 626 112 657T158 717L188 693Q166 671 156 652ZM322 671T312 652T298 610H339L332 524H246L251 588Q254 626 268 657T314 717L344
693Q322 671 312 652Z" />
<glyph unicode="&#x201d;" glyph-name="quotedblright" horiz-adv-x="378" d="M191 712L186 648Q183 610 169 579T123 518L93 543Q131 581 138 625H98L105 712H191ZM347 712L342 648Q339 610 325 579T279 518L249 543Q287 581 294 625H254L261 712H347Z" />
<glyph unicode="&#x201e;" glyph-name="quotedblbase" horiz-adv-x="378" d="M141 87L136 20Q133 -18 119 -48T74 -107L43 -82Q81 -44 90 0H50L56 87H141ZM297 87L292 20Q289 -18 275 -48T230 -107L199 -82Q237 -44 246 0H206L212 87H297Z" />
<glyph unicode="&#x2022;" glyph-name="bullet" horiz-adv-x="529" d="M217 89T175 112T108 177T83 268Q83 314 107 355T173 422T266 447Q314 447 356 424T423 359T448 268Q448 219 424 178T357 113T266 89Q217 89 175 112Z" />
<glyph unicode="&#x2039;" glyph-name="guilsinglleft" horiz-adv-x="249" d="M146 89L30 267L177 447H237L95 268L206 89H146Z" />
<glyph unicode="&#x203a;" glyph-name="guilsinglright" horiz-adv-x="249" d="M79 89H19L160 268L45 447H106L224 267L79 89Z" />
</font>
</defs>
</svg>
