<?xml version="1.0" standalone="no"?>
<!DOCTYPE svg PUBLIC "-//W3C//DTD SVG 1.1//EN" "http://www.w3.org/Graphics/SVG/1.1/DTD/svg11.dtd">
<svg xmlns="http://www.w3.org/2000/svg">
<defs >
<font id="Muli" horiz-adv-x="566" ><font-face
    font-family="Muli"
    units-per-em="1000"
    panose-1="0 0 5 0 0 0 0 0 0 0"
    ascent="1005"
    descent="-250"
    alphabetic="0" />
<glyph unicode=" " glyph-name="space" horiz-adv-x="261" />
<glyph unicode="!" glyph-name="exclam" horiz-adv-x="231" d="M90 187L65 712H166L140 187H90ZM64 103H167V0H64V103Z" />
<glyph unicode="&quot;" glyph-name="quotedbl" horiz-adv-x="424" d="M85 432L63 712H159L139 432H85ZM287 432L265 712H361L341 432H287Z" />
<glyph unicode="#" glyph-name="numbersign" horiz-adv-x="606" d="M571 477H471L425 243H551V184H414L378 0H314L350 184H189L153 0H89L125 184H35V243H136L182 477H55V536H194L228 712H292L258 536H419L453 712H517L483 536H571V477ZM361 243L407 477H246L200 243H361Z" />
<glyph unicode="$" glyph-name="dollar" horiz-adv-x="600" d="M553 113T496 59T345 -6V-116H275V-7Q206 -3 148 20T45 84L76 147Q124 106 172 86T278 63V317Q209 335 164 355T89 413T58 515Q58 570 85 614T162 685T275 719V828H345V718Q403 713 455 690T545 630L514
567Q441 637 342 648V379Q408 363 451 344T524 289T553 193Q553 113 496 59ZM142 467T177 440T278 395V648Q214 642 178 608T142 518Q142 467 177 440ZM403 73T436 105T470 191Q470 235 437 259T342 301V65Q403 73 436 105Z" />
<glyph unicode="%" glyph-name="percent" horiz-adv-x="939" d="M146 285T101 340T56 503Q56 610 101 665T227 720Q308 720 353 665T399 503Q399 395 354 340T227 285Q146 285 101 340ZM303 0H224L636 712H715L303 0ZM277 343T300 381T324 503Q324 585 301 623T227
662Q178 662 154 624T130 503Q130 420 154 382T227 343Q277 343 300 381ZM631 -7T586 48T541 211Q541 319 586 373T712 428Q793 428 838 374T884 211Q884 103 839 48T712 -7Q631 -7 586 48ZM763 51T786 89T810 211Q810 293 786 331T712 370Q662 370 639 332T615
211Q615 128 638 90T712 51Q763 51 786 89Z" />
<glyph unicode="&amp;" glyph-name="ampersand" horiz-adv-x="670" d="M592 87T680 47L636 -9Q553 29 496 86Q453 41 399 17T282 -7Q214 -7 162 16T82 82T53 179Q53 243 92 294T218 398Q171 452 153 488T134 564Q134 634 182 676T309 719Q383 719 426 681T469
576Q469 523 437 481T324 387L492 198Q539 289 542 418H614Q612 337 593 268T540 144Q592 87 680 47ZM266 657T239 632T212 564Q212 535 226 509T281 436Q347 477 372 507T397 572Q397 610 373 633T310 657Q266 657 239 632ZM382 59T451 136L261 349Q191 306 162
268T133 181Q133 125 174 92T284 59Q382 59 451 136Z" />
<glyph unicode="&apos;" glyph-name="quotesingle" horiz-adv-x="222" d="M85 432L63 712H159L139 432H85Z" />
<glyph unicode="(" glyph-name="parenleft" horiz-adv-x="317" d="M158 -68T131 40T104 266Q104 382 131 491T218 712H286Q232 587 210 480T188 266Q188 160 210 53T285 -182H218Q158 -68 131 40Z" />
<glyph unicode=")" glyph-name="parenright" horiz-adv-x="317" d="M32 -182Q85 -55 107 52T129 266Q129 373 107 480T32 712H100Q159 600 186 491T213 266Q213 149 186 41T99 -182H32Z" />
<glyph unicode="*" glyph-name="asterisk" horiz-adv-x="455" d="M138 362L88 398L185 522L33 567L53 626L200 573L195 729H257L252 572L401 626L420 567L269 522L366 398L315 362L227 493L138 362Z" />
<glyph unicode="+" glyph-name="plus" horiz-adv-x="600" d="M546 319V256H331V41H269V256H54V319H269V534H331V319H546Z" />
<glyph unicode="," glyph-name="comma" horiz-adv-x="231" d="M167 103V30Q167 -12 153 -47T106 -115L68 -86Q107 -41 112 0H64V103H167Z" />
<glyph unicode="-" glyph-name="hyphen" horiz-adv-x="429" d="M73 235V302H356V235H73Z" />
<glyph unicode="." glyph-name="period" horiz-adv-x="231" d="M64 103H167V0H64V103Z" />
<glyph unicode="/" glyph-name="slash" horiz-adv-x="285" d="M51 -55H-23L234 749H309L51 -55Z" />
<glyph unicode="0" glyph-name="zero" horiz-adv-x="600" d="M178 -8T115 84T51 356Q51 535 114 627T300 720Q422 720 485 628T549 357Q549 178 486 85T300 -8Q178 -8 115 84ZM385 61T425 133T466 357Q466 508 426 579T300 650Q215 650 175 579T134 357Q134 206
174 134T300 61Q385 61 425 133Z" />
<glyph unicode="1" glyph-name="one" horiz-adv-x="600" d="M368 69H525V0H128V69H285V610L139 517V596L321 712H368V69Z" />
<glyph unicode="2" glyph-name="two" horiz-adv-x="600" d="M541 69V0H83V62L332 338Q382 394 405 439T428 529Q428 588 394 619T297 651Q195 651 95 569L64 632Q106 672 170 696T299 720Q397 720 454 670T511 533Q511 472 484 416T392 289L189 69H541Z" />
<glyph unicode="3" glyph-name="three" horiz-adv-x="600" d="M461 348T494 304T527 193Q527 100 464 47T293 -7Q224 -7 161 16T53 81L85 144Q184 62 291 62Q367 62 406 96T446 196Q446 327 282 327H200V396H266Q345 396 387 431T429 531Q429 589 395 620T297
651Q195 651 95 569L64 632Q107 673 169 696T300 720Q396 720 453 671T511 539Q511 478 481 432T398 366Q461 348 494 304Z" />
<glyph unicode="4" glyph-name="four" horiz-adv-x="600" d="M567 223V155H459V0H377V155H49V217L392 712H459V223H567ZM134 223H377V573L134 223Z" />
<glyph unicode="5" glyph-name="five" horiz-adv-x="600" d="M397 447T447 419T525 339T552 221Q552 154 523 102T439 22T311 -7Q246 -7 183 16T77 81L108 144Q207 62 311 62Q386 62 428 104T471 220Q471 291 429 334T317 378Q215 378 154 295H97V712H524V644H179V390Q238
447 330 447Q397 447 447 419Z" />
<glyph unicode="6" glyph-name="six" horiz-adv-x="600" d="M395 447T445 419T524 339T552 221Q552 155 523 103T441 22T323 -8Q194 -8 124 82T54 338Q54 458 86 544T180 675T328 720Q390 720 448 697T551 632L520 569Q470 611 424 631T330 651Q238 651 187 569T136
339V324Q159 381 211 414T330 447Q395 447 445 419ZM387 61T429 104T471 220Q471 291 429 334T318 378Q248 378 204 334T160 220Q160 149 204 105T319 61Q387 61 429 104Z" />
<glyph unicode="7" glyph-name="seven" horiz-adv-x="600" d="M65 712H535V651L201 0H113L445 643H65V712Z" />
<glyph unicode="8" glyph-name="eight" horiz-adv-x="600" d="M478 347T516 301T555 189Q555 98 486 46T300 -7Q183 -7 114 45T45 189Q45 254 84 301T193 366Q129 385 95 428T61 531Q61 588 91 630T175 696T300 720Q370 720 424 697T509 631T539 531Q539 472 505
429T408 366Q478 347 516 301ZM143 468T185 433T300 389Q372 397 414 432T457 525Q457 584 416 618T300 652Q226 652 185 618T143 525Q143 468 185 433ZM384 61T429 95T474 194Q474 253 427 288T300 332Q221 324 174 289T126 194Q126 129 171 95T300 61Q384 61
429 95Z" />
<glyph unicode="9" glyph-name="nine" horiz-adv-x="600" d="M407 720T477 630T547 374Q547 193 475 93T272 -8Q211 -8 153 15T49 80L81 143Q132 100 178 81T271 61Q363 61 413 143T464 373V386Q441 330 389 298T270 265Q205 265 155 293T77 373T49 491Q49 557
78 609T160 690T278 720Q407 720 477 630ZM353 334T397 378T441 492Q441 563 397 607T282 651Q214 651 172 608T130 492Q130 421 172 378T283 334Q353 334 397 378Z" />
<glyph unicode=":" glyph-name="colon" horiz-adv-x="231" d="M64 492H167V388H64V492ZM64 103H167V0H64V103Z" />
<glyph unicode=";" glyph-name="semicolon" horiz-adv-x="231" d="M64 492H167V388H64V492ZM64 103H167V30Q167 -12 153 -47T106 -115L68 -86Q107 -41 112 0H64V103Z" />
<glyph unicode="&lt;" glyph-name="less" horiz-adv-x="600" d="M546 541V473L131 287L546 102V32L54 255V319L546 541Z" />
<glyph unicode="=" glyph-name="equal" horiz-adv-x="600" d="M546 420V357H54V420H546ZM546 218V155H54V218H546Z" />
<glyph unicode="&gt;" glyph-name="greater" horiz-adv-x="600" d="M54 541L546 319V255L54 32V102L469 287L54 473V541Z" />
<glyph unicode="?" glyph-name="question" horiz-adv-x="447" d="M120 701T157 710T230 720Q316 720 369 677T423 562Q423 525 411 494T380 439T331 378Q288 330 265 292T236 204L233 186H185V211Q185 274 207 317T272 415Q306 458 322 488T339 557Q339 600 309
625T226 650Q156 650 88 608V683Q120 701 157 710ZM158 0V103H261V0H158Z" />
<glyph unicode="@" glyph-name="at" horiz-adv-x="935" d="M348 -153T251 -100T102 51T50 276Q50 409 106 509T259 663T478 718Q607 718 699 665T839 527T886 347Q886 248 857 185T781 94T683 65Q629 65 598 88T564 155H562Q537 113 499 89T409 65Q343 65 302
111T261 241Q261 310 287 370T362 467T474 504Q522 504 557 481T603 422H604L616 492H682L634 218Q630 190 630 182Q630 148 646 134T695 119Q724 119 753 141T802 215T822 347Q822 427 784 498T668 613T478 657Q375 657 293 611T163 478T115 276Q115 164 158 81T284
-47T478 -93Q563 -93 625 -69T721 0H809Q766 -71 680 -112T478 -153Q348 -153 251 -100ZM474 119T511 149T567 228T586 331Q586 388 558 418T482 448Q434 448 399 419T344 342T325 244Q325 185 353 152T423 119Q474 119 511 149Z" />
<glyph unicode="A" glyph-name="A" horiz-adv-x="734" d="M632 0L554 183H182L103 0H18L331 712H403L716 0H632ZM211 251H525L368 617L211 251Z" />
<glyph unicode="B" glyph-name="B" horiz-adv-x="681" d="M553 349T587 305T621 194Q621 101 559 51T384 0H88V712H374Q483 712 543 664T604 526Q604 469 575 428T492 366Q553 349 587 305ZM169 396H361Q441 396 482 428T523 522Q523 644 361 644H169V396ZM461
68T500 99T540 196Q540 327 377 327H169V68H377Q461 68 500 99Z" />
<glyph unicode="C" glyph-name="C" horiz-adv-x="684" d="M291 -8T217 36T102 162T62 357Q62 469 102 550T216 676T392 720Q466 720 527 698T634 630L603 567Q552 611 503 630T393 649Q276 649 212 573T147 357Q147 216 211 140T393 63Q453 63 502 82T603 145L634
82Q589 37 528 15T392 -8Q291 -8 217 36Z" />
<glyph unicode="D" glyph-name="D" horiz-adv-x="746" d="M88 712H327Q498 712 591 620T685 357Q685 186 592 93T327 0H88V712ZM322 70Q460 70 529 142T599 357Q599 642 322 642H170V70H322Z" />
<glyph unicode="E" glyph-name="E" horiz-adv-x="588" d="M88 0V712H538V644H169V396H518V327H169V68H538V0H88Z" />
<glyph unicode="F" glyph-name="F" horiz-adv-x="563" d="M88 0V712H528V643H169V396H508V327H169V0H88Z" />
<glyph unicode="G" glyph-name="G" horiz-adv-x="731" d="M651 371V41Q609 19 541 6T403 -8Q297 -8 220 35T103 161T62 357Q62 470 102 551T218 676T397 720Q472 720 534 698T642 630L610 567Q558 611 509 630T397 650Q276 650 212 575T147 357Q147 212 213 137T405
61Q494 61 576 89V306H399V371H651Z" />
<glyph unicode="H" glyph-name="H" horiz-adv-x="766" d="M596 712H678V0H596V327H169V0H88V712H169V396H596V712Z" />
<glyph unicode="I" glyph-name="I" horiz-adv-x="258" d="M88 0V712H170V0H88Z" />
<glyph unicode="J" glyph-name="J" horiz-adv-x="329" d="M-5 -107Q40 -115 67 -115Q118 -115 138 -87T159 11V712H241V10Q241 -94 204 -140T80 -186Q46 -186 -5 -178V-107Z" />
<glyph unicode="K" glyph-name="K" horiz-adv-x="634" d="M644 0H537L170 339V0H88V712H170V385L520 712H625L253 365L644 0Z" />
<glyph unicode="L" glyph-name="L" horiz-adv-x="545" d="M88 0V712H170V70H527V0H88Z" />
<glyph unicode="M" glyph-name="M" horiz-adv-x="849" d="M693 712H761V0H685V529L454 0H396L163 525L164 0H88V712H156L426 98L693 712Z" />
<glyph unicode="N" glyph-name="N" horiz-adv-x="746" d="M581 712H659V0H595L165 573V0H88V712H151L581 139V712Z" />
<glyph unicode="O" glyph-name="O" horiz-adv-x="772" d="M287 -8T214 36T102 162T62 356Q62 468 101 550T213 676T386 720Q486 720 559 676T671 550T710 357Q710 245 671 163T558 37T386 -8Q287 -8 214 36ZM499 62T562 139T625 357Q625 498 563 574T386 650Q272
650 209 574T146 357Q146 216 209 139T386 62Q499 62 562 139Z" />
<glyph unicode="P" glyph-name="P" horiz-adv-x="651" d="M88 712H372Q482 712 543 659T605 513Q605 420 543 367T372 313H170V0H88V712ZM365 381Q444 381 484 415T524 513Q524 577 484 610T365 644H170V381H365Z" />
<glyph unicode="Q" glyph-name="Q" horiz-adv-x="772" d="M550 -67T635 -139L578 -191Q536 -159 494 -110T421 -6Q399 -8 386 -8Q287 -8 214 36T102 162T62 356Q62 468 101 550T213 676T386 720Q486 720 559 676T671 550T710 357Q710 226 657 137T506 12Q550 -67
635 -139ZM146 216T209 139T386 62Q499 62 562 139T625 357Q625 498 563 574T386 650Q272 650 209 574T146 357Q146 216 209 139Z" />
<glyph unicode="R" glyph-name="R" horiz-adv-x="693" d="M647 0H560L472 237Q456 281 428 296T347 311H169V0H88V712H371Q486 712 547 661T609 514Q609 444 573 397T467 329Q498 324 520 303T557 241L647 0ZM364 379Q528 379 528 513Q528 579 488 611T364 644H169V379H364Z"
/>
<glyph unicode="S" glyph-name="S" horiz-adv-x="623" d="M147 -8T48 82L79 145Q132 100 187 81T315 62Q401 62 447 95T494 190Q494 226 472 248T413 284T315 311Q233 329 180 350T94 410T61 514Q61 575 93 621T183 694T320 720Q394 720 458 697T566 630L534 567Q484
610 433 630T320 650Q237 650 190 615T143 517Q143 463 184 436T310 389Q402 367 454 349T542 293T577 193Q577 133 545 88T454 17T314 -8Q147 -8 48 82Z" />
<glyph unicode="T" glyph-name="T" horiz-adv-x="603" d="M260 0V642H12V712H591V642H343V0H260Z" />
<glyph unicode="U" glyph-name="U" horiz-adv-x="731" d="M226 -8T155 64T83 279V712H164V272Q164 168 215 115T366 62Q465 62 515 115T566 272V712H648V279Q648 138 576 65T366 -8Q226 -8 155 64Z" />
<glyph unicode="V" glyph-name="V" horiz-adv-x="697" d="M611 712H696L385 0H313L2 712H89L350 104L611 712Z" />
<glyph unicode="W" glyph-name="W" horiz-adv-x="1112" d="M997 712H1078L829 0H759L556 583L352 0H283L33 712H117L319 117L526 712L589 711L793 115L997 712Z" />
<glyph unicode="X" glyph-name="X" horiz-adv-x="652" d="M373 364L644 0H547L326 302L106 0H8L279 365L21 712H119L327 426L535 712H632L373 364Z" />
<glyph unicode="Y" glyph-name="Y" horiz-adv-x="607" d="M624 712L344 288V0H262V289L-18 712H78L304 362L530 712H624Z" />
<glyph unicode="Z" glyph-name="Z" horiz-adv-x="596" d="M140 69H558V0H45V61L453 643H45V712H548V652L140 69Z" />
<glyph unicode="[" glyph-name="bracketleft" horiz-adv-x="317" d="M110 -182V712H309V648H191V-117H309V-182H110Z" />
<glyph unicode="\" glyph-name="backslash" horiz-adv-x="285" d="M233 -55L-23 749H51L308 -55H233Z" />
<glyph unicode="]" glyph-name="bracketright" horiz-adv-x="317" d="M207 -182H8V-117H126V648H8V712H207V-182Z" />
<glyph unicode="^" glyph-name="asciicircum" horiz-adv-x="600" d="M555 142H486L300 557L114 142H46L268 635H332L555 142Z" />
<glyph unicode="_" glyph-name="underscore" horiz-adv-x="505" d="M8 -53V0H497V-53H8Z" />
<glyph unicode="`" glyph-name="grave" horiz-adv-x="300" d="M123 557L-14 761H80L180 557H123Z" />
<glyph unicode="a" glyph-name="a" horiz-adv-x="600" d="M521 503V0H441V91Q419 44 375 19T271 -7Q204 -7 154 25T76 115T48 252Q48 330 76 389T154 482T271 515Q330 515 374 489T441 416V503H521ZM361 60T401 110T441 254Q441 347 401 397T287 447Q213 447 172
396T130 252Q130 160 171 110T287 60Q361 60 401 110Z" />
<glyph unicode="b" glyph-name="b" horiz-adv-x="600" d="M395 515T446 483T525 393T553 256Q553 178 525 119T446 26T329 -7Q270 -7 226 19T159 93V0H78V736H159V414Q181 463 225 489T329 515Q395 515 446 483ZM387 60T428 111T469 256Q469 347 429 397T314 447Q239
447 199 397T159 254Q159 161 199 111T314 60Q387 60 428 111Z" />
<glyph unicode="c" glyph-name="c" horiz-adv-x="495" d="M216 -7T162 25T78 115T48 252Q48 330 78 389T163 482T293 515Q344 515 391 498T470 449L443 389Q405 419 370 433T297 447Q220 447 176 396T132 252Q132 161 175 111T297 60Q334 60 369 74T443 118L470
58Q438 28 390 11T289 -7Q216 -7 162 25Z" />
<glyph unicode="d" glyph-name="d" horiz-adv-x="600" d="M521 736V0H441V91Q419 44 375 19T271 -7Q205 -7 155 26T76 118T48 256Q48 334 75 392T154 483T271 515Q330 515 374 490T440 418V736H521ZM361 60T401 110T441 254Q441 346 401 396T287 447Q213 447 172
397T130 256Q130 163 171 112T287 60Q361 60 401 110Z" />
<glyph unicode="e" glyph-name="e" horiz-adv-x="544" d="M499 254H130Q131 158 174 109T301 60Q389 60 463 119L490 60Q457 29 406 11T300 -7Q182 -7 115 62T48 253Q48 330 78 389T162 482T285 515Q385 515 442 450T499 269V254ZM223 452T184 414T133 307H426Q420
378 385 415T286 452Q223 452 184 414Z" />
<glyph unicode="f" glyph-name="f" horiz-adv-x="337" d="M231 670T209 648T186 570V503H309V439H186V0H105V439H7V503H105V580Q105 659 144 699T255 740Q290 740 323 731V662Q295 670 271 670Q231 670 209 648Z" />
<glyph unicode="g" glyph-name="g" horiz-adv-x="604" d="M526 503V4Q526 -108 469 -165T299 -223Q184 -223 101 -171L115 -105Q163 -132 205 -144T299 -156Q372 -156 409 -118T446 -3V116Q423 68 379 42T273 15Q207 15 156 46T76 134T48 265Q48 339 76 396T155
484T273 515Q333 515 377 489T445 416V503H526ZM362 83T403 131T445 265Q445 350 404 398T289 447Q215 447 173 399T130 265Q130 180 172 132T289 83Q362 83 403 131Z" />
<glyph unicode="h" glyph-name="h" horiz-adv-x="585" d="M510 515T510 316V0H429V312Q429 382 401 414T313 447Q243 447 201 404T159 288V0H78V736H159V421Q183 467 227 491T329 515Q510 515 510 316Z" />
<glyph unicode="i" glyph-name="i" horiz-adv-x="238" d="M78 0V503H159V0H78ZM70 716H169V624H70V716Z" />
<glyph unicode="j" glyph-name="j" horiz-adv-x="238" d="M-28 -150T-6 -150Q78 -150 78 -50V503H159V-60Q159 -139 120 -179T11 -220Q-22 -220 -55 -211V-142Q-28 -150 -6 -150ZM69 716H168V624H69V716Z" />
<glyph unicode="k" glyph-name="k" horiz-adv-x="515" d="M523 0H417L159 242V0H78V736H159V272L396 502H499L247 261L523 0Z" />
<glyph unicode="l" glyph-name="l" horiz-adv-x="238" d="M78 0V736H159V0H78Z" />
<glyph unicode="m" glyph-name="m" horiz-adv-x="879" d="M803 515T803 316V0H722V312Q722 383 698 415T618 447Q554 447 518 404T482 287V0H401V312Q401 382 376 414T296 447Q232 447 196 404T159 287V0H78V362Q78 440 70 503H147L155 415Q176 463 217 489T314
515Q374 515 412 491T468 417Q491 462 535 488T636 515Q803 515 803 316Z" />
<glyph unicode="n" glyph-name="n" horiz-adv-x="585" d="M510 515T510 316V0H429V312Q429 382 401 414T313 447Q243 447 201 404T159 288V0H78V362Q78 440 70 503H147L155 413Q178 462 224 488T329 515Q510 515 510 316Z" />
<glyph unicode="o" glyph-name="o" horiz-adv-x="572" d="M215 -7T161 25T78 116T48 254Q48 333 77 392T161 483T286 515Q357 515 411 483T494 392T524 254Q524 175 495 116T411 25T286 -7Q215 -7 161 25ZM361 60T401 109T441 254Q441 346 400 396T286 447Q212
447 171 397T130 254Q130 159 170 110T286 60Q361 60 401 109Z" />
<glyph unicode="p" glyph-name="p" horiz-adv-x="600" d="M395 515T446 482T525 390T553 252Q553 174 525 116T447 25T329 -7Q270 -7 226 19T159 93V-216H78V362Q78 440 70 503H147L155 406Q176 458 221 486T329 515Q395 515 446 482ZM388 60T428 110T469 252Q469
344 428 395T314 447Q239 447 199 397T159 254Q159 161 199 111T314 60Q388 60 428 110Z" />
<glyph unicode="q" glyph-name="q" horiz-adv-x="600" d="M529 503Q521 440 521 362V-216H440V89Q418 43 374 18T271 -7Q204 -7 154 25T76 115T48 252Q48 330 76 389T154 482T271 515Q332 515 377 488T444 409L454 503H529ZM361 60T401 110T441 254Q441 347 401
397T287 447Q213 447 172 396T130 252Q130 160 171 110T287 60Q361 60 401 110Z" />
<glyph unicode="r" glyph-name="r" horiz-adv-x="362" d="M337 515T358 509L356 435Q333 443 303 443Q230 443 195 398T159 287V0H78V362Q78 440 70 503H147L155 410Q174 461 216 488T312 515Q337 515 358 509Z" />
<glyph unicode="s" glyph-name="s" horiz-adv-x="496" d="M121 -7T47 58L74 118Q115 86 157 72T251 58Q308 58 337 77T367 134Q367 164 347 182T281 210L196 230Q133 244 99 280T64 366Q64 432 117 473T257 515Q310 515 357 498T436 449L409 390Q338 449 257 449Q203
449 174 429T144 371Q144 340 162 322T222 294L307 273Q377 257 411 224T445 136Q445 71 392 32T248 -7Q121 -7 47 58Z" />
<glyph unicode="t" glyph-name="t" horiz-adv-x="350" d="M186 439V164Q186 108 209 86T274 63Q302 63 328 72V3Q297 -7 258 -7Q186 -7 146 33T105 153V439H7V503H105V632L186 661V503H330V439H186Z" />
<glyph unicode="u" glyph-name="u" horiz-adv-x="577" d="M499 503V0H420V87Q396 41 353 17T256 -7Q167 -7 121 43T75 191V503H156V193Q156 125 184 93T269 61Q336 61 377 104T418 219V503H499Z" />
<glyph unicode="v" glyph-name="v" horiz-adv-x="531" d="M439 502H520L303 0H226L12 502H97L267 88L439 502Z" />
<glyph unicode="w" glyph-name="w" horiz-adv-x="869" d="M762 503H842L656 0H578L434 393L291 0H213L27 503H112L254 97L401 503H472L617 96L762 503Z" />
<glyph unicode="x" glyph-name="x" horiz-adv-x="535" d="M316 259L523 0H426L267 198L110 0H11L220 259L23 503H121L267 318L413 503H512L316 259Z" />
<glyph unicode="y" glyph-name="y" horiz-adv-x="531" d="M520 503L285 -46Q248 -132 192 -172T54 -227L37 -164Q108 -148 144 -122T205 -40L225 5L12 503H97L267 88L439 503H520Z" />
<glyph unicode="z" glyph-name="z" horiz-adv-x="518" d="M150 64H475V0H50V56L367 439H61V503H464V444L150 64Z" />
<glyph unicode="{" glyph-name="braceleft" horiz-adv-x="354" d="M228 326T207 300T154 266Q185 258 206 231T228 160V-37Q228 -76 246 -96T295 -117H346V-182H287Q219 -182 183 -147T147 -46V146Q147 190 132 211T77 240L49 247V284L77 291Q116 299 131 320T147
385V576Q147 641 185 676T287 712H346V648H295Q264 648 246 627T228 567V371Q228 326 207 300Z" />
<glyph unicode="|" glyph-name="bar" horiz-adv-x="264" d="M93 -182V712H171V-182H93Z" />
<glyph unicode="}" glyph-name="braceright" horiz-adv-x="355" d="M305 284V247L278 240Q238 232 223 212T207 146V-46Q207 -112 171 -147T67 -182H8V-117H60Q90 -117 108 -97T126 -37V160Q126 204 148 231T200 266Q170 273 148 299T126 371V567Q126 606 108
627T60 648H8V712H67Q131 712 169 677T207 576V385Q207 340 222 320T278 291L305 284Z" />
<glyph unicode="~" glyph-name="asciitilde" horiz-adv-x="600" d="M546 316Q527 269 494 243T416 217Q383 217 353 229T281 263Q248 281 228 289T189 298Q157 298 137 281T104 231L54 259Q72 306 105 331T184 357Q217 357 247 345T319 311Q350 294 371 286T411
277Q443 277 463 294T496 343L546 316Z" />
<glyph unicode="&#xa0;" glyph-name="uni00A0" horiz-adv-x="261" />
<glyph unicode="&#xa1;" glyph-name="exclamdown" horiz-adv-x="231" d="M64 388V492H167V388H64ZM90 304H140L166 -182H65L90 304Z" />
<glyph unicode="&#xa2;" glyph-name="cent" horiz-adv-x="600" d="M514 58Q488 33 450 17T368 -5V-119H299V-5Q205 6 149 75T92 252Q92 322 118 378T190 469T299 512V626H368V513Q412 508 450 492T514 449L487 389Q426 438 368 445V62Q426 69 487 118L514 58ZM176
175T208 127T299 65V442Q241 428 209 379T176 252Q176 175 208 127Z" />
<glyph unicode="&#xa3;" glyph-name="sterling" horiz-adv-x="600" d="M227 162T212 126T159 69H563V0H45V57Q99 83 122 116T145 202V327H45V386H145V526Q145 616 198 668T342 720Q406 720 464 697T568 630L535 567Q492 608 444 629T346 651Q288 651 258 618T227
520V386H409V327H227V223Q227 162 212 126Z" />
<glyph unicode="&#xa4;" glyph-name="currency" horiz-adv-x="600" d="M543 204T530 165T491 93L544 37L502 -5L449 49Q417 24 379 11T300 -3Q215 -3 150 51L95 -5L53 37L108 94Q57 161 57 247Q57 333 108 400L53 457L96 501L150 444Q215 498 300 498Q383 498
448 446L501 501L545 457L492 402Q543 333 543 247Q543 204 530 165ZM346 64T385 88T448 155T471 247Q471 297 448 339T386 405T299 430Q252 430 213 406T151 339T128 247Q128 197 151 155T213 89T299 64Q346 64 385 88Z" />
<glyph unicode="&#xa5;" glyph-name="yen" horiz-adv-x="600" d="M608 712L376 389H530V329H341V236H530V177H341V0H259V177H70V236H259V329H70V389H224L-8 712H85L300 408L515 712H608Z" />
<glyph unicode="&#xa6;" glyph-name="brokenbar" horiz-adv-x="264" d="M93 375V712H171V375H93ZM93 -182V156H171V-182H93Z" />
<glyph unicode="&#xa7;" glyph-name="section" horiz-adv-x="542" d="M501 160T486 127T442 68Q460 35 460 -12Q460 -93 408 -141T265 -189Q142 -189 64 -124L91 -64Q134 -95 174 -108T261 -122Q317 -122 348 -95T380 -16Q380 25 359 52T289 104L192 152Q111 191
76 233T41 335Q41 372 56 406T99 464Q82 497 82 542Q82 623 136 670T281 719Q331 719 377 702T455 655L428 596Q353 653 283 653Q225 653 194 626T162 546Q162 506 183 479T253 427L350 379Q431 338 466 296T501 195Q501 160 486 127ZM373 145T402 118Q423 150
423 188Q423 224 399 251T317 309L223 359Q169 387 140 413Q118 380 118 342Q118 307 142 280T225 221L319 173Q373 145 402 118Z" />
<glyph unicode="&#xa8;" glyph-name="dieresis" horiz-adv-x="300" d="M20 702H110V616H20V702ZM193 702H283V616H193V702Z" />
<glyph unicode="&#xa9;" glyph-name="copyright" horiz-adv-x="823" d="M312 -5T229 43T99 173T51 357Q51 458 98 540T228 669T412 717Q513 717 595 670T725 540T773 357Q773 256 726 174T595 43T412 -5Q312 -5 229 43ZM500 40T571 81T684 195T725 357Q725 445
684 517T572 630T412 672Q324 672 252 631T139 517T98 357Q98 268 139 196T252 82T412 40Q500 40 571 81ZM326 138T271 197T215 357Q215 456 270 515T420 574Q463 574 503 560T571 519L547 465Q489 512 426 512Q362 512 328 472T293 357Q293 281 327 241T426 200Q489
200 547 247L571 193Q542 167 502 153T420 138Q326 138 271 197Z" />
<glyph unicode="&#xaa;" glyph-name="ordfeminine" horiz-adv-x="333" d="M229 717T260 688T291 594V416H222V463Q210 438 187 425T134 411Q89 411 60 437T30 501Q30 534 46 552T101 579T205 588H221V605Q221 636 207 649T164 662Q112 662 65 632L45 684Q70 699
102 708T169 717Q229 717 260 688ZM181 462T201 482T221 535V550H211Q144 550 122 540T99 506Q99 488 113 475T150 462Q181 462 201 482Z" />
<glyph unicode="&#xab;" glyph-name="guillemotleft" horiz-adv-x="445" d="M158 88L26 267L160 448H235L106 268L232 88H158ZM341 88L209 267L343 448H418L289 268L415 88H341Z" />
<glyph unicode="&#xac;" glyph-name="logicalnot" horiz-adv-x="600" d="M546 423V151H485V361H54V423H546Z" />
<glyph unicode="&#xad;" glyph-name="uni00AD" horiz-adv-x="429" d="M73 235V302H356V235H73Z" />
<glyph unicode="&#xae;" glyph-name="registered" horiz-adv-x="823" d="M513 717T595 670T725 540T773 357Q773 256 726 174T595 43T412 -5Q312 -5 229 43T99 173T51 357Q51 458 98 540T228 669T412 717Q513 717 595 670ZM500 40T571 81T684 195T725 357Q725
445 684 517T572 630T412 672Q324 672 252 631T139 517T98 357Q98 268 139 196T252 82T412 40Q500 40 571 81ZM511 312T535 274L613 143H530L450 280Q438 299 424 306T388 314H335V143H261V570H439Q510 570 548 537T587 443Q587 394 559 362T478 321Q511 312 535
274ZM473 372T493 388T513 440Q513 477 493 493T430 510H335V372H430Q473 372 493 388Z" />
<glyph unicode="&#xaf;" glyph-name="overscore" horiz-adv-x="300" d="M0 628V690H303V628H0Z" />
<glyph unicode="&#xb0;" glyph-name="degree" horiz-adv-x="369" d="M144 424T110 443T57 496T37 571Q37 612 56 645T110 698T185 717Q225 717 258 698T311 646T331 571Q331 530 312 496T259 443T185 424Q144 424 110 443ZM224 478T249 504T274 571Q274 611 249
637T185 664Q145 664 120 638T95 571Q95 530 120 504T185 478Q224 478 249 504Z" />
<glyph unicode="&#xb1;" glyph-name="plusminus" horiz-adv-x="600" d="M331 360H546V298H331V124H269V298H54V360H269V534H331V360ZM54 0V63H546V0H54Z" />
<glyph unicode="&#xb2;" glyph-name="uni00B2" horiz-adv-x="380" d="M337 345V285H52V339L196 498Q222 526 235 550T248 597Q248 626 230 641T181 657Q154 657 123 645T63 611L37 665Q67 688 107 702T188 716Q250 716 286 684T322 601Q322 564 305 531T248 456L142
345H337Z" />
<glyph unicode="&#xb3;" glyph-name="uni00B3" horiz-adv-x="380" d="M291 494T311 468T331 402Q331 346 292 314T184 281Q142 281 102 295T32 333L57 386Q121 340 180 340Q218 340 239 356T261 406Q261 472 176 472H119V530H165Q205 530 227 547T249 597Q249
626 231 641T182 657Q123 657 63 611L37 665Q67 688 107 702T186 716Q250 716 285 685T321 603Q321 568 303 543T253 505Q291 494 311 468Z" />
<glyph unicode="&#xb4;" glyph-name="acute" horiz-adv-x="300" d="M180 557H123L223 761H317L180 557Z" />
<glyph unicode="&#xb5;" glyph-name="uni00B5" horiz-adv-x="577" d="M499 503V0H420V87Q396 41 353 17T256 -7Q195 -7 156 20V-216H75V503H156V193Q156 125 184 93T269 61Q336 61 377 104T418 219V503H499Z" />
<glyph unicode="&#xb6;" glyph-name="paragraph" horiz-adv-x="588" d="M500 -182H432V651H313V-182H245V313Q185 313 140 338T71 409T46 513Q46 571 70 616T141 686T247 712H500V-182Z" />
<glyph unicode="&#xb7;" glyph-name="middot" horiz-adv-x="231" d="M64 320H167V217H64V320Z" />
<glyph unicode="&#xb8;" glyph-name="cedilla" horiz-adv-x="300" d="M225 -41T247 -59T270 -111Q270 -148 239 -171T153 -195Q132 -195 107 -190T64 -176L77 -132Q113 -146 153 -146Q180 -146 194 -137T209 -111Q209 -98 200 -91T174 -84Q151 -84 128 -93L108
-77L119 20H176L169 -43Q185 -41 193 -41Q225 -41 247 -59Z" />
<glyph unicode="&#xb9;" glyph-name="uni00B9" horiz-adv-x="380" d="M252 345H328V285H103V345H180V629L108 585V659L197 712H252V345Z" />
<glyph unicode="&#xba;" glyph-name="ordmasculine" horiz-adv-x="345" d="M102 411T62 453T22 565Q22 633 62 675T172 717Q242 717 282 675T323 565Q323 496 283 454T172 411Q102 411 62 453ZM211 469T231 493T251 565Q251 610 231 635T172 660Q134 660 115 635T95
565Q95 518 114 494T172 469Q211 469 231 493Z" />
<glyph unicode="&#xbb;" glyph-name="guillemotright" horiz-adv-x="445" d="M104 88H30L157 268L27 448H103L236 267L104 88ZM287 88H213L340 268L210 448H286L419 267L287 88Z" />
<glyph unicode="&#xbc;" glyph-name="onequarter" horiz-adv-x="935" d="M252 345H328V285H103V345H180V629L108 585V659L197 712H252V345ZM287 -25L227 9L649 737L708 703L287 -25ZM914 141V84H851V0H781V84H587V137L791 427H851V141H914ZM656 141H781V320L656 141Z" />
<glyph unicode="&#xbd;" glyph-name="onehalf" horiz-adv-x="935" d="M252 345H328V285H103V345H180V629L108 585V659L197 712H252V345ZM287 -25L227 9L649 737L708 703L287 -25ZM892 60V0H607V54L751 213Q777 241 790 265T803 312Q803 341 785 356T736 372Q709
372 678 360T618 326L592 380Q622 403 662 417T743 431Q805 431 841 399T877 316Q877 279 860 246T803 171L697 60H892Z" />
<glyph unicode="&#xbe;" glyph-name="threequarters" horiz-adv-x="935" d="M291 494T311 468T331 402Q331 346 292 314T184 281Q142 281 102 295T32 333L57 386Q121 340 180 340Q218 340 239 356T261 406Q261 472 176 472H119V530H165Q205 530 227 547T249 597Q249
626 231 641T182 657Q123 657 63 611L37 665Q67 688 107 702T186 716Q250 716 285 685T321 603Q321 568 303 543T253 505Q291 494 311 468ZM287 -25L227 9L649 737L708 703L287 -25ZM914 141V84H851V0H781V84H587V137L791 427H851V141H914ZM656 141H781V320L656
141Z" />
<glyph unicode="&#xbf;" glyph-name="questiondown" horiz-adv-x="447" d="M186 388V492H289V388H186ZM133 -189T79 -146T24 -33Q24 18 47 53T115 130Q159 172 182 205T211 288L214 306H263V281Q263 238 251 206T221 150T176 98Q141 63 125 36T108 -28Q108 -69
138 -94T220 -119Q289 -119 359 -78V-152Q295 -189 217 -189Q133 -189 79 -146Z" />
<glyph unicode="&#xc0;" glyph-name="Agrave" horiz-adv-x="734" d="M632 0L554 183H182L103 0H18L331 712H403L716 0H632ZM211 251H525L368 617L211 251ZM338 773L204 926H293L395 773H338Z" />
<glyph unicode="&#xc1;" glyph-name="Aacute" horiz-adv-x="734" d="M632 0L554 183H182L103 0H18L331 712H403L716 0H632ZM211 251H525L368 617L211 251ZM395 773H338L440 926H529L395 773Z" />
<glyph unicode="&#xc2;" glyph-name="Acircumflex" horiz-adv-x="734" d="M632 0L554 183H182L103 0H18L331 712H403L716 0H632ZM211 251H525L368 617L211 251ZM293 773H219L339 926H394L514 773H440L367 877L293 773Z" />
<glyph unicode="&#xc3;" glyph-name="Atilde" horiz-adv-x="734" d="M632 0L554 183H182L103 0H18L331 712H403L716 0H632ZM211 251H525L368 617L211 251ZM204 849T228 879T294 910Q315 910 334 902T379 877Q400 864 412 858T437 852Q459 852 471 868T484 907H529Q529
852 505 822T439 791Q418 791 399 799T354 824Q333 837 321 843T296 849Q274 849 262 833T249 794H204Q204 849 228 879Z" />
<glyph unicode="&#xc4;" glyph-name="Adieresis" horiz-adv-x="734" d="M632 0L554 183H182L103 0H18L331 712H403L716 0H632ZM211 251H525L368 617L211 251ZM235 893H325V807H235V893ZM408 893H498V807H408V893Z" />
<glyph unicode="&#xc5;" glyph-name="Aring" horiz-adv-x="734" d="M554 183H182L103 0H18L322 691Q297 703 282 727T266 781Q266 823 295 852T368 881Q410 881 440 852T470 781Q470 751 454 727T412 691L716 0H632L554 183ZM347 831T333 817T319 781Q319 759
332 745T368 730Q389 730 402 744T416 781Q416 802 403 816T368 831Q347 831 333 817ZM211 251H525L368 617L211 251Z" />
<glyph unicode="&#xc6;" glyph-name="AE" horiz-adv-x="1001" d="M951 643H577L599 396H931V327H605L628 69H951V0H559L543 183H196L88 0H-2L431 712H951V643ZM537 251L503 643H469L237 251H537Z" />
<glyph unicode="&#xc7;" glyph-name="Ccedilla" horiz-adv-x="684" d="M592 40T534 17T407 -8L403 -43Q419 -41 427 -41Q459 -41 481 -59T504 -111Q504 -148 473 -171T387 -195Q366 -195 341 -190T298 -176L311 -132Q347 -146 387 -146Q414 -146 428 -137T443
-111Q443 -98 434 -91T408 -84Q385 -84 362 -93L342 -77L350 -6Q261 3 196 49T97 174T62 357Q62 469 102 550T216 676T392 720Q466 720 527 698T634 630L603 567Q552 611 503 630T393 649Q276 649 212 573T147 357Q147 216 211 140T393 63Q453 63 502 82T603 145L634
82Q592 40 534 17Z" />
<glyph unicode="&#xc8;" glyph-name="Egrave" horiz-adv-x="588" d="M88 0V712H538V644H169V396H518V327H169V68H538V0H88ZM298 773L164 926H253L355 773H298Z" />
<glyph unicode="&#xc9;" glyph-name="Eacute" horiz-adv-x="588" d="M88 0V712H538V644H169V396H518V327H169V68H538V0H88ZM355 773H298L400 926H489L355 773Z" />
<glyph unicode="&#xca;" glyph-name="Ecircumflex" horiz-adv-x="588" d="M88 0V712H538V644H169V396H518V327H169V68H538V0H88ZM253 773H179L299 926H354L474 773H400L327 877L253 773Z" />
<glyph unicode="&#xcb;" glyph-name="Edieresis" horiz-adv-x="588" d="M88 0V712H538V644H169V396H518V327H169V68H538V0H88ZM195 893H285V807H195V893ZM368 893H458V807H368V893Z" />
<glyph unicode="&#xcc;" glyph-name="Igrave" horiz-adv-x="258" d="M88 0V712H170V0H88ZM100 773L-34 926H55L157 773H100Z" />
<glyph unicode="&#xcd;" glyph-name="Iacute" horiz-adv-x="258" d="M88 0V712H170V0H88ZM157 773H100L202 926H291L157 773Z" />
<glyph unicode="&#xce;" glyph-name="Icircumflex" horiz-adv-x="258" d="M88 0V712H170V0H88ZM55 773H-19L101 926H156L276 773H202L129 877L55 773Z" />
<glyph unicode="&#xcf;" glyph-name="Idieresis" horiz-adv-x="258" d="M88 0V712H170V0H88ZM-3 893H87V807H-3V893ZM170 893H260V807H170V893Z" />
<glyph unicode="&#xd0;" glyph-name="Eth" horiz-adv-x="760" d="M511 712T604 620T698 357Q698 186 605 93T340 0H101V328H8V394H101V712H340Q511 712 604 620ZM473 70T543 142T613 357Q613 642 336 642H184V394H378V328H184V70H336Q473 70 543 142Z" />
<glyph unicode="&#xd1;" glyph-name="Ntilde" horiz-adv-x="746" d="M581 712H659V0H595L165 573V0H88V712H151L581 139V712ZM210 849T234 879T300 910Q321 910 340 902T385 877Q406 864 418 858T443 852Q465 852 477 868T490 907H535Q535 852 511 822T445 791Q424
791 405 799T360 824Q339 837 327 843T302 849Q280 849 268 833T255 794H210Q210 849 234 879Z" />
<glyph unicode="&#xd2;" glyph-name="Ograve" horiz-adv-x="772" d="M287 -8T214 36T102 162T62 356Q62 468 101 550T213 676T386 720Q486 720 559 676T671 550T710 357Q710 245 671 163T558 37T386 -8Q287 -8 214 36ZM499 62T562 139T625 357Q625 498 563 574T386
650Q272 650 209 574T146 357Q146 216 209 139T386 62Q499 62 562 139ZM356 773L222 926H311L413 773H356Z" />
<glyph unicode="&#xd3;" glyph-name="Oacute" horiz-adv-x="772" d="M287 -8T214 36T102 162T62 356Q62 468 101 550T213 676T386 720Q486 720 559 676T671 550T710 357Q710 245 671 163T558 37T386 -8Q287 -8 214 36ZM499 62T562 139T625 357Q625 498 563 574T386
650Q272 650 209 574T146 357Q146 216 209 139T386 62Q499 62 562 139ZM413 773H356L458 926H547L413 773Z" />
<glyph unicode="&#xd4;" glyph-name="Ocircumflex" horiz-adv-x="772" d="M287 -8T214 36T102 162T62 356Q62 468 101 550T213 676T386 720Q486 720 559 676T671 550T710 357Q710 245 671 163T558 37T386 -8Q287 -8 214 36ZM499 62T562 139T625 357Q625 498 563
574T386 650Q272 650 209 574T146 357Q146 216 209 139T386 62Q499 62 562 139ZM311 773H237L357 926H412L532 773H458L385 877L311 773Z" />
<glyph unicode="&#xd5;" glyph-name="Otilde" horiz-adv-x="772" d="M287 -8T214 36T102 162T62 356Q62 468 101 550T213 676T386 720Q486 720 559 676T671 550T710 357Q710 245 671 163T558 37T386 -8Q287 -8 214 36ZM499 62T562 139T625 357Q625 498 563 574T386
650Q272 650 209 574T146 357Q146 216 209 139T386 62Q499 62 562 139ZM222 849T246 879T312 910Q333 910 352 902T397 877Q418 864 430 858T455 852Q477 852 489 868T502 907H547Q547 852 523 822T457 791Q436 791 417 799T372 824Q351 837 339 843T314 849Q292
849 280 833T267 794H222Q222 849 246 879Z" />
<glyph unicode="&#xd6;" glyph-name="Odieresis" horiz-adv-x="772" d="M287 -8T214 36T102 162T62 356Q62 468 101 550T213 676T386 720Q486 720 559 676T671 550T710 357Q710 245 671 163T558 37T386 -8Q287 -8 214 36ZM499 62T562 139T625 357Q625 498 563
574T386 650Q272 650 209 574T146 357Q146 216 209 139T386 62Q499 62 562 139ZM253 893H343V807H253V893ZM426 893H516V807H426V893Z" />
<glyph unicode="&#xd7;" glyph-name="multiply" horiz-adv-x="600" d="M536 480L344 288L536 95L492 52L300 244L108 52L64 95L256 288L64 480L108 524L300 332L492 524L536 480Z" />
<glyph unicode="&#xd8;" glyph-name="Oslash" horiz-adv-x="772" d="M651 603T680 529T710 357Q710 245 671 163T558 37T386 -8Q300 -8 232 26L189 -47L132 -14L177 63Q121 110 92 185T62 356Q62 468 101 550T213 676T386 720Q472 720 540 686L583 759L639 726L595
650Q651 603 680 529ZM146 209T216 131L504 623Q453 650 386 650Q272 650 209 574T146 357Q146 209 216 131ZM499 62T562 139T625 357Q625 507 555 582L268 90Q318 62 386 62Q499 62 562 139Z" />
<glyph unicode="&#xd9;" glyph-name="Ugrave" horiz-adv-x="731" d="M226 -8T155 64T83 279V712H164V272Q164 168 215 115T366 62Q465 62 515 115T566 272V712H648V279Q648 138 576 65T366 -8Q226 -8 155 64ZM337 773L203 926H292L394 773H337Z" />
<glyph unicode="&#xda;" glyph-name="Uacute" horiz-adv-x="731" d="M226 -8T155 64T83 279V712H164V272Q164 168 215 115T366 62Q465 62 515 115T566 272V712H648V279Q648 138 576 65T366 -8Q226 -8 155 64ZM394 773H337L439 926H528L394 773Z" />
<glyph unicode="&#xdb;" glyph-name="Ucircumflex" horiz-adv-x="731" d="M226 -8T155 64T83 279V712H164V272Q164 168 215 115T366 62Q465 62 515 115T566 272V712H648V279Q648 138 576 65T366 -8Q226 -8 155 64ZM292 773H218L338 926H393L513 773H439L366 877L292 773Z" />
<glyph unicode="&#xdc;" glyph-name="Udieresis" horiz-adv-x="731" d="M226 -8T155 64T83 279V712H164V272Q164 168 215 115T366 62Q465 62 515 115T566 272V712H648V279Q648 138 576 65T366 -8Q226 -8 155 64ZM234 893H324V807H234V893ZM407 893H497V807H407V893Z" />
<glyph unicode="&#xdd;" glyph-name="Yacute" horiz-adv-x="607" d="M624 712L344 288V0H262V289L-18 712H78L304 362L530 712H624ZM331 773H274L376 926H465L331 773Z" />
<glyph unicode="&#xde;" glyph-name="Thorn" horiz-adv-x="651" d="M486 555T545 505T605 363Q605 271 545 220T377 169H169V0H88V712H169V555H377Q486 555 545 505ZM447 237T485 268T524 363Q524 427 486 457T368 487H169V237H368Q447 237 485 268Z" />
<glyph unicode="&#xdf;" glyph-name="germandbls" horiz-adv-x="634" d="M485 342T543 288T602 156Q602 81 551 37T413 -7Q358 -7 309 10T226 58L254 120Q295 88 334 74T415 59Q469 59 496 84T524 158Q524 214 468 255T273 334V396Q364 431 400 473T437 575Q437
624 407 650T319 676Q241 676 200 633T159 503V0H78V494Q78 614 140 677T319 741Q410 741 462 698T514 576Q514 509 479 460T359 373Q485 342 543 288Z" />
<glyph unicode="&#xe0;" glyph-name="agrave" horiz-adv-x="600" d="M521 503V0H441V91Q419 44 375 19T271 -7Q204 -7 154 25T76 115T48 252Q48 330 76 389T154 482T271 515Q330 515 374 489T441 416V503H521ZM361 60T401 110T441 254Q441 347 401 397T287 447Q213
447 172 396T130 252Q130 160 171 110T287 60Q361 60 401 110ZM272 568L135 772H229L329 568H272Z" />
<glyph unicode="&#xe1;" glyph-name="aacute" horiz-adv-x="600" d="M521 503V0H441V91Q419 44 375 19T271 -7Q204 -7 154 25T76 115T48 252Q48 330 76 389T154 482T271 515Q330 515 374 489T441 416V503H521ZM361 60T401 110T441 254Q441 347 401 397T287 447Q213
447 172 396T130 252Q130 160 171 110T287 60Q361 60 401 110ZM329 568H272L372 772H466L329 568Z" />
<glyph unicode="&#xe2;" glyph-name="acircumflex" horiz-adv-x="600" d="M521 503V0H441V91Q419 44 375 19T271 -7Q204 -7 154 25T76 115T48 252Q48 330 76 389T154 482T271 515Q330 515 374 489T441 416V503H521ZM361 60T401 110T441 254Q441 347 401 397T287
447Q213 447 172 396T130 252Q130 160 171 110T287 60Q361 60 401 110ZM228 568H153L272 772H329L448 568H373L301 712L228 568Z" />
<glyph unicode="&#xe3;" glyph-name="atilde" horiz-adv-x="600" d="M521 503V0H441V91Q419 44 375 19T271 -7Q204 -7 154 25T76 115T48 252Q48 330 76 389T154 482T271 515Q330 515 374 489T441 416V503H521ZM361 60T401 110T441 254Q441 347 401 397T287 447Q213
447 172 396T130 252Q130 160 171 110T287 60Q361 60 401 110ZM138 670T162 700T228 730Q249 730 268 722T313 697Q334 684 346 678T371 672Q393 672 405 688T418 727H463Q463 672 439 642T373 612Q352 612 333 620T288 645Q267 658 255 664T230 670Q208 670 196
654T183 615H138Q138 670 162 700Z" />
<glyph unicode="&#xe4;" glyph-name="adieresis" horiz-adv-x="600" d="M521 503V0H441V91Q419 44 375 19T271 -7Q204 -7 154 25T76 115T48 252Q48 330 76 389T154 482T271 515Q330 515 374 489T441 416V503H521ZM361 60T401 110T441 254Q441 347 401 397T287
447Q213 447 172 396T130 252Q130 160 171 110T287 60Q361 60 401 110ZM169 713H259V627H169V713ZM342 713H432V627H342V713Z" />
<glyph unicode="&#xe5;" glyph-name="aring" horiz-adv-x="600" d="M521 503V0H441V91Q419 44 375 19T271 -7Q204 -7 154 25T76 115T48 252Q48 330 76 389T154 482T271 515Q330 515 374 489T441 416V503H521ZM361 60T401 110T441 254Q441 347 401 397T287 447Q213
447 172 396T130 252Q130 160 171 110T287 60Q361 60 401 110ZM258 570T229 598T199 670Q199 712 228 741T301 770Q343 770 372 741T402 670Q402 628 373 599T301 570Q258 570 229 598ZM322 619T335 633T349 670Q349 691 336 705T301 720Q280 720 266 706T252 670Q252
648 265 634T301 619Q322 619 335 633Z" />
<glyph unicode="&#xe6;" glyph-name="ae" horiz-adv-x="881" d="M474 254V253Q474 160 517 110T643 60Q724 60 801 119L827 60Q795 29 744 11T641 -7Q565 -7 511 26T430 123Q410 61 362 27T246 -7Q193 -7 151 13T85 69T61 152Q61 208 89 241T182 291T354 307H394V323Q394
389 369 418T284 448Q198 448 109 394L82 453Q120 481 175 498T283 515Q410 515 451 425Q481 468 526 491T628 515Q725 515 780 449T836 268V254H474ZM566 452T527 415T478 307H763Q758 377 723 414T627 452Q566 452 527 415ZM317 57T355 100T394 213V255H358Q277
255 231 245T164 213T144 155Q144 111 174 84T254 57Q317 57 355 100Z" />
<glyph unicode="&#xe7;" glyph-name="ccedilla" horiz-adv-x="495" d="M440 30T396 13T303 -7L299 -43Q315 -41 323 -41Q355 -41 377 -59T400 -111Q400 -148 369 -171T283 -195Q262 -195 237 -190T194 -176L207 -132Q243 -146 283 -146Q310 -146 324 -137T339
-111Q339 -98 330 -91T304 -84Q281 -84 258 -93L238 -77L246 -4Q154 9 101 77T48 252Q48 330 78 389T163 482T293 515Q344 515 391 498T470 449L443 389Q405 419 370 433T297 447Q220 447 176 396T132 252Q132 161 175 111T297 60Q334 60 369 74T443 118L470 58Q440
30 396 13Z" />
<glyph unicode="&#xe8;" glyph-name="egrave" horiz-adv-x="544" d="M499 254H130Q131 158 174 109T301 60Q389 60 463 119L490 60Q457 29 406 11T300 -7Q182 -7 115 62T48 253Q48 330 78 389T162 482T285 515Q385 515 442 450T499 269V254ZM223 452T184 414T133
307H426Q420 378 385 415T286 452Q223 452 184 414ZM256 568L119 772H213L313 568H256Z" />
<glyph unicode="&#xe9;" glyph-name="eacute" horiz-adv-x="544" d="M499 254H130Q131 158 174 109T301 60Q389 60 463 119L490 60Q457 29 406 11T300 -7Q182 -7 115 62T48 253Q48 330 78 389T162 482T285 515Q385 515 442 450T499 269V254ZM223 452T184 414T133
307H426Q420 378 385 415T286 452Q223 452 184 414ZM313 568H256L356 772H450L313 568Z" />
<glyph unicode="&#xea;" glyph-name="ecircumflex" horiz-adv-x="544" d="M499 254H130Q131 158 174 109T301 60Q389 60 463 119L490 60Q457 29 406 11T300 -7Q182 -7 115 62T48 253Q48 330 78 389T162 482T285 515Q385 515 442 450T499 269V254ZM223 452T184
414T133 307H426Q420 378 385 415T286 452Q223 452 184 414ZM212 568H137L256 772H313L432 568H357L285 712L212 568Z" />
<glyph unicode="&#xeb;" glyph-name="edieresis" horiz-adv-x="544" d="M499 254H130Q131 158 174 109T301 60Q389 60 463 119L490 60Q457 29 406 11T300 -7Q182 -7 115 62T48 253Q48 330 78 389T162 482T285 515Q385 515 442 450T499 269V254ZM223 452T184 414T133
307H426Q420 378 385 415T286 452Q223 452 184 414ZM153 713H243V627H153V713ZM326 713H416V627H326V713Z" />
<glyph unicode="&#xec;" glyph-name="igrave" horiz-adv-x="238" d="M78 0V503H159V0H78ZM91 568L-46 772H48L148 568H91Z" />
<glyph unicode="&#xed;" glyph-name="iacute" horiz-adv-x="238" d="M78 0V503H159V0H78ZM148 568H91L191 772H285L148 568Z" />
<glyph unicode="&#xee;" glyph-name="icircumflex" horiz-adv-x="238" d="M78 0V503H159V0H78ZM47 568H-28L91 772H148L267 568H192L120 712L47 568Z" />
<glyph unicode="&#xef;" glyph-name="idieresis" horiz-adv-x="238" d="M78 0V503H159V0H78ZM-12 713H78V627H-12V713ZM161 713H251V627H161V713Z" />
<glyph unicode="&#xf0;" glyph-name="eth" horiz-adv-x="576" d="M473 548T500 470T528 297Q528 148 466 71T284 -7Q214 -7 161 22T78 106T48 231Q48 302 77 356T159 440T281 470Q391 470 444 395Q425 507 349 581L184 522L167 573L301 621Q243 663 162 684L183
744Q296 715 377 649L509 696L525 645L420 607Q473 548 500 470ZM359 60T400 105T441 231Q441 313 401 358T286 403Q212 403 171 358T130 231Q130 149 170 105T286 60Q359 60 400 105Z" />
<glyph unicode="&#xf1;" glyph-name="ntilde" horiz-adv-x="585" d="M510 515T510 316V0H429V312Q429 382 401 414T313 447Q243 447 201 404T159 288V0H78V362Q78 440 70 503H147L155 413Q178 462 224 488T329 515Q510 515 510 316ZM131 670T155 700T221 730Q242
730 261 722T306 697Q327 684 339 678T364 672Q386 672 398 688T411 727H456Q456 672 432 642T366 612Q345 612 326 620T281 645Q260 658 248 664T223 670Q201 670 189 654T176 615H131Q131 670 155 700Z" />
<glyph unicode="&#xf2;" glyph-name="ograve" horiz-adv-x="572" d="M215 -7T161 25T78 116T48 254Q48 333 77 392T161 483T286 515Q357 515 411 483T494 392T524 254Q524 175 495 116T411 25T286 -7Q215 -7 161 25ZM361 60T401 109T441 254Q441 346 400 396T286
447Q212 447 171 397T130 254Q130 159 170 110T286 60Q361 60 401 109ZM257 568L120 772H214L314 568H257Z" />
<glyph unicode="&#xf3;" glyph-name="oacute" horiz-adv-x="572" d="M215 -7T161 25T78 116T48 254Q48 333 77 392T161 483T286 515Q357 515 411 483T494 392T524 254Q524 175 495 116T411 25T286 -7Q215 -7 161 25ZM361 60T401 109T441 254Q441 346 400 396T286
447Q212 447 171 397T130 254Q130 159 170 110T286 60Q361 60 401 109ZM314 568H257L357 772H451L314 568Z" />
<glyph unicode="&#xf4;" glyph-name="ocircumflex" horiz-adv-x="572" d="M215 -7T161 25T78 116T48 254Q48 333 77 392T161 483T286 515Q357 515 411 483T494 392T524 254Q524 175 495 116T411 25T286 -7Q215 -7 161 25ZM361 60T401 109T441 254Q441 346 400
396T286 447Q212 447 171 397T130 254Q130 159 170 110T286 60Q361 60 401 109ZM213 568H138L257 772H314L433 568H358L286 712L213 568Z" />
<glyph unicode="&#xf5;" glyph-name="otilde" horiz-adv-x="572" d="M215 -7T161 25T78 116T48 254Q48 333 77 392T161 483T286 515Q357 515 411 483T494 392T524 254Q524 175 495 116T411 25T286 -7Q215 -7 161 25ZM361 60T401 109T441 254Q441 346 400 396T286
447Q212 447 171 397T130 254Q130 159 170 110T286 60Q361 60 401 109ZM123 670T147 700T213 730Q234 730 253 722T298 697Q319 684 331 678T356 672Q378 672 390 688T403 727H448Q448 672 424 642T358 612Q337 612 318 620T273 645Q252 658 240 664T215 670Q193
670 181 654T168 615H123Q123 670 147 700Z" />
<glyph unicode="&#xf6;" glyph-name="odieresis" horiz-adv-x="572" d="M215 -7T161 25T78 116T48 254Q48 333 77 392T161 483T286 515Q357 515 411 483T494 392T524 254Q524 175 495 116T411 25T286 -7Q215 -7 161 25ZM361 60T401 109T441 254Q441 346 400 396T286
447Q212 447 171 397T130 254Q130 159 170 110T286 60Q361 60 401 109ZM154 713H244V627H154V713ZM327 713H417V627H327V713Z" />
<glyph unicode="&#xf7;" glyph-name="divide" horiz-adv-x="600" d="M247 439V535H341V439H247ZM546 319V256H54V319H546ZM247 38V134H341V38H247Z" />
<glyph unicode="&#xf8;" glyph-name="oslash" horiz-adv-x="572" d="M480 428T502 375T524 254Q524 175 495 116T411 25T286 -7Q229 -7 180 15L144 -47L95 -18L132 46Q92 80 70 133T48 254Q48 333 77 392T161 483T286 515Q343 515 392 493L427 553L477 526L440
462Q480 428 502 375ZM130 161T170 110L357 433Q327 448 286 448Q212 448 171 398T130 254Q130 161 170 110ZM361 60T401 109T442 254Q442 345 402 396L215 74Q246 60 286 60Q361 60 401 109Z" />
<glyph unicode="&#xf9;" glyph-name="ugrave" horiz-adv-x="577" d="M499 503V0H420V87Q396 41 353 17T256 -7Q167 -7 121 43T75 191V503H156V193Q156 125 184 93T269 61Q336 61 377 104T418 219V503H499ZM260 568L123 772H217L317 568H260Z" />
<glyph unicode="&#xfa;" glyph-name="uacute" horiz-adv-x="577" d="M499 503V0H420V87Q396 41 353 17T256 -7Q167 -7 121 43T75 191V503H156V193Q156 125 184 93T269 61Q336 61 377 104T418 219V503H499ZM317 568H260L360 772H454L317 568Z" />
<glyph unicode="&#xfb;" glyph-name="ucircumflex" horiz-adv-x="577" d="M499 503V0H420V87Q396 41 353 17T256 -7Q167 -7 121 43T75 191V503H156V193Q156 125 184 93T269 61Q336 61 377 104T418 219V503H499ZM216 568H141L260 772H317L436 568H361L289 712L216 568Z" />
<glyph unicode="&#xfc;" glyph-name="udieresis" horiz-adv-x="577" d="M499 503V0H420V87Q396 41 353 17T256 -7Q167 -7 121 43T75 191V503H156V193Q156 125 184 93T269 61Q336 61 377 104T418 219V503H499ZM157 713H247V627H157V713ZM330 713H420V627H330V713Z" />
<glyph unicode="&#xfd;" glyph-name="yacute" horiz-adv-x="531" d="M520 503L285 -46Q248 -132 192 -172T54 -227L37 -164Q108 -148 144 -122T205 -40L225 5L12 503H97L267 88L439 503H520ZM294 568H237L337 772H431L294 568Z" />
<glyph unicode="&#xfe;" glyph-name="thorn" horiz-adv-x="600" d="M393 515T444 483T524 391T553 252Q553 172 524 114T445 24T329 -7Q270 -7 226 19T159 93V-216H78V736H159V414Q181 463 225 489T329 515Q393 515 444 483ZM389 60T429 110T469 252Q469 343 429
395T314 447Q239 447 199 397T159 254Q159 161 199 111T314 60Q389 60 429 110Z" />
<glyph unicode="&#xff;" glyph-name="ydieresis" horiz-adv-x="531" d="M520 503L285 -46Q248 -132 192 -172T54 -227L37 -164Q108 -148 144 -122T205 -40L225 5L12 503H97L267 88L439 503H520ZM134 713H224V627H134V713ZM307 713H397V627H307V713Z" />
<glyph unicode="&#x2013;" glyph-name="endash" horiz-adv-x="505" d="M0 242V295H505V242H0Z" />
<glyph unicode="&#x2014;" glyph-name="emdash" horiz-adv-x="1010" d="M0 242V295H1010V242H0Z" />
<glyph unicode="&#x2018;" glyph-name="quoteleft" horiz-adv-x="231" d="M167 603V499H64V572Q64 614 78 649T125 718L163 688Q124 646 119 603H167Z" />
<glyph unicode="&#x2019;" glyph-name="quoteright" horiz-adv-x="231" d="M167 712V639Q167 597 153 562T106 493L68 523Q107 568 112 609H64V712H167Z" />
<glyph unicode="&#x201a;" glyph-name="quotesinglbase" horiz-adv-x="231" d="M167 103V30Q167 -12 153 -47T106 -115L68 -86Q107 -41 112 0H64V103H167Z" />
<glyph unicode="&#x201c;" glyph-name="quotedblleft" horiz-adv-x="399" d="M167 603V499H64V572Q64 614 78 649T125 718L163 688Q124 646 119 603H167ZM335 603V499H232V572Q232 614 246 649T293 718L331 688Q292 646 287 603H335Z" />
<glyph unicode="&#x201d;" glyph-name="quotedblright" horiz-adv-x="399" d="M167 712V639Q167 597 153 562T106 493L68 523Q107 568 112 609H64V712H167ZM335 712V639Q335 597 321 562T274 493L236 523Q275 568 280 609H232V712H335Z" />
<glyph unicode="&#x201e;" glyph-name="quotedblbase" horiz-adv-x="399" d="M167 103V30Q167 -12 153 -47T106 -115L68 -86Q107 -41 112 0H64V103H167ZM335 103V30Q335 -12 321 -47T274 -115L236 -86Q275 -41 280 0H232V103H335Z" />
<glyph unicode="&#x2022;" glyph-name="bullet" horiz-adv-x="529" d="M216 89T174 112T107 177T82 268Q82 314 106 355T172 422T265 447Q313 447 355 424T422 359T447 268Q447 219 423 178T356 113T265 89Q216 89 174 112Z" />
<glyph unicode="&#x2039;" glyph-name="guilsinglleft" horiz-adv-x="262" d="M158 88L26 267L160 448H235L106 268L232 88H158Z" />
<glyph unicode="&#x203a;" glyph-name="guilsinglright" horiz-adv-x="262" d="M104 88H30L157 268L27 448H103L236 267L104 88Z" />
</font>
</defs>
</svg>
