<?xml version="1.0" standalone="no"?>
<!DOCTYPE svg PUBLIC "-//W3C//DTD SVG 1.1//EN" "http://www.w3.org/Graphics/SVG/1.1/DTD/svg11.dtd" >
<svg xmlns="http://www.w3.org/2000/svg">
<metadata>Generated by IcoMoon</metadata>
<defs>
<font id="hugo" horiz-adv-x="1024">
<font-face units-per-em="1024" ascent="960" descent="-64" />
<missing-glyph horiz-adv-x="1024" />
<glyph unicode="&#x20;" d="" horiz-adv-x="512" />
<glyph unicode="&#x21;" d="M1024 352l-192 192v288h-128v-160l-192 192-512-512v-32h128v-320h320v192h128v-192h320v320h128z" />
<glyph unicode="&#x23;" d="M60.538 960l82.144-921.63 368.757-102.37 369.723 102.525 82.301 921.475h-902.925zM784.63 658.573h-432.541l10.302-115.75h411.968l-31.042-347.010-231.843-64.254-231.573 64.254-15.83 177.512h113.494l8.048-90.232 125.862-33.915 0.278 0.078 125.934 33.992 13.070 146.55-391.742-0.002-30.494 341.8h566.214l-10.107-113.024z" />
<glyph unicode="&#x24;" d="M152.389 911.478l-34.362-171.926h699.749l-21.883-111.054h-700.189l-33.891-171.898h699.683l-39.018-196.064-282.013-93.422-244.4 93.422 16.728 85.042h-171.898l-40.896-206.352 404.226-154.704 466.006 154.704 153.768 772.253z" />
<glyph unicode="&#x25;" d="M0 896v-896h1024v896h-1024zM960 64h-896v768h896v-768zM896 768h-768v-640h768v640zM448 448h-64v-64h-64v-64h-64v64h64v64h64v64h-64v64h-64v64h64v-64h64v-64h64v-64zM704 320h-192v64h192v-64z" />
<glyph unicode="&#x26;" d="M953.395 885.358l-4.027 4.042c-94.149 94.134-248.194 94.134-342.326 0l-218.106-218.136c-94.134-94.133-94.134-248.176 0-342.31l4.026-4.026c7.832-7.848 16.146-14.925 24.736-21.458l79.848 79.85c-9.302 5.494-18.126 12.072-26.115 20.059l-4.042 4.042c-51.114 51.098-51.114 134.272 0 185.39l218.126 218.114c51.115 51.118 134.274 51.118 185.386 0l4.042-4.024c51.101-51.115 51.101-134.293 0-185.39l-98.686-98.686c17.133-42.307 25.248-87.4 24.538-132.386l152.605 152.605c94.136 94.134 94.136 248.178-0.003 342.315zM631.042 571.066c-7.832 7.832-16.146 14.922-24.736 21.44l-79.848-79.832c9.304-5.496 18.126-12.074 26.115-20.062l4.042-4.040c51.115-51.115 51.115-134.272 0-185.389l-218.128-218.133c-51.118-51.102-134.277-51.102-185.389 0l-4.042 4.042c-51.098 51.12-51.098 134.277 0 185.389l98.688 98.686c-17.134 42.306-25.246 87.402-24.538 132.386l-152.602-152.598c-94.136-94.133-94.136-248.178 0-342.325l4.026-4.032c94.152-94.128 248.192-94.128 342.328 0l218.11 218.118c94.134 94.133 94.134 248.194 0 342.326l-4.027 4.024z" />
<glyph unicode="&#x27;" d="M512.604-54.759c-278.645 0-504.532 225.887-504.532 504.534 0 278.645 225.887 504.532 504.532 504.532 278.647 0 504.532-225.887 504.532-504.532 0-278.647-225.886-504.534-504.532-504.534zM512.604-22.58c260.876 0 472.355 211.479 472.355 472.355 0 260.874-211.479 472.355-472.355 472.355-260.874 0-472.355-211.481-472.355-472.355 0-260.876 211.481-472.355 472.355-472.355zM512.604 11.963c-241.796 0-437.81 196.016-437.81 437.812 0 241.795 196.014 437.81 437.81 437.81 241.796 0 437.81-196.016 437.81-437.81 0-241.796-196.014-437.812-437.81-437.812zM818.725 314.428c27.149 0 49.425 8.063 66.824 24.191 17.401 16.128 26.1 37.61 26.1 64.448 0 14.281-3.023 27.884-9.070 40.811-6.047 12.927-14.994 21.976-26.84 27.146 8.885 5.91 15.549 14.159 19.991 24.745 4.442 10.588 6.664 21.668 6.664 33.24 0 23.885-7.344 42.966-22.029 57.247-14.684 14.281-34.122 21.422-58.309 21.422-24.681 0-44.489-7.263-59.42-21.79-14.933-14.528-23.632-33.979-26.1-58.356h51.831c0.494 9.357 3.393 17.544 8.701 24.561 5.306 7.017 12.526 10.526 21.658 10.526 9.872 0 17.647-3.447 23.323-10.34 5.677-6.895 8.515-15.266 8.515-25.115 0-11.82-3.084-21.176-9.254-28.070-6.171-6.894-14.933-10.342-26.286-10.342h-5.923v-38.78l9.996 0.74c11.6 0.984 21.041-3.139 28.322-12.373 7.28-9.233 10.921-19.883 10.921-31.946 0-11.82-3.331-22.222-9.996-31.209-6.664-8.988-15.797-13.481-27.397-13.481-11.6 0-21.041 3.877-28.322 11.634-7.28 7.755-11.167 17.42-11.661 28.993h-54.794c1.481-25.115 10.923-46.045 28.322-62.787 17.401-16.744 38.812-25.115 64.234-25.115zM484.272 321.814h51.832v137.761h41.464v43.582h-41.464v57.431c0 1.355 0.062 3.509 0.184 6.464 0.124 2.955 0.371 5.232 0.741 6.833 0.37 1.6 0.863 3.569 1.481 5.908 0.617 2.339 1.419 4.186 2.406 5.54 0.987 1.355 2.222 2.771 3.703 4.248 1.481 1.477 3.208 2.523 5.184 3.139 1.974 0.616 4.195 0.924 6.663 0.924 5.677 0 12.711-2.093 21.102-6.28v46.167c-7.65 3.94-15.919 5.91-24.804 5.91-23.448 0-40.726-7.755-51.832-23.268-11.107-15.512-16.66-35.457-16.66-59.832v-53.184h-17.4v-43.582h17.4zM641.293 321.814h54.423v278.478h-91.074v-47.275h36.652zM181.097 315.906c19.745 0 36.466 5.848 50.164 17.544 13.699 11.694 20.549 27.268 20.549 46.719 0 14.282-3.395 25.3-10.181 33.056-6.788 7.757-15.859 14.097-27.211 19.021-2.716 1.231-6.356 2.709-10.923 4.432-4.566 1.723-8.083 3.139-10.551 4.247-2.468 1.109-5.122 2.463-7.959 4.063-2.838 1.601-4.874 3.448-6.109 5.54-1.233 2.093-1.851 4.37-1.851 6.833 0 4.186 1.727 7.817 5.184 10.896 3.455 3.077 7.404 4.616 11.846 4.616 9.378 0 18.511-4.186 27.397-12.557l22.213 29.915c-14.316 12.557-33.814 18.837-58.495 18.837-17.032 0-30.914-5.54-41.651-16.62-10.735-11.080-16.105-25.115-16.105-42.104 0-13.049 3.209-23.022 9.626-29.915 6.417-6.895 15.303-12.805 26.656-17.729 1.974-0.738 5.43-2.093 10.367-4.063 4.936-1.969 8.453-3.447 10.551-4.432 2.098-0.984 4.628-2.461 7.59-4.431 2.962-1.971 4.998-4.124 6.109-6.464 1.109-2.339 1.665-4.986 1.665-7.941 0-5.91-1.974-10.65-5.923-14.219-3.949-3.571-8.885-5.356-14.81-5.356-13.081 0-25.915 7.017-38.502 21.052l-23.694-30.655c16.782-20.191 38.132-30.285 64.049-30.285zM273.246 225.049h51.831v113.754h0.741c4.936-7.14 11.846-12.741 20.733-16.804 8.885-4.063 18.141-6.094 27.765-6.094 25.67 0 46.093 9.664 61.273 28.992 15.179 19.329 22.769 42.166 22.769 68.513 0 25.115-7.652 47.335-22.955 66.664-15.301 19.329-35.295 28.993-59.976 28.993-20.979 0-37.763-7.509-50.35-22.53v16.62h-51.831zM362.839 361.703c-12.588 0-22.891 5.232-30.912 15.696-8.023 10.464-12.034 22.222-12.034 35.271 0 13.049 4.011 24.745 12.034 35.087 8.021 10.34 18.325 15.512 30.912 15.512 12.588 0 22.893-5.172 30.914-15.512 8.021-10.342 12.032-22.038 12.032-35.087 0-13.049-4.011-24.807-12.032-35.271-8.021-10.464-18.327-15.696-30.914-15.696z" />
<glyph unicode="&#x28;" d="M321.008-64c-68.246 142.008-31.902 223.378 20.55 300.043 57.44 83.957 72.243 167.067 72.243 167.067 0 0 45.155-58.701 27.093-150.509 79.771 88.8 94.824 230.28 82.782 284.464 180.314-126.011 257.376-398.856 153.522-601.066 552.371 312.533 137.398 780.171 65.154 832.85 24.082-52.675 28.648-141.85-20-185.126-82.352 312.277-285.971 376.277-285.971 376.277 24.082-161.045-87.296-337.144-194.696-468.73-3.774 64.216-7.782 108.528-41.55 169.979-7.581-116.656-96.733-211.747-120.874-328.627-32.702-158.286 24.494-274.181 241.747-396.622z" />
<glyph unicode="&#x29;" d="M512 960c-282.752 0-512-229.248-512-512s229.248-512 512-512 512 229.248 512 512-229.248 512-512 512zM432.64 211.744l-235.584 235.616 90.496 90.496 145.056-145.12 307.744 307.744 90.496-90.496-398.208-398.24z" />
<glyph unicode="&#x2a;" d="M512 960c-282.752 0-512-229.248-512-512s229.248-512 512-512 512 229.248 512 512-229.248 512-512 512zM765.248 285.248l-90.496-90.496-162.752 162.752-162.752-162.752-90.496 90.496 162.752 162.752-162.752 162.752 90.496 90.496 162.752-162.752 162.752 162.752 90.496-90.496-162.752-162.752 162.752-162.752z" />
<glyph unicode="&#x2b;" d="M512 960c-282.77 0-512-229.23-512-512s229.23-512 512-512c282.77 0 512 229.23 512 512 0 282.77-229.23 512-512 512zM515.376 780.874l80.686-251.936 264.438-5.938-214.69-154.501 76.066-253.376-213.315 156.438-217.435-150.688 82.874 251.25-210.499 160.251 264.562-1.186 87.314 249.685z" />
<glyph unicode="&#x2c;" d="M384 348.554v114.226c0 15.128 6.696 29.437 18.854 40.286 12.16 10.848 28.192 16.826 45.146 16.826v57.11c-70.4 0-128-51.4-128-114.222v-85.666c0-15.771-14.328-28.558-32-28.558h-32v-57.11h32c17.674 0 32-12.79 32-28.558v-85.675c0-62.814 57.6-114.214 128-114.214v57.112c-16.954 0-32.987 5.976-45.146 16.826-12.158 10.853-18.854 25.154-18.854 40.278v114.234c0 15.77-14.328 28.554-32 28.554 17.674 0 32 12.79 32 28.554zM640 291.446v-114.234c0-15.125-6.696-29.426-18.854-40.278-12.158-10.85-28.19-16.826-45.146-16.826v-57.112c70.402 0 128 51.4 128 114.214v85.675c0 15.771 14.328 28.558 32 28.558h32v57.11h-32c-17.672 0-32 12.79-32 28.558v85.666c0 62.824-57.598 114.222-128 114.222v-57.11c16.958 0 32.987-5.978 45.146-16.83 12.16-10.848 18.854-25.157 18.854-40.283v-114.227c0-15.766 14.328-28.552 32-28.552-17.672 0.002-32-12.789-32-28.552zM903.432 760.57l-142.864 142.862c-31.112 31.112-92.568 56.568-136.568 56.568h-480c-44 0-80-36-80-80v-864c0-44 36-80 80-80h736c44 0 80 36 80 80v608c0 44-25.456 105.458-56.568 136.57zM858.178 715.314c3.13-3.13 6.25-6.974 9.28-11.314h-163.458v163.456c4.339-3.030 8.184-6.15 11.314-9.28l142.864-142.862zM896 16c0-8.672-7.328-16-16-16h-736c-8.672 0-16 7.328-16 16v864c0 8.672 7.328 16 16 16h480c4.832 0 10.254-0.61 16-1.704v-254.296h254.296c1.094-5.746 1.704-11.166 1.704-16v-608z" />
<glyph unicode="&#x2e;" d="M512 960c-282.77 0-512-229.23-512-512s229.23-512 512-512 512 229.23 512 512-229.23 512-512 512zM512 64c-212.078 0-384 171.922-384 384s171.922 384 384 384c212.078 0 384-171.922 384-384 0-212.078-171.922-384-384-384zM320 448c0-106.039 85.961-192 192-192s192 85.961 192 192c0 106.039-85.961 192-192 192-106.039 0-192-85.961-192-192z" />
<glyph unicode="&#x2f;" d="M288 704l-256-256 256-256h128l-256 256 256 256h-128zM736 704h-128l256-256-256-256h128l256 256-256 256z" />
<glyph unicode="&#x30;" d="M128 448l256 256h-128l-256-256 256-256h128zM768 704h-128l256-256-256-256h128l256 256zM544 832l-160-768h96l160 768z" />
<glyph unicode="&#x31;" d="M505.446 939.469c-271.462-3.635-488.55-226.611-484.915-498.022 3.635-271.411 226.611-488.55 498.074-484.915 271.411 3.584 488.55 226.611 484.915 498.074-3.635 271.411-226.714 488.499-498.074 484.864zM517.171 60.006c-214.323-2.918-390.349 168.499-393.216 382.822-2.867 214.323 168.55 390.349 382.874 393.216 214.272 2.867 390.298-168.55 393.165-382.822s-168.499-390.298-382.822-393.216zM391.731 364.698c-20.736 0-36.454 7.578-47.104 22.733-10.701 15.155-15.974 35.328-15.974 60.57 0 55.501 21.043 83.251 63.078 83.251 8.397 0 17.51-2.816 27.341-8.397 9.779-5.632 18.074-15.462 24.832-29.44l63.027 32.819c-25.19 45.414-67.021 68.147-125.338 68.147-39.834 0-72.704-13.158-98.816-39.526-26.061-26.368-39.117-62.003-39.117-106.854 0-45.978 12.902-81.92 38.707-107.725 25.754-25.805 59.75-38.707 101.786-38.707 26.317 0 50.432 6.605 72.294 19.814s39.014 31.283 51.354 54.323l-58.061 29.44c-11.213-26.931-30.566-40.448-58.010-40.448zM663.398 364.698c-20.787 0-36.506 7.578-47.104 22.733-10.701 15.104-15.974 35.328-15.974 60.57 0 55.501 20.992 83.251 63.078 83.251 9.011 0 18.381-2.816 28.211-8.397 9.779-5.632 18.125-15.462 24.781-29.44l62.208 32.819c-24.678 45.414-66.099 68.147-124.518 68.147-39.782 0-72.704-13.158-98.765-39.526-26.112-26.368-39.117-61.952-39.117-106.803 0-45.978 12.749-81.92 38.246-107.725 25.549-25.805 59.648-38.707 102.246-38.707 25.805 0 49.613 6.605 71.475 19.814 21.811 13.21 39.219 31.283 52.122 54.323l-58.88 29.44c-11.213-26.982-30.515-40.499-58.010-40.499z" />
<glyph unicode="&#x32;" d="M512 627.968c45.67 0 68.506 22.784 68.506 68.403 0 46.234-22.835 69.325-68.506 69.325s-68.454-23.091-68.454-69.325c0-45.619 22.784-68.403 68.454-68.403zM612.966 601.549h-201.882c-8.806 0-16.23-3.072-22.426-9.216s-9.216-13.619-9.216-22.374v-201.011h56.166v-238.746h152.678v238.746h56.218v201.062c0 8.755-3.226 16.179-9.626 22.374-6.451 6.093-13.722 9.165-21.914 9.165zM512 939.52c-271.462 0-491.52-220.058-491.52-491.52s220.058-491.52 491.52-491.52 491.52 220.058 491.52 491.52-220.058 491.52-491.52 491.52zM512 46.592c-221.696 0-401.408 179.712-401.408 401.408s179.712 401.408 401.408 401.408 401.408-179.712 401.408-401.408-179.712-401.408-401.408-401.408z" />
<glyph unicode="&#x33;" d="M512 939.52c-271.462 0-491.52-220.058-491.52-491.52s220.058-491.52 491.52-491.52 491.52 220.058 491.52 491.52-220.058 491.52-491.52 491.52zM132.864 579.789l249.344-111.667 78.080-34.202 57.958-26.368 47.411-20.224c8.806-7.578 13.21-17.51 13.21-29.798 0-17.613-6.042-30.157-18.022-37.734-11.981-7.578-26.522-11.418-43.469-11.418-41.011 0-77.568 14.899-109.773 44.749l-67.533-68.454c45.056-38.605 94.822-58.266 149.197-58.778v-75.52h57.037v75.52c33.894 2.918 63.334 14.131 88.218 33.792 24.832 19.61 40.55 44.851 46.95 75.878l182.221-81.152c-68.301-123.853-200.192-207.821-351.693-207.821-221.696 0-401.408 179.712-401.408 401.408 0 46.182 7.885 90.522 22.272 131.789zM650.803 455.014l-79.002 35.123-105.37 47.36c-2.918 4.096-4.352 8.192-4.352 12.288 0 14.029 5.99 24.013 18.022 29.85 11.93 5.837 25.549 8.806 40.806 8.806 28.672 0 56.73-9.677 84.275-28.979l64.102 65.843c-36.915 28.109-77.875 43.315-122.88 45.67v75.418h-57.088v-75.469c-30.464-1.741-57.088-10.445-79.923-25.856-22.784-15.565-38.298-36.147-46.49-61.901l-187.136 83.968c71.629 109.67 195.43 182.272 336.23 182.272 221.696 0 401.408-179.712 401.408-401.408 0-35.994-4.813-70.861-13.722-103.987l-248.883 111.002z" />
<glyph unicode="&#x39;" d="M256 672c0-17.673 14.327-32 32-32s32 14.327 32 32c0 17.673-14.327 32-32 32-17.673 0-32-14.327-32-32zM448 960h-384c-35.36 0-64-28.64-64-64v-704c0-141.376 114.624-256 256-256s256 114.624 256 256v704c0 35.36-28.64 64-64 64zM160 320c-17.664 0-32 14.304-32 32s14.336 32 32 32c17.696 0 32-14.304 32-32s-14.304-32-32-32zM320 192c-35.36 0-64 28.64-64 64s28.64 64 64 64 64-28.64 64-64-28.64-64-64-64zM384 448h-64c0 35.328-28.672 64-64 64s-64-28.672-64-64h-64v384h256v-384z" horiz-adv-x="512" />
<glyph unicode="&#x3a;" d="M916.334 422.837c2.474 9.934-0.074 20.15-9.362 23.406l-38.619 17.554c-9.544 3.984-21.693-1.398-23.406-10.531-7.454-15.958-18.022-29.022-35.107-29.258-14.824 0-26.917 7.997-36.278 23.99-9.362 15.994-14.043 36.864-14.043 62.61 0 25.746 4.682 46.813 14.043 63.197 9.362 16.384 21.454 24.576 36.278 24.576 18.701-1.358 27.574-13.168 35.107-28.086 3.994-9.8 14.859-12.102 23.406-9.362l38.619 17.554c8.944 4.707 12.928 16.362 8.192 24.576-22.626 48.373-57.734 72.558-105.326 72.558-39.79 0-71.971-15.214-96.549-45.642-24.576-30.429-36.864-70.218-36.864-119.37 0-49.152 12.288-88.746 36.864-118.784 24.576-30.038 56.758-45.056 96.549-45.056 47.592 0 83.090 25.357 106.496 76.067zM544.182 346.77c62.034 0.96 109.272 43.584 110.006 99.474-1.096 29.514-12.965 52.472-33.938 70.218 18.47 17.44 29.074 41.194 29.258 64.366-1.536 63.242-54.136 93.118-105.326 93.622-44.47 0-78.798-17.554-102.986-52.662-5.462-7.805-4.682-15.606 2.339-23.406l28.086-25.746c9.003-8.026 19.018-6.542 26.917 1.17 11.702 16.384 25.746 24.576 42.13 24.576 13.262 0 21.066-3.315 23.406-9.949 4.512-9.84 3.216-18.816 0-26.917-12.070-12.498-29.712-8.778-46.813-8.778-11.122-0.374-19.725-6.896-19.894-17.554v-42.13c0.97-12.086 9.208-20.070 19.894-17.554 12.901 0.011 45.614 1.472 50.909-9.362 2.73-6.242 4.096-11.314 4.096-15.214 0-17.944-9.752-26.917-29.258-26.917-18.725 0-34.328 8.582-46.813 25.746-7.635 9.24-19.701 9.374-26.917 2.339l-29.258-29.258c-7.022-7.022-7.802-14.434-2.339-22.237 26.522-37.31 65.134-53.506 106.496-53.834zM428.325 648.704c2.138 11.218-6.122 22.038-16.384 22.237h-51.491c-9.362 0-14.824-4.682-16.384-14.043l-24.578-125.221-25.746 125.219c-2.339 9.362-8.192 14.043-17.554 14.043h-37.45c-10.144 0-15.997-4.682-17.554-14.043l-25.747-125.219-24.576 125.219c-1.56 9.362-7.413 14.043-17.554 14.043h-50.322c-12.826-1.010-18.992-11.152-17.554-22.237l64.366-283.21c2.339-9.362 8.192-14.043 17.554-14.043h49.152c9.362 0 15.214 4.682 17.554 14.043l23.406 117.027 23.406-117.027c1.56-9.362 7.413-14.043 17.554-14.043h49.152c9.362 0 15.214 4.682 17.554 14.043zM1024 960v-784l-512-240-512 240v784z" />
<glyph unicode="&#x3b;" d="M619.733 7.493c4.4 0 8.25-1.65 11.549-4.95 3.301-3.301 4.95-7.15 4.95-11.549v-37.397c0-5.134-1.65-9.35-4.95-12.648-3.301-3.301-7.15-4.95-11.549-4.95h-214.48c-11.731 0-17.598 5.866-17.598 17.598v37.397c0 4.4 1.65 8.25 4.95 11.549 3.301 3.301 7.515 4.95 12.648 4.95zM619.733 114.182c4.4 0 8.25-1.65 11.549-4.95 3.301-3.301 4.95-7.515 4.95-12.648v-37.397c0-4.4-1.65-8.25-4.95-11.549-3.301-3.301-7.15-4.95-11.549-4.95h-214.48c-5.134 0-9.35 1.65-12.648 4.95-3.301 3.301-4.95 7.15-4.95 11.549v37.397c0 11.731 5.866 17.598 17.598 17.598zM840.811 455.149v0l91.293-14.298c9.531-1.466 17.232-5.685 23.098-12.648 5.866-6.966 8.066-14.482 6.6-22.547-1.466-8.8-5.866-15.582-13.198-20.347-7.331-4.766-16.133-6.416-26.398-4.95l-91.293 14.298c-10.266 1.466-18.147 5.866-23.648 13.198-5.501 7.331-7.515 15.032-6.050 23.098 1.466 8.066 5.866 14.482 13.198 19.248 7.331 4.766 16.133 6.416 26.398 4.95zM830.91 663.029v0l84.691 37.397c8.8 4.4 17.414 5.315 25.848 2.75 8.432-2.576 14.482-7.893 18.147-15.949 3.666-8.070 3.666-16.136 0-24.198-3.666-8.066-10.266-13.931-19.798-17.598l-84.691-38.496c-8.8-3.666-17.414-4.216-25.848-1.65-8.432 2.57-14.482 7.886-18.147 15.949-3.666 8.070-3.485 16.136 0.55 24.198 4.034 8.070 10.448 13.936 19.248 17.598zM687.925 803.814v0l50.595 78.091c5.866 8.066 13.016 13.382 21.448 15.949 8.445 2.566 16.328 1.65 23.648-2.75 7.331-5.134 11.549-12.098 12.648-20.898 1.101-8.8-0.917-17.232-6.050-25.298l-50.595-78.091c-5.866-8.077-13.016-13.392-21.448-15.949-8.432-2.566-16.314-1.65-23.648 2.75-7.334 4.4-11.731 11.182-13.198 20.347-1.466 9.166 0.734 17.782 6.6 25.848zM184.174 455.149c9.531 1.466 18.147-0.184 25.848-4.95s12.282-11.182 13.747-19.248c1.466-8.066-0.734-15.763-6.6-23.098-5.866-7.331-13.931-11.731-24.198-13.198l-91.293-14.298c-9.531-1.466-18.147 0.184-25.848 4.95-7.701 4.766-12.282 11.549-13.747 20.347-1.466 8.067 0.734 15.584 6.6 22.547 5.866 6.968 13.931 11.184 24.198 12.648zM194.075 663.029c8.8-3.666 15.214-9.531 19.248-17.598 4.040-8.066 4.224-16.133 0.55-24.198-3.666-8.066-9.901-13.382-18.698-15.949-8.8-2.566-17.598-2.016-26.398 1.65l-84.691 38.496c-8.8 3.67-15.214 9.536-19.248 17.598-4.034 8.066-4.218 16.133-0.55 24.198 3.666 8.066 9.715 13.382 18.147 15.949 8.432 2.566 17.414 1.65 26.949-2.75zM335.962 803.814c5.866-8.072 8.066-16.686 6.6-25.848-1.466-9.166-5.866-15.949-13.198-20.347-6.6-4.4-14.298-5.315-23.098-2.75-8.8 2.566-15.763 7.882-20.898 15.949l-50.595 78.091c-5.866 8.066-8.066 16.498-6.6 25.298 1.466 8.8 5.866 15.763 13.198 20.898 6.6 4.4 14.298 5.315 23.098 2.75 8.8-2.578 15.763-7.896 20.898-15.949zM543.842 832.413c0-10.266-2.934-18.698-8.8-25.298s-13.198-9.901-21.998-9.901c-8.066 0-15.032 3.301-20.898 9.901-5.866 6.6-8.8 15.032-8.8 25.298v92.39c0 10.266 2.934 18.698 8.8 25.298s12.832 9.901 20.898 9.901c8.8 0 16.133-3.301 21.998-9.901 5.866-6.6 8.8-15.032 8.8-25.298zM721.474 396.306c-14.298-29.698-29.88-61.41-46.746-95.139-26.606-43.034-25.262-93.942-41.795-138.037-2.934-7.701-8.432-12.282-16.498-13.747h-208.979c-8.066 1.466-13.563 6.050-16.498 13.747-12.744 48.162-20.482 95.064-41.795 138.037-16.864 33.73-32.446 65.445-46.746 95.139-32.968 72.878-50.19 157.211-16.498 232.627 12.098 26.398 28.963 48.762 50.595 67.094 21.632 18.331 47.296 32.080 76.992 41.246 29.698 9.166 62.144 13.747 97.341 13.747h2.202c35.195 0 67.645-4.584 97.341-13.747 29.698-9.166 55.36-22.914 76.992-41.246 21.632-18.331 38.68-40.696 51.146-67.094 31.584-79.118 18.672-157.61-17.048-232.627z" />
<glyph unicode="&#x3c;" d="M776.653 882.243l-14.434-69.166c-14.795-2.323-29.048-6.606-42.406-12.582l-49.686 50.198-56.584-45.79 38.702-59.138c-8.622-11.83-15.664-24.834-21.013-38.83l-70.698 0.32-7.6-72.422 69.166-14.434c2.323-14.787 6.61-28.926 12.582-42.278l-50.198-49.814 45.79-56.584 59.138 38.766c11.821-8.616 24.848-15.73 38.83-21.075l-0.32-70.634 72.422-7.6 14.37 69.166c14.8 2.322 29.043 6.542 42.406 12.518l49.75-50.198 56.584 45.854-38.766 59.074c8.622 11.826 15.726 24.84 21.075 38.83l70.634-0.256 7.6 72.422-69.166 14.306c-2.323 14.808-6.536 29.101-12.518 42.47l50.198 49.686-45.854 56.584-59.074-38.702c-11.834 8.629-24.89 15.726-38.894 21.075l0.32 70.634-72.358 7.6zM788.659 714.026c2.275-0.008 4.584-0.077 6.898-0.32 36.998-3.886 63.792-37.022 59.904-74.018-3.886-36.998-37.022-63.856-74.018-59.968-36.998 3.886-63.856 37.022-59.968 74.018 3.643 34.686 33.046 60.406 67.186 60.288zM268.995 708.085l-9.707-96.181c-19.802-5.278-38.558-13.078-55.882-23.118l-74.848 61.182-70.442-70.442 61.182-74.912c-10.042-17.33-17.843-36.074-23.118-55.882l-96.181-9.643v-99.627l96.181-9.707c5.275-19.79 13.086-38.502 23.118-55.818l-61.182-74.912 70.442-70.442 74.912 61.182c17.315-10.034 36.026-17.843 55.818-23.118l9.707-96.181h99.627l9.643 96.181c19.808 5.275 38.552 13.078 55.882 23.118l74.912-61.182 70.442 70.442-61.182 74.848c10.042 17.325 17.84 36.080 23.118 55.882l96.181 9.707v99.627l-96.181 9.643c-5.278 19.818-13.070 38.608-23.118 55.946l61.182 74.848-70.442 70.442-74.848-61.182c-17.338 10.050-36.126 17.84-55.946 23.118l-9.643 96.181h-99.627zM318.81 481.43c50.901 0 92.157-41.256 92.157-92.157s-41.256-92.157-92.157-92.157c-50.901 0-92.157 41.256-92.157 92.157 0 50.901 41.256 92.157 92.157 92.157zM741.784 358.365l-10.154-50.579c-10.4-1.701-20.371-4.824-29.76-9.195l-34.998 36.722-39.723-33.528 27.206-43.235c-6.059-8.654-11.058-18.182-14.816-28.421l-49.622 0.256-5.365-53.008 48.6-10.538c1.632-10.818 4.616-21.206 8.814-30.974l-35.254-36.402 32.187-41.384 41.576 28.357c8.307-6.302 17.442-11.48 27.27-15.392l-0.192-51.73 50.901-5.557 10.090 50.643c10.402 1.698 20.37 4.76 29.76 9.131l34.998-36.722 39.787 33.528-27.27 43.235c6.059 8.651 11.058 18.184 14.816 28.421l49.686-0.192 5.301 52.944-48.6 10.538c-1.634 10.834-4.61 21.258-8.814 31.038l35.254 36.338-32.187 41.448-41.512-28.357c-8.318 6.312-17.493 11.478-27.334 15.392l0.256 51.666-50.901 5.557zM750.214 235.363c1.6-0.006 3.229-0.078 4.854-0.256 26.002-2.843 44.818-27.090 42.086-54.155-2.733-27.066-25.982-46.718-51.986-43.874-26.002 2.843-44.882 27.090-42.15 54.155 2.56 25.376 23.202 44.216 47.195 44.13z" />
<glyph unicode="&#x3d;" d="M0 908.365v-622.304h180.107v-180.048l280.686 180.048h413.074v622.304h-873.869zM914.979 771.571v-78.309h30.712v-443.786h-151.048v-118.624l-184.88 118.624h-132.085l-122.050-78.309h231.070l286.251-183.534v183.533h151.048v600.402h-109.019z" />
<glyph unicode="&#x3e;" d="M927.813 960h-288.563c-52.906 0-126.797-30.606-164.203-68.014l-446.99-446.989c-37.408-37.408-37.408-98.624 0-136.032l344.91-344.906c37.408-37.41 98.622-37.41 136.030 0l446.99 446.989c37.406 37.408 68.013 111.301 68.013 164.202v288.563c0 52.904-43.286 96.187-96.187 96.187zM800 640c-53.021 0-96 42.979-96 96s42.979 96 96 96 96-42.979 96-96-42.979-96-96-96z" />
<glyph unicode="&#x3f;" d="M704 896l-320-320h-192l-192-256c0 0 203.416 56.651 322.066 30.083l-322.066-414.083 421.902 328.144c58.837-134.654-37.902-328.144-37.902-328.144l256 192v192l320 320 64 320-320-64z" />
<glyph unicode="&#x41;" d="M512 960c-282.77 0-512-229.23-512-512s229.23-512 512-512c282.77 0 512 229.23 512 512 0 282.77-229.23 512-512 512zM512 904.25c251.981 0 456.25-204.269 456.25-456.25s-204.269-456.25-456.25-456.25c-251.981 0-456.25 204.269-456.25 456.25 0 251.981 204.269 456.25 456.25 456.25zM285.562 770.624c-12.994-37.768-17.498-78.76-5.874-114.562-14.043-15.584-24.947-33.486-32.75-53.75-20.798-65.73-15.718-149.696 29.813-200.501 15.994-17.533 37.694-31.949 65-43.25 27.306-11.298 62.402-18.506 105.312-21.624-28.8-13.458-49.102-21.682-56.187-51.438-32.125-21.466-71.19-16.344-99.499 7-22.374 16.334-32.509 45.366-57.314 56.125-1.56 1.56-6.432 2.722-14.624 3.499-8.192 0.781-14.632-1.542-19.312-7-2.342-2.334-2.168-4.834 0.562-7.562 18.778-15.272 36.853-31.459 47.438-50.874 10.141-21.042 20.64-36.448 31.562-46.189 30.298-20.474 70.934-31.125 106.501-18.125-4.149-25.027 7.042-64.11-1.189-86.501-3.122-6.234-7.586-11.698-13.438-16.374-5.213-5.086-21.384-11.451-18.123-19.25 1.56-3.506 7.011-5.658 16.373-6.437 20.611 0.525 41.126 8.858 53.251 25.125 4.291 5.845 6.438 13.461 6.438 22.813v95.811c0 10.91 2.317 18.701 7 23.376 4.682 4.677 9.787 7.816 15.25 9.374v-126.25c0-10.91-0.986-20.269-2.939-28.062-1.949-7.792-3.69-13.258-5.25-16.376-3.581-6.006-10.427-11.547-10.562-18.686 0-2.338 1.394-3.674 4.126-4.064 20.496 0.89 44.275 12.915 52.624 29.814 6.632 14.026 9.938 28.789 9.938 44.374v123.938h25.75v-123.938c0-15.586 3.539-30.349 10.562-44.374 7.022-14.027 18.742-23.042 35.126-26.938 8.579-2.338 14.378-3.264 17.499-2.877 3.12 0.39 4.514 1.726 4.125 4.064-1.88 7.080-5.794 13.141-9.939 18.686-5.461 7.014-8.186 21.838-8.186 44.438v126.25c5.461-1.558 10.741-4.698 15.813-9.374 5.069-4.675 7.562-12.466 7.562-23.376v-95.811c0-9.352 2.146-16.968 6.438-22.813 13.042-16.586 32.696-25 53.25-25.125 9.362 0.779 14.814 2.931 16.374 6.437 1.56 3.506 0.402 6.413-3.501 8.75-3.899 2.338-8.773 5.824-14.624 10.499-5.851 4.677-10.315 10.141-13.437 16.374-3.502 40.2-0.091 83.294-2.939 123.938-5.621 44.357-22.693 58.949-56.75 75.939 40.571 3.118 73.928 10.56 100.066 22.25 78.126 37.962 99.731 96.646 100.061 175.312-1.232 50.629-15.848 94.794-49.187 128.626 4.682 17.925 6.075 36.581 4.126 56.062-1.954 19.482-6.074 37.040-12.315 52.624-28.864-1.558-53.054-7.368-72.562-17.501-19.506-10.13-33.544-18.734-42.123-25.749-69.134 15.696-143.142 15.789-209.438-2.312-33.925 27.746-75.968 43.203-115.877 45.562z" />
<glyph unicode="&#x42;" d="M875.126 875.438c-131.84-130.56-325.63-210.44-512.315-221.688h-277.25c-43.643-0.597-83.099-37.725-85.562-86.688v-125c0.595-43.643 36.598-84.224 85.562-86.688h111.126c-29.704-100.736 2.23-202.723 36.688-302.811 51.118-48.266 168.011-42.256 206.126 20.562-81.158 63.798-120.654 235.477-22.813 277.811 166.766-18.922 331.976-103.642 458.438-217.25 43.474 0.595 83.018 36.302 85.562 85v205c34.824 8.968 61.678 40.907 63.31 80.563-0.419 35.798-25.118 69.982-63.312 81.125v204.501c-0.595 43.645-36.598 83.099-85.562 85.563zM877.315 764.877v-521.189c-122.211 95.242-273.17 159.133-428.939 187.811v145.562c152.851 22.998 302.33 93.491 428.936 187.813z" />
<glyph unicode="&#x43;" d="M997.688 797.224l-134.418 134.418c-37.064 37.064-99.781 34.64-139.974-5.654-40.194-40.195-42.819-103.011-5.656-140.075l134.418-134.418c37.064-37.064 99.778-34.64 140.074 5.656 40.194 40.296 42.72 102.91 5.554 140.074zM140.779 343.574l268.838-268.838 436.886 436.784-268.835 268.838-436.89-436.784zM0-61.906l354.578 70.998-283.582 283.581-70.995-354.579z" />
<glyph unicode="&#x44;" d="M445.312 870.374c-181.354-12.744-442.045-41.699-442.186-396.875v-446.875h404.685v478.126h-134.373c-8.515 127.667 96.616 160.632 210.938 185.938l-39.064 179.686zM987.501 870.374c-181.357-12.744-442.045-41.699-442.189-396.875v-446.875h404.688v478.126h-134.374c-8.514 127.667 96.614 160.632 210.936 185.938l-39.061 179.686z" />
<glyph unicode="&#x45;" d="M273.92-57.856h102.4l229.786 409.651h264.294c0 0 153.6 0 153.6 71.629 0 71.68-153.6 71.68-153.6 71.68h-264.294l-229.786 409.6h-102.4l127.386-409.6h-183.654l-115.251 102.451h-102.4l81.971-174.080-81.971-174.131h102.4l115.251 102.451h183.654l-127.386-409.651z" />
<glyph unicode="&#x46;" d="M880.077 747.469c-85.606 78.592-224.41 78.592-310.016 0l-58.061-53.35-58.112 53.35c-85.606 78.592-224.358 78.592-309.965 0-96.307-88.371-96.307-231.629 0-320.051l368.077-337.818 368.077 337.818c96.307 88.422 96.307 231.68 0 320.051z" />
<glyph unicode="&#x47;" d="M627.866 316.518c0 0 361.421 260.762 321.331 559.258-0.922 6.554-3.072 10.854-5.734 13.773-2.816 2.714-7.014 4.966-13.466 5.888-291.686 40.909-546.509-328.909-546.509-328.909-221.082 26.522-205.005-17.613-305.869-259.84-19.302-46.182 11.981-62.106 46.285-49.101 34.304 12.902 110.029 41.523 110.029 41.523l132.557-135.629c0 0-27.955-77.466-40.602-112.538-12.646-35.174 2.867-67.174 48.026-47.462 236.749 103.27 279.859 86.835 253.952 313.037zM679.475 619.418c-30.618 31.334-30.618 82.125 0 113.459 30.618 31.283 80.23 31.283 110.848 0 30.669-31.283 30.669-82.125 0-113.459-30.566-31.386-80.23-31.386-110.848 0z" />
<glyph unicode="&#x48;" d="M961.024 432.64l-410.829 411.187c-20.992 21.811-55.347 21.811-76.339 0l-410.88-411.187c-21.043-21.76-13.21-39.629 17.408-39.629h85.658v-315.802c0-22.784 0.973-41.421 42.189-41.421h199.424v316.826h208.64v-316.826h209.357c31.437 0 32.307 18.586 32.307 41.421v315.802h85.606c30.566 0 38.451 17.818 17.459 39.629z" />
<glyph unicode="&#x49;" d="M348.314-12.749c-9.882 6.502 161.485 366.592 155.546 382.413-5.888 15.821-187.597 73.574-196.506 101.376-8.858 27.802 358.81 445.747 368.435 437.658 9.626-8.038-160.205-370.586-155.546-382.362s190.925-71.987 196.506-101.325c5.581-29.44-358.554-444.211-368.435-437.76z" />
<glyph unicode="&#x4a;" d="M918.989 202.445v117.555c0 71.014-47.002 176.64-176.589 176.64h-102.4c-72.294 0-79.002 35.43-79.36 53.76v143.155c43.674 18.893 74.24 62.31 74.24 112.845 0 67.84-54.989 122.88-122.88 122.88-67.891 0-122.88-55.040-122.88-122.88 0-50.534 30.566-93.952 74.24-112.845v-143.155c0-13.261-3.84-53.76-79.36-53.76h-102.4c-129.587 0-176.64-105.626-176.64-176.64v-117.555c-43.674-18.842-74.24-62.31-74.24-112.845 0-67.84 54.989-122.88 122.88-122.88 67.84 0 122.88 55.040 122.88 122.88 0 50.534-30.566 94.003-74.24 112.845v117.555c0 13.261 3.84 79.36 79.36 79.36h102.4c31.078 0 57.293 4.71 79.36 12.698v-209.613c-43.674-18.842-74.24-62.31-74.24-112.845 0-67.84 54.989-122.88 122.88-122.88 67.891 0 122.88 55.040 122.88 122.88 0 50.534-30.618 94.003-74.291 112.845v209.613c22.067-7.987 48.282-12.698 79.36-12.698h102.4c72.294 0 79.002-61.030 79.411-79.36v-117.555c-43.674-18.842-74.24-62.31-74.24-112.845 0-67.84 54.989-122.88 122.88-122.88s122.88 55.040 122.88 122.88c0 50.534-30.566 94.003-74.291 112.845zM224.512 89.6c0-39.168-31.744-70.912-70.912-70.912s-70.912 31.744-70.912 70.912 31.744 70.912 70.912 70.912 70.912-31.744 70.912-70.912zM441.088 806.4c0 39.168 31.795 70.912 70.912 70.912s70.861-31.744 70.861-70.912-31.744-70.912-70.861-70.912c-39.117 0-70.912 31.744-70.912 70.912zM582.912 89.6c0-39.168-31.795-70.912-70.861-70.912-39.168 0-70.912 31.744-70.912 70.912s31.744 70.912 70.861 70.912c39.117 0 70.912-31.744 70.912-70.912zM870.4 18.688c-39.117 0-70.912 31.744-70.912 70.912s31.795 70.912 70.912 70.912 70.912-31.744 70.912-70.912-31.795-70.912-70.912-70.912z" />
<glyph unicode="&#x4b;" d="M983.040 740.198c-34.714-15.411-71.936-25.754-111.053-30.464 39.936 23.91 70.605 61.798 84.992 106.906-37.325-22.118-78.694-38.246-122.675-46.899-35.277 37.581-85.504 61.030-141.107 61.030-106.752 0-193.28-86.528-193.28-193.229 0-15.155 1.69-29.901 5.018-44.032-160.614 8.038-303.053 84.992-398.336 201.933-16.691-28.518-26.266-61.747-26.266-97.178 0-67.072 34.15-126.208 86.016-160.87-31.693 1.024-61.491 9.677-87.552 24.166 0-0.819 0-1.587 0-2.406 0-93.645 66.662-171.725 155.034-189.542-16.179-4.403-33.28-6.758-50.944-6.758-12.442 0-24.525 1.178-36.352 3.43 24.576-76.8 96-132.659 180.531-134.195-66.15-51.866-149.453-82.739-240.026-82.739-15.616 0-30.976 0.922-46.080 2.714 85.504-54.835 187.085-86.835 296.294-86.835 355.482 0 549.888 294.502 549.888 549.939 0 8.346-0.154 16.691-0.563 24.986 37.786 27.238 70.502 61.286 96.461 100.045z" />
<glyph unicode="&#x4c;" d="M872.571 132.571q32-50.858 12.286-87.142t-80.286-36.286h-658.286q-60.571 0-80.286 36.286t12.286 87.142l287.429 453.142v228h-36.571q-14.858 0-25.714 10.858t-10.858 25.714 10.858 25.714 25.714 10.858h292.571q14.858 0 25.714-10.858t10.858-25.714-10.858-25.714-25.714-10.858h-36.571v-228zM427.429 546.858l-155.429-245.142h406.858l-155.429 245.142-11.429 17.714v249.142h-73.142v-249.142z" horiz-adv-x="950" />
<glyph unicode="&#x4d;" d="M128 704v-640h896v640h-896zM960 170.666l-128 213.334-145.066-120.888-110.934 184.888-384-320v512h768v-469.334zM256 480c0-53.019 42.981-96 96-96s96 42.981 96 96c0 53.019-42.981 96-96 96-53.019 0-96-42.981-96-96zM896 832h-896v-640h64v576h832z" />
<glyph unicode="&#x4e;" d="M480 960v0c265.096 0 480-173.914 480-388.448s-214.904-388.448-480-388.448c-25.458 0-50.446 1.621-74.834 4.71-103.107-102.694-222.173-121.109-341.166-123.814v25.134c64.251 31.354 116 88.466 116 153.734 0 9.106-0.712 18.048-2.030 26.794-108.557 71.214-177.97 179.987-177.97 301.89 0 214.534 214.904 388.448 480 388.448zM996 89.314c0-55.942 36.314-104.898 92-131.771v-21.542c-103.126 2.318-197.786 18.102-287.142 106.126-21.139-2.65-42.794-4.040-64.858-4.040-95.47 0-183.408 25.758-253.614 69.040 144.674 0.506 281.261 46.854 384.835 130.672 52.208 42.251 93.394 91.826 122.413 147.347 30.766 58.866 46.366 121.582 46.366 186.406 0 10.448-0.45 20.835-1.258 31.168 72.57-59.934 117.258-141.622 117.258-231.677 0-104.486-60.158-197.722-154.24-258.763-1.142-7.496-1.76-15.16-1.76-22.966z" horiz-adv-x="1152" />
<glyph unicode="&#x4f;" d="M512 960c-282.77 0-512-229.23-512-512s229.23-512 512-512 512 229.23 512 512-229.23 512-512 512zM302.837 125.848c11.106 30.632 17.163 63.688 17.163 98.152 0 124.35-78.81 230.293-189.208 270.606 10.21 84.925 48.254 163.498 109.678 224.925 72.53 72.525 168.96 112.469 271.53 112.469s199-39.944 271.53-112.47c61.427-61.426 99.469-140 109.682-224.925-110.402-40.312-189.211-146.254-189.211-270.605 0-34.469 6.059-67.52 17.166-98.15-61.706-40.242-133.771-61.85-209.166-61.85-75.394 0-147.458 21.608-209.163 61.848zM551.754 319.003c13.878-3.493 24.246-16.080 24.246-31.003v-64c0-17.6-14.4-32-32-32h-64c-17.6 0-32 14.4-32 32v64c0 14.923 10.368 27.51 24.246 31.003l23.754 448.997h32l23.754-448.997z" />
<glyph unicode="&#x50;" d="M1024 677.499l-90.506 90.501-178.746-178.752-101.501 101.502 178.75 178.749-90.501 90.501-178.749-178.75-114.749 114.75-86.626-86.624 512.002-512.002 86.624 86.624-114.752 114.752zM274.749 210.746c165.768-165.762 385.194-36.362 519.293 75.464l-443.826 443.824c-111.824-134.096-241.227-353.522-75.467-519.288zM191.998 255.997l127.994-127.997-191.992-191.992-127.995 127.994z" />
<glyph unicode="&#x51;" d="M791.498 415.907c-1.294 129.682 105.758 191.875 110.542 194.966-60.152 88.019-153.85 100.078-187.242 101.472-79.742 8.074-155.597-46.949-196.066-46.949-40.368 0-102.818 45.754-168.952 44.552-86.915-1.291-167.058-50.538-211.811-128.379-90.304-156.698-23.126-388.84 64.89-515.926 43.008-62.203 94.293-132.075 161.626-129.581 64.842 2.589 89.362 41.958 167.755 41.958 78.394 0 100.427-41.958 169.050-40.67 69.774 1.296 113.982 63.398 156.693 125.797 49.39 72.168 69.726 142.038 70.925 145.626-1.549 0.707-136.061 52.237-137.41 207.134zM662.562 796.478c35.739 43.357 59.861 103.512 53.28 163.522-51.478-2.096-113.878-34.29-150.81-77.55-33.142-38.376-62.149-99.626-54.374-158.437 57.466-4.483 116.128 29.205 151.904 72.466z" />
<glyph unicode="&#x52;" d="M0.35 448l-0.35 312.074 384 52.144v-364.218zM448 821.518l511.872 74.482v-448h-511.872zM959.998 384l-0.126-448-511.872 72.016v375.984zM384 16.163l-383.688 52.595-0.021 315.242h383.709z" />
<glyph unicode="&#x53;" d="M567.656 223.083c-81.944-38.118-158.158-37.717-209.341-34.021-61.051 4.41-110.158 21.123-131.742 35.731-13.301 9.006-31.384 5.522-40.39-7.782-9.003-13.302-5.52-31.386 7.782-40.39 34.698-23.486 96.067-40.954 160.162-45.579 10.866-0.784 22.798-1.278 35.646-1.278 55.782 0 126.626 5.315 202.419 40.57 14.563 6.778 20.878 24.074 14.104 38.64-6.774 14.57-24.074 20.875-38.64 14.11zM890.947 266.184c2.786 252.688 28.762 730.206-454.97 691.611-477.6-38.442-350.963-542.968-358.082-711.949-6.309-89.386-35.978-198.648-77.896-309.846h129.101c13.266 47.122 23.024 93.72 27.232 138.15 7.782-5.429 16.109-10.674 24.994-15.701 14.458-8.518 26.885-19.843 40.040-31.834 30.744-28.018 65.59-59.774 133.712-63.752 4.571-0.262 9.174-0.394 13.675-0.394 68.896 0 116.014 30.154 153.878 54.382 18.141 11.613 33.818 21.64 48.563 26.453 41.91 13.12 78.531 34.296 105.904 61.251 4.275 4.208 8.242 8.538 11.962 12.949 15.246-55.878 36.118-118.758 59.288-181.504l275.651-0.002c-66.174 102.224-134.437 202.374-133.053 330.184zM124.11 403.648c0 0.016 0 0.030-0.002 0.046-4.746 82.462 34.71 151.832 88.126 154.936 53.413 3.106 100.56-61.227 105.304-143.693 0-0.014 0.005-0.030 0.005-0.043 0.256-4.446 0.368-8.846 0.37-13.206-16.925-4.256-32.192-10.435-45.872-17.63-0.053 0.613-0.091 1.216-0.152 1.83 0 0.008 0 0.018 0 0.026-4.57 46.81-29.571 82.16-55.851 78.958-26.28-3.203-43.88-43.75-39.312-90.558 0-0.010 0.005-0.018 0.005-0.026 1.992-20.408 7.869-38.637 16.042-52.445-2.034-1.603-7.784-5.813-14.406-10.656-4.97-3.634-11.019-8.058-18.314-13.43-19.885 26.094-33.509 63.581-35.942 105.891zM665.261 199.822c-1.901-43.586-58.909-84.592-111.582-101.043l-0.296-0.096c-21.901-7.102-41.427-19.6-62.104-32.83-34.731-22.224-70.646-45.208-122.522-45.208-3.403 0-6.894 0.104-10.326 0.296-47.515 2.778-69.742 23.032-97.88 48.675-14.842 13.526-30.19 27.514-49.976 39.125l-0.424 0.243c-42.706 24.104-69.213 54.082-70.909 80.194-0.842 12.981 4.938 24.218 17.182 33.4 26.637 19.973 44.478 33.022 56.285 41.658 13.11 9.587 17.069 12.48 20 15.264 2.096 1.986 4.365 4.187 6.805 6.562 24.446 23.774 65.36 63.562 128.15 63.562 38.405 0 80.898-14.8 126.17-43.902 21.325-13.878 39.882-20.286 63.381-28.4 16.157-5.578 34.469-11.902 58.992-22.403l0.395-0.165c22.878-9.402 49.894-26.562 48.659-54.93zM652.646 302.194c-4.4 2.214-8.974 4.32-13.744 6.286-22.106 9.456-39.832 15.874-54.534 20.998 8.115 15.894 13.16 35.72 13.624 57.242 0 0.010 0 0.022 0 0.030 1.126 52.374-25.288 94.896-58.997 94.976-33.71 0.078-61.95-42.314-63.075-94.686 0-0.010 0-0.018 0-0.029-0.038-1.714-0.042-3.416-0.021-5.11-20.762 9.552-41.181 16.49-61.166 20.76-0.091 1.968-0.205 3.933-0.243 5.92 0 0.016 0 0.035 0 0.050-1.938 95.413 56.602 174.39 130.754 176.402 74.15 2.014 135.827-73.701 137.771-169.11 0-0.018 0-0.038 0-0.053 0.875-43.142-10.659-82.862-30.368-113.675z" />
<glyph unicode="&#x54;" d="M448 384l-64 64-192-192 192-192 64 64-128 128zM576 128l64-64 192 192-192 192-64-64 128-128zM903.432 760.57l-142.864 142.862c-31.112 31.112-92.568 56.568-136.568 56.568h-480c-44 0-80-36-80-80v-864c0-44 36-80 80-80h736c44 0 80 36 80 80v608c0 44-25.456 105.458-56.568 136.57zM858.178 715.314c3.13-3.13 6.25-6.974 9.28-11.314h-163.458v163.456c4.339-3.030 8.184-6.15 11.314-9.28l142.864-142.862zM896 16c0-8.672-7.328-16-16-16h-736c-8.672 0-16 7.328-16 16v864c0 8.672 7.328 16 16 16h480c4.832 0 10.254-0.61 16-1.704v-254.296h254.296c1.094-5.746 1.704-11.166 1.704-16v-608z" />
<glyph unicode="&#x55;" d="M640 960v-124c0-51.264-20-99.488-56.128-135.616l-362.112-360.128c-57.248-57.12-88.768-132.128-92.256-212.256h-129.504l192-192 192 192h-126.624c3.36 46.016 21.888 88.736 54.752 121.76l362.112 360c60.512 60.48 93.76 140.736 93.76 226.24v124h-128zM766.496 128c-3.488 80.128-35.136 155.136-92.384 212.512l-71.36 70.88-90.752-90.272 71.744-71.36c32.992-32.864 51.488-75.744 54.88-121.76h-126.624l192-192 192 192h-129.504z" horiz-adv-x="896" />
<glyph unicode="&#x56;" d="M1024 448c0 282.77-229.23 512-512 512s-512-229.23-512-512 229.23-512 512-512 512 229.23 512 512zM96 448c0 229.75 186.25 416 416 416s416-186.25 416-416-186.25-416-416-416-416 186.25-416 416zM557.254 146.744l256 256.002c24.994 24.992 24.994 65.514 0 90.507-24.994 24.994-65.517 24.994-90.51 0l-146.744-146.742v357.49c0 35.346-28.654 64-64 64s-64-28.654-64-64v-357.49l-146.744 146.746c-24.994 24.994-65.518 24.994-90.512 0-12.496-12.498-18.744-28.878-18.744-45.256s6.248-32.758 18.744-45.254l256-256.002c24.994-24.992 65.518-24.992 90.51 0z" />
<glyph unicode="&#x68;" d="M1024.837 959.163v-1024h-1024v1024zM401.115 875.925h-153.891v-868.578h161.011v251.921c0 25.921 0.365 43.446 1.096 52.574 0.365 14.239 1.461 25.741 3.286 34.503h0.547c1.096 8.761 2.921 15.88 5.476 21.358 2.19 6.206 4.929 11.5 8.215 15.88l0.547 0.549c4.016 6.572 9.674 12.961 16.976 19.168 6.572 5.476 14.239 10.404 23.002 14.786 10.223 4.016 19.717 7.119 28.478 9.31 10.223 2.19 21.542 3.286 33.956 3.286 17.89 0 32.676-2.19 44.36-6.572 9.857-4.016 17.708-9.674 23.549-16.976 5.476-8.033 10.041-21.176 13.692-39.431 4.016-21.907 6.024-48.195 6.024-78.863v-281.493h161.011v328.045c0 17.159-0.366 37.056-1.096 59.693-1.096 17.16-2.739 31.033-4.929 41.621-2.19 10.223-5.112 20.082-8.763 29.574-4.38 9.859-8.945 18.621-13.69 26.288-9.494 14.604-19.715 26.47-30.67 35.597-10.953 9.127-24.461 17.708-40.525 25.739h-0.549c-15.333 6.572-31.582 11.502-48.74 14.788-17.525 3.286-36.329 4.929-56.409 4.929-20.447 0-42.534-2.192-66.266-6.572-20.811-4.382-39.98-10.953-57.505-19.715-16.794-8.398-32.858-19.715-48.193-33.954z" />
<glyph unicode="&#xe000;" d="M873.984 85.952c-199.872-199.936-524.096-199.936-724.032 0-200 199.936-200 524.16 0 724.096 199.936 199.936 524.16 199.936 724.032 0 200-199.936 200-524.16 0-724.096zM512 768c-176.704 0-320-143.232-320-320s143.296-320 320-320c102.528 0 192.768 49.152 251.392 124.096l-235.392 135.872 285.056 164.544c-43.52 125.184-161.152 215.488-301.056 215.488zM832 448c-35.392 0-64-28.608-64-64s28.608-64 64-64 64 28.608 64 64-28.608 64-64 64zM576 640c35.392 0 64-28.608 64-64 0-35.328-28.608-64-64-64s-64 28.672-64 64c0 35.392 28.608 64 64 64z" />
<glyph unicode="&#xe001;" d="M848.512 445.013c0.128 0.299 0.171 0.64 0.299 0.939 2.858 7.296 4.522 15.104 4.522 23.381s-1.664 16.085-4.523 23.381c-0.128 0.299-0.171 0.64-0.299 0.939-3.243 7.936-8.021 15.061-13.995 21.035l-213.248 213.248c-25.003 25.003-65.493 25.003-90.496 0-25.003-24.96-25.003-65.536 0-90.496l104.066-104.107h-400.17c-35.328 0-64-28.629-64-64s28.672-64 64-64h400.171l-104.064-104.064c-25.003-24.96-25.003-65.536 0-90.496 12.458-12.544 28.842-18.773 45.226-18.773s32.768 6.229 45.269 18.731l213.248 213.248c5.974 5.973 10.752 13.141 13.995 21.034z" />
<glyph unicode="&#xe002;" d="M175.488 493.653c-0.128-0.299-0.171-0.64-0.299-0.939-2.858-7.294-4.522-15.102-4.522-23.381s1.664-16.085 4.523-23.381c0.128-0.299 0.171-0.64 0.299-0.939 3.243-7.936 8.021-15.061 13.995-21.035l213.248-213.248c25.003-25.003 65.493-25.003 90.496 0 25.003 24.96 25.003 65.536 0 90.496l-104.066 104.107h400.17c35.328 0 64 28.629 64 64s-28.672 64-64 64h-400.17l104.064 104.064c25.003 24.96 25.003 65.536 0 90.496-12.459 12.544-28.843 18.774-45.227 18.774s-32.768-6.23-45.269-18.731l-213.248-213.248c-5.974-5.973-10.752-13.141-13.995-21.035z" />
<glyph unicode="&#xe004;" d="M839.68 755.2c0 67.84-54.989 122.88-122.88 122.88s-122.88-55.040-122.88-122.88c0-49.818 29.696-92.621 72.294-111.923-11.622-99.738-75.878-119.859-168.704-148.838-45.056-14.080-97.434-30.464-141.67-62.31v210.227c43.674 18.893 74.24 62.31 74.24 112.845 0 67.84-55.040 122.88-122.88 122.88-67.891 0-122.88-55.040-122.88-122.88 0-50.534 30.566-93.952 74.24-112.845v-388.762c-43.674-18.79-74.24-62.208-74.24-112.794 0-67.84 54.989-122.88 122.88-122.88 67.84 0 122.88 55.040 122.88 122.88 0 49.818-29.696 92.621-72.346 111.923 11.674 99.738 75.981 119.91 168.755 148.838 94.362 29.491 221.491 69.274 237.261 240.077 44.544 18.534 75.93 62.362 75.93 113.562zM236.288 755.2c0 39.168 31.744 70.912 70.912 70.912s70.912-31.744 70.912-70.912-31.744-70.912-70.912-70.912-70.912 31.744-70.912 70.912zM307.2 69.888c-39.168 0-70.912 31.744-70.912 70.912s31.744 70.912 70.912 70.912 70.912-31.744 70.912-70.912-31.744-70.912-70.912-70.912zM716.8 684.288c-39.117 0-70.912 31.744-70.912 70.912s31.795 70.912 70.912 70.912 70.912-31.744 70.912-70.912-31.795-70.912-70.912-70.912z" />
<glyph unicode="&#xe005;" d="M960.005 671.994l-223.998 223.998 64 64 223.997-223.998zM896 608l-32-352c-288 0-704-320-704-320l-53.13 53.13 273.664 273.664c10.973-4.368 22.934-6.794 35.466-6.794 53.019 0 96 42.981 96 96 0 53.019-42.981 96-96 96-53.019 0-96-42.981-96-96 0-12.533 2.426-24.49 6.794-35.466l-273.664-273.664-53.13 53.13c0 0 320 416 320 704l352 32 224-224z" />
<glyph unicode="&#xe600;" d="M1024.648 963.326v-1023.809h-1023.811v1023.809zM410.696 865.988h-38.127c-14.952-1.494-32.147-3.551-51.583-6.167-19.438-2.617-38.875-5.607-58.313-8.972-19.438-3.363-37.94-7.288-55.508-11.774-17.569-4.486-31.96-8.97-43.174-13.456v-43.734l85.225-8.972v-679.56c-26.166-5.982-50.835-14.952-74.011-26.913v-43.734h297.167v43.734c-10.466 7.476-20.371 13.083-29.716 16.821s-19.998 7.103-31.96 10.093v311.744c8.97 26.913 23.923 50.65 44.855 71.208 20.932 20.559 46.351 30.839 76.255 30.839 35.884 0 59.994-15.139 72.329-45.416 12.335-30.278 18.502-77.563 18.502-141.856v-226.52c-12.708-3.738-23.922-7.851-33.641-12.335-9.718-4.486-19.063-9.345-28.035-14.579v-43.734h297.167v43.734c-11.214 7.476-23.176 13.083-35.884 16.821-12.71 3.738-25.419 7.103-38.127 10.093v268.010c0 46.351-4.113 84.666-12.337 114.942-8.222 30.278-20.184 54.387-35.884 72.329-15.7 17.943-35.323 30.466-58.873 37.567-23.549 7.103-50.275 10.653-80.178 10.653-20.933 0-40.744-3.363-59.434-10.093-18.69-6.728-36.071-15.885-52.145-27.474-16.073-11.587-30.464-25.043-43.172-40.369-12.71-15.325-22.802-31.585-30.278-48.781h-1.121z" />
</font>
</defs>
</svg>
